<?xml version="1.0" standalone="no"?>
<!DOCTYPE svg PUBLIC "-//W3C//DTD SVG 1.1//EN" "http://www.w3.org/Graphics/SVG/1.1/DTD/svg11.dtd" >
<svg xmlns="http://www.w3.org/2000/svg">
<metadata>Generated by IcoMoon</metadata>
<defs>
<font id="icomoon" horiz-adv-x="1024">
<font-face units-per-em="1024" ascent="960" descent="-64" />
<missing-glyph horiz-adv-x="1024" />
<glyph unicode="&#x20;" horiz-adv-x="512" d="" />
<glyph unicode="&#xe900;" glyph-name="info-icon" horiz-adv-x="1081" d="M549.926 897.417c-248.209 0-449.422-201.213-449.422-449.422 0-248.206 201.213-449.422 449.422-449.422s449.424 201.216 449.424 449.422c0 248.209-201.216 449.422-449.424 449.422zM43.615 447.994c0 279.628 226.683 506.311 506.311 506.311s506.313-226.683 506.313-506.311c0-279.626-226.685-506.311-506.313-506.311s-506.311 226.685-506.311 506.311zM578.372 681.921v-57.572h-56.891v57.572h56.891zM578.372 214.75v-5.689h-56.891v5.689h-73.956v56.889h73.956v147.911h-73.956v56.889h73.956v5.689h56.891v-210.489h73.956v-56.889h-73.956z" />
<glyph unicode="&#xe901;" glyph-name="plus-icon" d="M577.946 382.127l369.898-0.404c16.216 0.001 31.766 6.445 43.235 17.913s17.913 27.021 17.913 43.238c0 16.217-6.437 31.77-17.905 43.236s-27.019 17.908-43.235 17.907l-369.897-0.457 0.457 369.897c0.001 16.217-6.44 31.77-17.906 43.236s-27.020 17.908-43.237 17.906c-16.217-0.001-31.77-6.445-43.238-17.913s-17.911-27.022-17.913-43.239l0.404-369.897-369.897 0.404c-8.039 0.032-16.005-1.527-23.439-4.589s-14.188-7.565-19.873-13.25c-5.685-5.685-10.188-12.439-13.25-19.873s-4.621-15.4-4.589-23.439c-0.034-8.039 1.525-16.005 4.586-23.439s7.563-14.187 13.247-19.871c5.684-5.684 12.438-10.187 19.871-13.247s15.399-4.62 23.438-4.586l369.897 0.457-0.456-369.896c-0.034-8.038 1.524-16.004 4.585-23.442 3.061-7.431 7.563-14.182 13.248-19.866s12.437-10.189 19.871-13.253c7.434-3.057 15.399-4.615 23.439-4.579 8.039-0.037 16.005 1.521 23.439 4.586s14.188 7.563 19.873 13.246c5.685 5.691 10.188 12.442 13.25 19.88 3.062 7.431 4.622 15.397 4.589 23.435l-0.404 369.897z" />
<glyph unicode="&#xe902;" glyph-name="eye-password-icon" d="M511.996 568.703c-66.807 0-120.746-53.938-120.746-120.746 0-21.777 5.714-42.091 15.799-59.695l164.642 164.642c-17.604 10.085-37.918 15.799-59.695 15.799zM327.25 447.957c0 102.152 82.594 184.746 184.746 184.746 51.106 0 97.114-20.712 130.577-54.173 12.493-12.497 12.493-32.758 0-45.257l-215.893-215.893c-12.499-12.493-32.76-12.493-45.257 0-33.46 33.463-54.173 79.471-54.173 130.577zM96.323 575.66c102.013 160.357 251.5 257.15 415.681 257.15 95.983 0 187.968-33.434 267.588-93.492 14.11-10.643 16.922-30.708 6.281-44.817-10.645-14.109-30.711-16.92-44.821-6.277-69.709 52.581-148.39 80.587-229.047 80.587-137.040 0-268.293-80.691-361.693-227.522l-0.027-0.042c-15.129-23.704-23.773-57.632-23.773-93.502 0-35.874 8.644-69.803 23.773-93.504l0.015-0.021c32.161-50.483 69.401-93.696 109.504-128.188 13.399-11.524 14.92-31.727 3.397-45.124-11.524-13.402-31.728-14.921-45.127-3.401-45.23 38.899-86.497 86.989-121.75 142.323-23.261 36.454-33.812 83.157-33.812 127.915s10.551 91.461 33.813 127.916zM835.413 646.545c13.773 11.077 33.916 8.893 44.992-4.879 16.38-20.363 32.469-42.245 47.313-65.63 23.236-36.448 33.779-83.126 33.779-127.866 0-44.757-10.551-91.46-33.813-127.915-102.012-160.358-251.499-257.152-415.68-257.152-57.024 0-112.86 12.058-165.164 34.082-16.288 6.857-23.933 25.621-17.074 41.907 6.858 16.29 25.622 23.936 41.91 17.075 44.976-18.935 92.396-29.065 140.328-29.065 137.041 0 268.292 80.691 361.694 227.52l0.026 0.043c15.13 23.701 23.774 57.63 23.774 93.504s-8.644 69.803-23.774 93.503l-0.043 0.071c-13.321 20.989-27.951 40.92-43.145 59.81-11.076 13.771-8.892 33.914 4.877 44.991zM667.567 449.562c17.378-3.204 28.873-19.895 25.664-37.274-13.5-73.212-72.777-132.489-145.984-145.988-17.382-3.204-34.069 8.286-37.274 25.668-3.204 17.378 8.286 34.069 25.668 37.274 47.108 8.687 85.965 47.543 94.652 94.652 3.204 17.382 19.891 28.873 37.274 25.668zM426.679 362.637c12.497-12.497 12.497-32.755 0-45.252l-318.719-318.72c-12.497-12.497-32.758-12.497-45.255 0s-12.497 32.755 0 45.252l318.72 318.72c12.497 12.497 32.758 12.497 45.254 0zM961.297 897.251c12.497-12.497 12.497-32.758 0-45.255l-318.72-318.718c-12.497-12.497-32.759-12.497-45.257 0-12.497 12.495-12.497 32.756 0 45.253l318.72 318.72c12.497 12.497 32.759 12.497 45.257 0z" />
<glyph unicode="&#xe903;" glyph-name="lock-icon" horiz-adv-x="983" d="M415.592 591.89c-11.094-13.756-16.232-35.476-16.232-67.652v-40.96c0-16.966-13.754-30.72-30.72-30.72s-30.72 13.754-30.72 30.72v40.96c0 35.815 5.101 75.536 29.847 106.221 25.9 32.116 67.33 47.378 123.753 47.378s97.853-15.263 123.752-47.378c24.748-30.685 29.848-70.406 29.848-106.221v-40.96c0-16.966-13.754-30.72-30.72-30.72s-30.72 13.754-30.72 30.72v40.96c0 32.176-5.14 53.895-16.232 67.652-9.941 12.326-29.95 24.507-75.928 24.507s-65.987-12.181-75.928-24.507zM491.52 354.255c3.396 0 6.144 2.753 6.144 6.144s-2.748 6.144-6.144 6.144c-3.396 0-6.144-2.753-6.144-6.144s2.748-6.144 6.144-6.144zM436.224 360.399c0 30.536 24.756 55.296 55.296 55.296s55.296-24.76 55.296-55.296c0-30.54-24.756-55.296-55.296-55.296s-55.296 24.756-55.296 55.296zM328.922 441.074c-5.591-5.591-11.482-19.018-11.482-60.195v-40.96c0-41.181 5.892-54.608 11.482-60.199s19.018-11.481 60.198-11.481h204.8c41.181 0 54.608 5.89 60.199 11.481s11.481 19.018 11.481 60.199v40.96c0 41.177-5.89 54.604-11.481 60.195s-19.018 11.485-60.199 11.485h-204.8c-41.18 0-54.607-5.894-60.198-11.485zM285.478 484.52c25.129 25.129 62.902 29.479 103.642 29.479h204.8c40.739 0 78.512-4.35 103.641-29.479s29.479-62.902 29.479-103.641v-40.96c0-40.743-4.35-78.516-29.479-103.645s-62.902-29.475-103.641-29.475h-204.8c-40.74 0-78.513 4.346-103.642 29.475s-29.478 62.902-29.478 103.645v40.96c0 40.739 4.348 78.512 29.478 103.641zM491.52 821.198c-209.249 0-378.88-169.631-378.88-378.879 0-209.252 169.631-378.88 378.88-378.88s378.88 169.628 378.88 378.88c0 209.248-169.632 378.879-378.88 378.879zM51.2 442.319c0 243.181 197.138 440.319 440.32 440.319 243.184 0 440.32-197.138 440.32-440.319 0-243.184-197.136-440.32-440.32-440.32-243.182 0-440.32 197.136-440.32 440.32z" />
<glyph unicode="&#xe904;" glyph-name="mail-icon" horiz-adv-x="983" d="M159.144 719.409c-27.851-25.862-46.504-67.824-46.504-133.649v-286.719c0-65.827 18.652-107.786 46.504-133.648 28.263-26.247 70.846-40.432 127.576-40.432h409.6c56.73 0 99.312 14.184 127.578 40.432 27.849 25.862 46.502 67.822 46.502 133.648v286.719c0 65.825-18.653 107.787-46.502 133.649-28.266 26.244-70.849 40.431-127.578 40.431h-409.6c-56.731 0-99.314-14.187-127.576-40.431zM117.336 764.432c43.417 40.316 103.234 56.848 169.384 56.848h409.6c66.15 0 125.968-16.533 169.382-56.848 43.831-40.699 66.138-101.136 66.138-178.672v-286.719c0-77.537-22.307-137.974-66.138-178.672-43.414-40.317-103.231-56.848-169.382-56.848h-409.6c-66.149 0-125.966 16.531-169.384 56.848-43.829 40.698-66.136 101.134-66.136 178.672v286.719c0 77.535 22.308 137.973 66.136 178.672zM720.323 584.452c10.588-13.257 8.425-32.587-4.829-43.174l-128.246-102.433c-53.387-42.5-138.478-42.5-191.866 0l-0.076 0.061-127.795 102.4c-13.24 10.609-15.373 29.943-4.764 43.182s29.943 15.373 43.183 4.764l127.755-102.366c30.99-24.642 84.3-24.637 115.282 0.016 0.004 0.004-0.004-0.004 0 0l128.18 102.38c13.259 10.589 32.588 8.425 43.176-4.831z" />
<glyph unicode="&#xe905;" glyph-name="password-icon" horiz-adv-x="983" d="M788.505 739.31c-109.273 108.904-286.052 108.852-394.865 0.036l-0.053-0.053c-75.89-75.522-98.897-184.338-69.313-280.488 3.346-10.875 0.407-22.708-7.639-30.757l-192.307-192.303c-2.69-2.83-6.335-8.679-8.963-16.564-2.674-8.020-3.179-14.799-2.637-18.518l0.036-0.246 12.25-89.022c1.151-7.205 5.461-15.729 12.726-23.028 7.322-7.356 15.648-11.473 22.505-12.435l89.538-12.325c4.067-0.59 10.992-0.106 18.762 2.408 7.824 2.535 13.295 6.091 15.801 8.671l0.333 0.34 192.923 192.512c8.086 8.065 19.972 10.981 30.872 7.574 95.523-29.876 204.374-6.636 280.424 69.018 108.806 108.831 108.802 286.354-0.393 395.18zM350.221 782.817c132.853 132.823 348.454 132.761 481.652 0.010 133.284-132.831 133.284-349.327 0.446-482.165l-0.053-0.049c-87.929-87.503-211.923-117.527-323.985-89.264l-180.054-179.671c-11.399-11.649-26.524-19.501-40.74-24.109-14.305-4.637-30.874-7.016-46.426-4.78-0.048 0.008-0.095 0.016-0.143 0.020l-89.047 12.255c-22.626 3.142-42.788 15.004-57.674 29.958-14.893 14.959-26.547 35.025-29.946 57.274l-0.069 0.451-12.25 89.047c-0.007 0.049-0.014 0.094-0.020 0.139-2.289 15.901 0.48 32.621 5.166 46.674 4.706 14.119 12.462 28.905 23.279 40.047l0.319 0.332 179.848 179.843c-27.902 112.257 1.614 236.313 89.697 323.987zM260.492 239.251c11.997 11.997 31.448 11.997 43.445 0l94.208-94.208c11.996-11.997 11.996-31.445 0-43.442-11.997-11.997-31.447-11.997-43.445 0l-94.208 94.208c-11.997 11.997-11.997 31.445 0 43.442zM593.92 575.52c-16.966 0-30.72-13.754-30.72-30.719s13.754-30.72 30.72-30.72c16.966 0 30.72 13.754 30.72 30.72s-13.754 30.719-30.72 30.719zM501.76 544.801c0 50.898 41.263 92.159 92.16 92.159s92.16-41.261 92.16-92.159c0-50.901-41.263-92.16-92.16-92.16s-92.16 41.259-92.16 92.16z" />
<glyph unicode="&#xe906;" glyph-name="timer-icon" horiz-adv-x="983" d="M491.52 718.798c-180.871 0-327.68-146.81-327.68-327.679 0-180.871 146.809-327.68 327.68-327.68s327.68 146.809 327.68 327.68c0 180.869-146.809 327.679-327.68 327.679zM102.4 391.119c0 214.802 174.317 389.119 389.12 389.119s389.12-174.317 389.12-389.119c0-214.802-174.318-389.12-389.12-389.12s-389.12 174.318-389.12 389.12zM491.52 636.878c16.966 0 30.72-13.754 30.72-30.72v-204.799c0-16.966-13.754-30.72-30.72-30.72s-30.72 13.754-30.72 30.72v204.799c0 16.966 13.754 30.72 30.72 30.72zM337.92 851.918c0 16.966 13.754 30.72 30.72 30.72h245.76c16.966 0 30.72-13.754 30.72-30.72s-13.754-30.72-30.72-30.72h-245.76c-16.966 0-30.72 13.754-30.72 30.72z" />
<glyph unicode="&#xe907;" glyph-name="FA-document-icon" d="M50.303 448l-25.020 10.008c-2.57-6.424-2.57-13.591 0-20.015l25.020 10.008zM955.732 448l25.023-10.008c2.571 6.425 2.571 13.592 0 20.017l-25.023-10.008zM503.017 151.579c-151.66 0-258.095 75.544-327.591 152.764-34.767 38.63-59.946 77.351-76.416 106.416-8.22 14.506-14.229 26.532-18.144 34.838-1.957 4.15-3.387 7.364-4.307 9.487-0.46 1.061-0.792 1.848-0.998 2.342-0.102 0.247-0.174 0.421-0.214 0.519-0.020 0.049-0.032 0.079-0.036 0.089-0.002 0.005-0.003 0.006-0.001 0.002 0.001-0.002 0.004-0.009 0.004-0.010 0.003-0.008 0.007-0.018-25.013-10.025s-25.015-10.020-25.010-10.033c0.002-0.006 0.008-0.020 0.013-0.032 0.010-0.024 0.021-0.053 0.035-0.087 0.027-0.067 0.063-0.155 0.106-0.261 0.087-0.213 0.206-0.503 0.358-0.868 0.304-0.729 0.738-1.758 1.304-3.066 1.133-2.614 2.797-6.348 5.009-11.039 4.422-9.379 11.044-22.616 20.003-38.426 17.887-31.566 45.255-73.687 83.246-115.899 76.020-84.465 195.942-170.605 367.65-170.605v53.895zM50.303 448c25.020-10.008 25.016-10.017 25.013-10.025-0.001-0.001-0.003-0.008-0.004-0.010-0.002-0.004-0.001-0.004 0.001 0.002 0.004 0.011 0.016 0.040 0.036 0.089 0.040 0.098 0.112 0.272 0.214 0.519 0.206 0.494 0.538 1.282 0.998 2.342 0.919 2.122 2.35 5.337 4.307 9.487 3.915 8.305 9.924 20.331 18.144 34.837 16.47 29.065 41.649 67.787 76.416 106.417 69.496 77.218 175.93 152.764 327.591 152.764v53.895c-171.708 0-291.631-86.138-367.65-170.605-37.991-42.212-65.359-84.333-83.246-115.899-8.959-15.81-15.582-29.047-20.003-38.426-2.212-4.692-3.876-8.425-5.009-11.039-0.567-1.308-1.001-2.336-1.304-3.066-0.152-0.365-0.271-0.655-0.358-0.868-0.043-0.107-0.079-0.194-0.106-0.261-0.014-0.034-0.025-0.063-0.035-0.087-0.005-0.012-0.011-0.026-0.013-0.032-0.005-0.013-0.010-0.025 25.010-10.033zM503.017 744.421c151.658 0 258.095-75.546 327.592-152.764 34.767-38.63 59.947-77.351 76.417-106.417 8.219-14.506 14.228-26.532 18.141-34.837 1.956-4.15 3.39-7.364 4.312-9.487 0.458-1.061 0.787-1.849 0.997-2.343 0.102-0.247 0.172-0.42 0.21-0.518 0.022-0.049 0.032-0.079 0.038-0.090 0-0.005 0-0.006 0-0.002 0 0.002-0.005 0.009-0.005 0.010 0 0.008-0.005 0.017 25.013 10.025 25.023 10.008 25.018 10.020 25.013 10.033 0 0.006-0.005 0.020-0.011 0.032-0.011 0.024-0.022 0.053-0.038 0.087-0.027 0.068-0.059 0.155-0.108 0.261-0.086 0.213-0.205 0.503-0.356 0.868-0.302 0.729-0.738 1.758-1.304 3.066-1.132 2.614-2.797 6.348-5.007 11.039-4.425 9.379-11.048 22.616-20.006 38.426-17.888 31.566-45.255 73.687-83.246 115.899-76.019 84.467-195.945 170.605-367.652 170.605v-53.895zM955.732 448c-25.018 10.008-25.013 10.017-25.013 10.025 0 0.001 0.005 0.008 0.005 0.010 0 0.004 0 0.004 0-0.002-0.005-0.011-0.016-0.041-0.038-0.090-0.038-0.098-0.108-0.272-0.21-0.518-0.21-0.494-0.539-1.282-0.997-2.343-0.922-2.122-2.355-5.337-4.312-9.487-3.913-8.305-9.922-20.331-18.141-34.837-16.47-29.065-41.65-67.787-76.417-106.417-69.497-77.219-175.934-152.764-327.592-152.764v-53.895c171.707 0 291.634 86.14 367.652 170.605 37.99 42.212 65.358 84.333 83.246 115.899 8.957 15.81 15.581 29.047 20.006 38.426 2.21 4.692 3.875 8.425 5.007 11.039 0.566 1.307 1.002 2.336 1.304 3.066 0.151 0.365 0.269 0.655 0.356 0.868 0.049 0.107 0.081 0.193 0.108 0.261 0.016 0.033 0.027 0.063 0.038 0.087 0.005 0.012 0.011 0.026 0.011 0.032 0.005 0.013 0.011 0.025-25.013 10.033zM503.018 345.6c-56.554 0-102.4 45.846-102.4 102.4h-53.895c0-86.319 69.975-156.295 156.295-156.295v53.895zM605.416 448c0-56.554-45.843-102.4-102.397-102.4v-53.895c86.321 0 156.292 69.975 156.292 156.295h-53.895zM503.018 550.4c56.554 0 102.397-45.846 102.397-102.4h53.895c0 86.319-69.972 156.295-156.292 156.295v-53.895zM503.018 604.295c-86.319 0-156.295-69.975-156.295-156.295h53.895c0 56.554 45.846 102.4 102.4 102.4v53.895z" />
<glyph unicode="&#xe908;" glyph-name="cancel-icon" d="M473.895 447.995l-368.988 368.988 38.11 38.11 368.988-368.988 368.985 368.988 38.109-38.11-368.985-368.988 368.985-368.985-38.109-38.109-368.985 368.985-368.988-368.985-38.11 38.109 368.988 368.985z" />
<glyph unicode="&#xe909;" glyph-name="close-lock-icon" d="M512.003 873.763c92.27 0 167.071-74.801 167.071-167.074v-167.074h-334.145v167.074c0 92.273 74.802 167.074 167.074 167.074zM732.968 539.616h102.4c50.602 0 91.621-41.020 91.621-91.621v-388.042c0-50.602-41.019-91.621-91.621-91.621h-646.734c-50.601 0-91.621 41.019-91.621 91.621v388.042c0 50.601 41.020 91.621 91.621 91.621h102.4v167.074c0 122.038 98.931 220.969 220.968 220.969s220.966-98.931 220.966-220.969v-167.074zM188.634 485.721c-20.836 0-37.726-16.891-37.726-37.726v-388.042c0-20.836 16.891-37.726 37.726-37.726h646.734c20.836 0 37.726 16.891 37.726 37.726v388.042c0 20.836-16.891 37.726-37.726 37.726h-646.734z" />
<glyph unicode="&#xe90a;" glyph-name="eye-icon" d="M79.743 448c0.353 0.762 0.728 1.564 1.124 2.404 3.915 8.305 9.924 20.331 18.144 34.837 16.47 29.065 41.649 67.787 76.416 106.417 69.496 77.218 175.93 152.764 327.591 152.764 151.658 0 258.095-75.546 327.592-152.764 34.767-38.63 59.947-77.351 76.417-106.417 8.219-14.506 14.228-26.532 18.141-34.837 0.399-0.84 0.771-1.642 1.126-2.404-0.356-0.762-0.728-1.564-1.126-2.404-3.913-8.305-9.922-20.331-18.141-34.838-16.47-29.065-41.65-67.789-76.417-106.415-69.497-77.22-175.934-152.765-327.592-152.765-151.66 0-258.095 75.544-327.591 152.765-34.767 38.626-59.946 77.35-76.416 106.415-8.22 14.506-14.229 26.532-18.144 34.838-0.396 0.84-0.771 1.642-1.124 2.404zM955.732 448c25.023 10.008 25.018 10.020 25.013 10.033l-0.011 0.032-0.038 0.087-0.108 0.261-0.356 0.868c-0.302 0.729-0.738 1.758-1.304 3.066-1.132 2.614-2.797 6.348-5.007 11.039-4.425 9.379-11.048 22.616-20.006 38.426-17.888 31.566-45.255 73.687-83.246 115.899-76.019 84.467-195.945 170.605-367.652 170.605-171.708 0-291.631-86.138-367.65-170.605-37.991-42.212-65.359-84.333-83.246-115.899-8.959-15.81-15.582-29.047-20.003-38.426-2.212-4.692-3.876-8.425-5.009-11.039-0.567-1.308-1.001-2.336-1.304-3.066l-0.358-0.868-0.106-0.261-0.035-0.087-0.013-0.032c-0.005-0.013-0.010-0.025 25.010-10.033l-25.020 10.008c-2.57-6.424-2.57-13.591 0-20.015l25.020 10.008c-25.020-10.008-25.015-10.020-25.010-10.033l0.013-0.032 0.035-0.087 0.106-0.261 0.358-0.868c0.304-0.729 0.738-1.758 1.304-3.066 1.133-2.614 2.797-6.348 5.009-11.039 4.422-9.382 11.044-22.619 20.003-38.426 17.887-31.566 45.255-73.685 83.246-115.901 76.020-84.464 195.942-170.604 367.65-170.604s291.634 86.14 367.652 170.604c37.99 42.216 65.358 84.334 83.246 115.901 8.957 15.807 15.581 29.044 20.006 38.426 2.21 4.692 3.875 8.425 5.007 11.039 0.566 1.307 1.002 2.336 1.304 3.066l0.356 0.868 0.108 0.261 0.038 0.087 0.011 0.032c0.005 0.013 0.011 0.025-25.013 10.033zM955.732 448l25.023 10.008c2.571-6.425 2.571-13.592 0-20.017l-25.023 10.008zM346.724 448c0 86.319 69.975 156.295 156.295 156.295s156.292-69.975 156.292-156.295c0-86.318-69.972-156.295-156.292-156.295-86.319 0-156.295 69.977-156.295 156.295zM503.018 550.4c-56.554 0-102.4-45.846-102.4-102.4 0-56.552 45.846-102.4 102.4-102.4s102.397 45.848 102.397 102.4c0 56.554-45.843 102.4-102.397 102.4z" />
<glyph unicode="&#xe90b;" glyph-name="lamp-icon" d="M579.652 824.88c-192.236 41.846-361.624-102.873-361.624-287.286 0-105.015 70.105-208.071 158.175-261.296 12.785-7.726 20.598-21.578 20.598-36.517v-47.36h231.679v47.787c0 14.945 7.822 28.803 20.617 36.528 123.551 74.587 203.338 242.466 126.362 397.156v0.001c-37.968 76.293-111.479 132.309-195.806 150.987zM132.694 537.594c0 237.966 218.839 424.328 465.191 370.648l0.131-0.029c108.498-24.004 203.918-95.979 253.838-196.305 96.722-194.373 2.873-396.942-138.041-494.854v-26.34c0-0.529 0.011-0.808 0.028-1.337 0.017-0.558 0.040-1.399 0.074-3.129 0.051-2.446 0.080-5.894-0.165-9.791-0.466-7.583-2.042-18.921-8.129-30.595-14.632-28.052-43.679-38.775-75.435-38.775h-234.911c-24.106-0.199-57.553 3.237-74.941 32.495-7.664 12.902-8.78 25.913-9.040 33.263-0.138 3.903-0.048 7.646 0.024 10.337 0.015 0.552 0.030 1.070 0.043 1.559 0.062 2.219 0.107 3.834 0.107 5.547v26.328c-98.924 68.54-178.773 189.264-178.773 320.978zM649.694-19.706c-90.090 25.572-185.276 25.572-275.366 0-22.669-6.434-46.261 6.724-52.696 29.394s6.727 46.262 29.395 52.696c105.323 29.895 216.644 29.895 321.968 0 22.67-6.434 35.829-30.026 29.394-52.696s-30.026-35.829-52.696-29.394z" />
<glyph unicode="&#xe90c;" glyph-name="open-lock-icon" d="M512.003 873.763c-92.272 0-167.074-74.801-167.074-167.074v-167.074h490.439c50.602 0 91.621-41.020 91.621-91.621v-388.042c0-50.602-41.019-91.621-91.621-91.621h-646.734c-50.601 0-91.621 41.019-91.621 91.621v388.042c0 50.601 41.020 91.621 91.621 91.621h102.4v167.074c0 122.038 98.931 220.969 220.968 220.969s220.966-98.931 220.966-220.969v-32.337h-53.895v32.337c0 92.273-74.801 167.074-167.071 167.074zM188.634 485.721c-20.836 0-37.726-16.891-37.726-37.726v-388.042c0-20.836 16.891-37.726 37.726-37.726h646.734c20.836 0 37.726 16.891 37.726 37.726v388.042c0 20.836-16.891 37.726-37.726 37.726h-646.734z" />
<glyph unicode="&#xe90d;" glyph-name="pagination-left-icon" d="M742.962 889.51l-475.462-441.5 475.462-441.499-58.065-62.532-542.804 504.032 542.804 504.031 58.065-62.532z" />
<glyph unicode="&#xe90e;" glyph-name="pagination-right" d="M339.097 952.042l542.806-504.031-542.806-504.032-58.066 62.532 475.462 441.499-475.462 441.5 58.066 62.532z" />
<glyph unicode="&#xe90f;" glyph-name="search-icon" d="M12.802 516.267c0-237.999 192.935-430.933 430.931-430.933 111.326 0 212.791 42.21 289.263 111.501l241.788-241.788 30.17 30.17-241.788 241.788c69.291 76.471 111.501 177.937 111.501 289.263 0 237.996-192.934 430.931-430.933 430.931-237.996 0-430.931-192.935-430.931-430.931zM732.954 257.216l-1.067 1.067-30.17-30.17 1.067-1.067c-68.715-61.589-159.509-99.046-259.051-99.046-214.432 0-388.265 173.833-388.265 388.267 0 214.432 173.833 388.265 388.265 388.265 214.434 0 388.267-173.833 388.267-388.265 0-99.541-37.457-190.336-99.046-259.051z" />
<glyph unicode="&#xe911;" glyph-name="succes-icon" d="M970.488 739.035l-587.834-587.834-329.141 329.139 38.11 38.11 291.032-291.031 549.725 549.725 38.109-38.11z" />
<glyph unicode="&#xe912;" glyph-name="test" d="M137.602 627.2c0-178.499 144.701-323.2 323.198-323.2 83.494 0 159.594 31.658 216.947 83.626l181.341-181.341 22.627 22.627-181.341 181.341c51.968 57.354 83.626 133.453 83.626 216.947 0 178.497-144.701 323.198-323.2 323.198-178.497 0-323.198-144.701-323.198-323.198zM677.715 432.912l-0.8 0.8-22.627-22.627 0.8-0.8c-51.536-46.192-119.632-74.285-194.288-74.285-160.824 0-291.198 130.374-291.198 291.2 0 160.824 130.375 291.198 291.198 291.198 160.826 0 291.2-130.375 291.2-291.198 0-74.656-28.093-142.752-74.285-194.288z" />
<glyph unicode="&#xe913;" glyph-name="trash-icon" d="M99.556 704c0 15.709 12.735 28.444 28.444 28.444h768c15.707 0 28.444-12.735 28.444-28.444s-12.737-28.444-28.444-28.444h-768c-15.709 0-28.444 12.735-28.444 28.444zM426.667 846.222h170.667c15.087 0 29.559-5.994 40.226-16.662s16.663-25.139 16.663-40.227v-56.889h-284.444v56.889c0 15.088 5.994 29.558 16.662 40.227s25.139 16.662 40.227 16.662zM711.111 732.444h99.556c15.707 0 28.444-12.735 28.444-28.444v-597.333c0-30.174-11.986-59.113-33.326-80.452s-50.278-33.326-80.452-33.326h-426.667c-30.176 0-59.116 11.986-80.453 33.326s-33.325 50.278-33.325 80.452v597.333c0 15.709 12.735 28.444 28.444 28.444h99.556v56.889c0 30.176 11.987 59.116 33.325 80.453s50.277 33.325 80.453 33.325h170.667c30.174 0 59.113-11.987 80.452-33.325s33.326-50.277 33.326-80.453v-56.889zM241.778 675.556v-568.889c0-15.087 5.994-29.559 16.662-40.226s25.139-16.663 40.227-16.663h426.667c15.087 0 29.559 5.996 40.226 16.663s16.663 25.139 16.663 40.226v568.889h-540.444z" />
<glyph unicode="&#xe915;" glyph-name="wallet-icon" d="M128 800h704c17.67 0 32-14.327 32-32v-160h-224c-88.365 0-160-71.635-160-160s71.635-160 160-160h224v-160c0-17.67-14.33-32-32-32h-704c-17.673 0-32 14.33-32 32v640c0 17.673 14.327 32 32 32zM928 608v160c0 53.020-42.982 96-96 96h-704c-53.019 0-96-42.98-96-96v-640c0-53.018 42.981-96 96-96h704c53.018 0 96 42.982 96 96v160h27.565c20.122 0 36.435 16.314 36.435 36.436v247.128c0 20.124-16.314 36.436-36.435 36.436h-27.565zM640 544h288v-192h-288c-53.020 0-96 42.98-96 96s42.98 96 96 96z" />
<glyph unicode="&#xe916;" glyph-name="admin-managment-icon" d="M352 864c-88.395 0-160-71.588-160-159.875s71.605-159.875 160-159.875c88.395 0 160 71.589 160 159.875s-71.605 159.875-160 159.875zM128 704.125c0 123.672 100.299 223.875 224 223.875s224-100.203 224-223.875c0-123.672-100.299-223.875-224-223.875s-224 100.204-224 223.875zM224 288.378c-88.372 0-160-71.61-160-159.968v-95.827h576v95.827c0 88.358-71.628 159.968-160 159.968h-256zM0 128.41c0 123.718 100.295 223.965 224 223.965h256c123.705 0 224-100.247 224-223.965v-159.827h-704v159.827zM703.066 664.151c2.368 12.001 12.89 20.653 25.12 20.653h79.642c12.211 0 22.72-8.623 25.107-20.598l2.214-11.108 5.715-27.865c6.534-3.218 12.736-6.834 18.63-10.755l29.254 9.78 11.059 3.422c11.379 3.528 23.686-1.261 29.69-11.553l5.696-9.759 28.384-47.497 5.754-9.877c6.189-10.611 3.968-24.122-5.286-32.193l-8.659-7.546-20.922-17.795c0.422-3.592 0.723-7.444 0.723-11.338s-0.301-7.747-0.723-11.34l21.158-17.996 8.422-7.344c9.254-8.072 11.475-21.583 5.286-32.195l-5.894-10.109-28.237-47.252-5.69-9.771c-6.003-10.324-18.355-15.122-29.754-11.562l-11.552 3.606-28.71 9.606c-5.894-3.921-12.096-7.536-18.63-10.754l-5.702-27.791-0.032-0.147-2.195-11.034c-2.387-11.974-12.896-20.602-25.107-20.602h-79.642c-12.23 0-22.752 8.653-25.12 20.653l-2.176 11.078-5.734 27.838c-6.528 3.219-12.742 6.836-18.637 10.758l-29.197-9.764-11.063-3.448c-11.42-3.565-23.786 1.253-29.782 11.606l-5.645 9.745-28.417 47.511-5.732 9.876c-6.152 10.595-3.935 24.063 5.287 32.127l8.659 7.571 20.928 17.8c-0.425 3.596-0.729 7.457-0.729 11.333s0.304 7.736 0.729 11.332l-21.191 18.028-8.396 7.344c-9.222 8.064-11.439 21.532-5.288 32.126l5.901 10.164 28.257 47.236 5.651 9.732c5.992 10.319 18.319 15.13 29.718 11.596l11.6-3.596 28.71-9.607c5.894 3.923 12.109 7.54 18.637 10.76l5.734 27.843 2.176 11.071zM749.152 633.604l-6.515-31.65c-1.766-8.563-7.776-15.634-15.942-18.753-10.733-4.099-20.73-10.012-30.054-17.315-6.765-5.306-15.75-6.857-23.904-4.129l-32.429 10.841-18.587-31.079 23.931-20.358c6.829-5.807 10.118-14.761 8.678-23.607-0.301-1.843-0.576-3.474-0.826-4.947-0.922-5.462-1.478-8.74-1.478-12.486s0.557-7.027 1.478-12.49c0.25-1.472 0.531-3.103 0.826-4.944 1.44-8.846-1.85-17.8-8.678-23.606l-23.93-20.358 18.586-31.080 32.429 10.842c8.154 2.728 17.139 1.176 23.904-4.129 9.318-7.303 19.322-13.214 30.054-17.314 8.166-3.119 14.176-10.19 15.942-18.753l6.515-31.651h37.728l6.496 31.636c1.76 8.57 7.77 15.647 15.942 18.768 10.739 4.1 20.736 10.011 30.054 17.314 6.771 5.306 15.75 6.857 23.91 4.129l32.442-10.847 18.573 31.083-23.936 20.36c-6.848 5.828-10.138 14.823-8.666 23.695 0.25 1.512 0.486 2.886 0.704 4.15 0.992 5.818 1.587 9.309 1.587 13.195s-0.595 7.374-1.587 13.19c-0.218 1.265-0.448 2.641-0.704 4.155-1.472 8.872 1.818 17.868 8.666 23.695l23.936 20.361-18.573 31.082-32.442-10.847c-8.16-2.728-17.139-1.176-23.91 4.129-9.318 7.304-19.322 13.216-30.054 17.315-8.173 3.121-14.182 10.198-15.942 18.768l-6.496 31.635h-37.728zM768.013 505.688c-14.144 0-25.6-11.476-25.6-25.566s11.456-25.567 25.6-25.567c14.138 0 25.6 11.477 25.6 25.567s-11.462 25.566-25.6 25.566zM691.213 480.122c0 42.399 34.413 76.766 76.8 76.766 42.381 0 76.8-34.367 76.8-76.766 0-42.397-34.419-76.767-76.8-76.767-42.387 0-76.8 34.369-76.8 76.767z" />
<glyph unicode="&#xe917;" glyph-name="admin-panel-icon" d="M560 304c0 53.020 42.98 96 96 96h152c53.018 0 96-42.98 96-96v-152c0-53.018-42.982-96-96-96h-152c-53.020 0-96 42.982-96 96v152zM656 336c-17.673 0-32-14.327-32-32v-152c0-17.67 14.327-32 32-32h152c17.67 0 32 14.33 32 32v152c0 17.673-14.33 32-32 32h-152zM120 304c0 53.020 42.98 96 96 96h152c53.020 0 96-42.98 96-96v-152c0-53.018-42.98-96-96-96h-152c-53.020 0-96 42.982-96 96v152zM216 336c-17.673 0-32-14.327-32-32v-152c0-17.67 14.327-32 32-32h152c17.673 0 32 14.33 32 32v152c0 17.673-14.327 32-32 32h-152zM560 744c0 53.020 42.98 96 96 96h152c53.018 0 96-42.98 96-96v-152c0-53.020-42.982-96-96-96h-152c-53.020 0-96 42.98-96 96v152zM656 776c-17.673 0-32-14.327-32-32v-152c0-17.673 14.327-32 32-32h152c17.67 0 32 14.327 32 32v152c0 17.673-14.33 32-32 32h-152zM120 744c0 53.020 42.98 96 96 96h152c53.020 0 96-42.98 96-96v-152c0-53.020-42.98-96-96-96h-152c-53.020 0-96 42.98-96 96v152zM216 776c-17.673 0-32-14.327-32-32v-152c0-17.673 14.327-32 32-32h152c17.673 0 32 14.327 32 32v152c0 17.673-14.327 32-32 32h-152z" />
<glyph unicode="&#xe918;" glyph-name="allocation-roles-icon" d="M32 448c0 265.097 214.903 480 480 480 265.094 0 480-214.903 480-480 0-265.094-214.906-480-480-480-265.097 0-480 214.906-480 480zM512 864c-229.75 0-416-186.25-416-416 0-118.372 49.441-225.197 128.798-300.954 9.663 114.803 105.905 204.954 223.202 204.954h128c117.299 0 213.542-90.15 223.2-204.954 79.36 75.757 128.8 182.581 128.8 300.954 0 229.75-186.246 416-416 416zM736 97.395v30.611c0 88.365-71.633 159.994-160 159.994h-128c-88.367 0-160-71.629-160-159.994v-30.611c64.659-41.395 141.527-65.395 224-65.395s159.341 24 224 65.395zM352 576c0 88.365 71.635 160 160 160s160-71.635 160-160c0-88.365-71.635-160-160-160s-160 71.635-160 160zM512 672c-53.020 0-96-42.98-96-96s42.98-96 96-96c53.020 0 96 42.98 96 96s-42.98 96-96 96z" />
<glyph unicode="&#xe919;" glyph-name="fee-management-icon" d="M534.079 854.854c-12.194 12.194-31.965 12.194-44.159 0l-72.257-72.257c-17.859-17.859-42.079-27.891-67.334-27.891h-113.81c-17.245 0-31.225-13.98-31.225-31.225v-113.81c0-25.255-10.033-49.476-27.891-67.334l-72.257-72.257c-12.194-12.194-12.194-31.965 0-44.159l72.257-72.257c17.859-17.859 27.891-42.079 27.891-67.334v-113.811c0-17.242 13.98-31.226 31.225-31.226h113.81c25.255 0 49.476-10.029 67.334-27.891l72.257-72.256c12.194-12.192 31.965-12.192 44.159 0l72.257 72.256c17.859 17.862 42.079 27.891 67.334 27.891h113.811c17.242 0 31.226 13.984 31.226 31.226v113.811c0 25.254 10.029 49.475 27.891 67.334l72.256 72.257c12.192 12.194 12.192 31.965 0 44.159l-72.256 72.257c-17.862 17.859-27.891 42.079-27.891 67.334v113.81c0 17.245-13.984 31.225-31.226 31.225h-113.811c-25.254 0-49.475 10.033-67.334 27.891l-72.257 72.257zM444.666 900.109c37.188 37.188 97.481 37.188 134.669 0l72.257-72.257c5.856-5.856 13.798-9.146 22.079-9.146h113.811c52.589 0 95.226-42.634 95.226-95.225v-113.81c0-8.282 3.29-16.223 9.146-22.079l72.256-72.257c37.19-37.188 37.19-97.481 0-134.669l-72.256-72.256c-5.856-5.856-9.146-13.798-9.146-22.080v-113.811c0-52.589-42.637-95.226-95.226-95.226h-113.811c-8.281 0-16.223-3.29-22.079-9.146l-72.257-72.256c-37.188-37.19-97.481-37.19-134.669 0l-72.257 72.256c-5.856 5.856-13.798 9.146-22.079 9.146h-113.81c-52.591 0-95.225 42.637-95.225 95.226v113.811c0 8.282-3.29 16.224-9.146 22.080l-72.257 72.256c-37.188 37.188-37.188 97.481 0 134.669l72.257 72.257c5.856 5.856 9.146 13.798 9.146 22.079v113.81c0 52.591 42.634 95.225 95.225 95.225h113.81c8.281 0 16.223 3.29 22.079 9.146v0l72.257 72.257zM329.373 310.63l320 319.997 45.258-45.254-320.003-320.003-45.254 45.261zM416 608v-64h-64v64h64zM672 288h-64v64h64v-64z" />
<glyph unicode="&#xe91a;" glyph-name="finacial-system-icon" d="M32 832c0 53.020 42.981 96 96 96h768c53.018 0 96-42.98 96-96v-512c0-53.018-42.982-96-96-96h-768c-53.019 0-96 42.982-96 96v512zM128 864c-17.673 0-32-14.327-32-32v-512c0-17.67 14.327-32 32-32h768c17.67 0 32 14.33 32 32v512c0 17.673-14.33 32-32 32h-768zM160 800h128v-64h-64v-64h-64v128zM800 736h-64v64h128v-128h-64v64zM352 576c0 88.365 71.635 160 160 160s160-71.635 160-160c0-88.365-71.635-160-160-160s-160 71.635-160 160zM512 672c-53.020 0-96-42.98-96-96s42.98-96 96-96c53.020 0 96 42.98 96 96s-42.98 96-96 96zM160 480h64v-64h64v-64h-128v128zM864 480v-128h-128v64h64v64h64zM992 160v-64h-960v64h960zM992 32v-64h-960v64h960z" />
<glyph unicode="&#xe91b;" glyph-name="ipWhitelisting-icon" d="M32 704v-512c0-53.018 42.981-96 96-96h768c53.018 0 96 42.982 96 96v512c0 53.020-42.982 96-96 96h-768c-53.019 0-96-42.98-96-96zM224 160c0 70.688 57.306 128 128 128 70.698 0 128-57.312 128-128h-256zM544 160c0 106.042-85.967 192-192 192-106.036 0-192-85.952-192-191.994l-32-0.006c-17.673 0-32 14.33-32 32v512c0 17.673 14.327 32 32 32h768c17.67 0 32-14.327 32-32v-512c0-17.67-14.33-32-32-32h-352zM224 544c0 70.692 57.308 128 128 128s128-57.308 128-128c0-70.692-57.308-128-128-128s-128 57.308-128 128zM352 608c-35.346 0-64-28.654-64-64s28.654-64 64-64c35.346 0 64 28.654 64 64s-28.654 64-64 64zM800 544v64h-192v-64h192zM800 352v64h-192v-64h192z" />
<glyph unicode="&#xe91c;" glyph-name="limitations-icon" d="M32 448c0 265.097 214.903 480 480 480 265.094 0 480-214.903 480-480 0-265.094-214.906-480-480-480-265.097 0-480 214.906-480 480zM196.083 718.663c-62.39-72.753-100.083-167.306-100.083-270.663 0-229.754 186.25-416 416-416 103.357 0 197.907 37.696 270.662 100.083l-586.58 586.58zM241.337 763.917l586.58-586.58c62.387 72.755 100.083 167.306 100.083 270.662 0 229.75-186.246 416-416 416-103.357 0-197.91-37.693-270.663-100.083z" />
<glyph unicode="&#xe91d;" glyph-name="notification-icon" d="M409.004 811.674c16.27 41.516 56.662 70.724 103.794 70.724s87.524-29.208 103.794-70.724c4.449-11.352 2.060-24.246-6.161-33.251s-20.845-12.556-32.554-9.156c-11.010 3.196-22.102 5.603-33.329 6.964l-0.119 0.015c-34.321 4.29-66.717 1.74-96.698-6.975-11.71-3.404-24.337 0.143-32.561 9.148s-10.614 21.901-6.165 33.256zM424.797 165.6c0-23.949 9.965-46.31 25.827-62.17 15.862-15.866 38.225-25.83 62.173-25.83 48.327 0 88 39.674 88 88h64c0-83.674-68.327-152-152-152-41.652 0-80.090 17.235-107.427 44.576-27.338 27.334-44.573 65.773-44.573 107.424h64zM240.797 571.601c0 150.074 121.927 272 272 272 149.673 0 272.003-122.326 272.003-272v-115.6c0-8.354 1.901-20.745 5.555-34.086 3.616-13.165 8.256-24.788 12.429-32.090l45.83-76.116c36.87-61.466 7.424-141.574-60.525-164.077-178.968-59.782-372.068-59.776-551.033 0.019l-0.119 0.038c-34.209 11.578-59.971 35.565-71.5 66.701-11.542 31.174-7.585 66.189 11.139 97.312l45.933 76.285c0.010 0.018-0.011-0.019 0 0 4.259 7.163 9.029 18.792 12.702 32.023 3.685 13.274 5.584 25.646 5.584 33.99v115.6zM512.797 779.601c-114.727 0-208-93.273-208-208v-115.6c0-16.055-3.301-34.483-7.916-51.109-4.618-16.636-11.265-34.035-19.398-47.677l-0.072-0.12-45.995-76.392c-9.676-16.083-10.118-30.861-5.961-42.093 4.167-11.251 14.189-22.253 31.944-28.282 165.801-55.379 344.659-55.373 510.46 0.026l0.096 0.032c28.8 9.517 41.709 43.802 25.818 70.323-0.006 0.013 0.006-0.006 0 0l-46.298 76.897c-7.795 13.514-14.291 30.787-18.842 47.38-4.538 16.559-7.834 34.968-7.834 51.013v115.6c0 114.327-93.676 208-208.003 208z" />
<glyph unicode="&#xe91e;" glyph-name="resize-sidebar-icon" d="M426.667 74.667c-17.673 0-32 14.327-32 32v224h-224c-17.673 0-32 14.327-32 32s14.327 32 32 32h256c17.673 0 32-14.327 32-32v-256c0-17.673-14.327-32-32-32zM105.373 41.374c-12.497 12.497-12.497 32.755 0 45.252l298.667 298.667c12.497 12.497 32.756 12.497 45.254 0s12.497-32.755 0-45.252l-298.665-298.667c-12.497-12.497-32.758-12.497-45.255 0zM885.333 533.333c0-17.673-14.327-32-32-32h-256c-17.673 0-32 14.327-32 32v256c0 17.673 14.327 32 32 32s32-14.327 32-32v-224h224c17.673 0 32-14.327 32-32zM918.626 854.627c12.497-12.497 12.497-32.758 0-45.255l-298.667-298.665c-12.497-12.497-32.755-12.497-45.252 0s-12.497 32.757 0 45.254l298.667 298.667c12.497 12.497 32.755 12.497 45.252 0z" />
<glyph unicode="&#xe91f;" glyph-name="settings-icon" d="M381.020 902.183c2.954 15.001 16.108 25.817 31.397 25.817h199.105c15.263 0 28.402-10.78 31.384-25.749l5.567-27.949 17.533-85.416c25.002-11.027 48.196-24.679 69.642-40.132l87.648 29.306 27.648 8.563c14.221 4.41 29.613-1.578 37.114-14.442l14.317-24.54 70.874-118.599 14.394-24.692c7.738-13.264 4.96-30.152-6.611-40.242l-21.35-18.61-65.734-55.921c2.061-12.552 3.974-26.722 3.974-41.285s-1.914-28.735-3.974-41.29l66.029-56.173 21.056-18.357c11.571-10.090 14.349-26.982 6.611-40.243l-14.566-24.979-70.694-118.298-14.304-24.582c-7.507-12.909-22.944-18.906-37.197-14.458l-28.262 8.826-86.97 29.088c-21.453-15.45-44.64-29.101-69.642-40.128l-17.57-85.6-5.53-27.77c-2.982-14.97-16.12-25.747-31.384-25.747h-199.105c-15.29 0-28.444 10.816-31.397 25.818l-5.477 27.821-17.598 85.472c-25.008 11.027-48.2 24.678-69.651 40.134l-87.585-29.286-27.649-8.627c-14.275-4.454-29.733 1.568-37.228 14.509l-14.223 24.557-70.946 118.611-14.334 24.691c-7.69 13.242-4.92 30.079 6.609 40.159l21.319 18.642 65.762 55.94c-2.057 12.519-4.001 26.744-4.001 41.27s1.944 28.748 4.001 41.265l-66.091 56.225-20.99 18.358c-11.528 10.080-14.299 26.914-6.61 40.157l14.545 25.052 70.745 118.269 14.232 24.509c7.491 12.899 22.9 18.912 37.148 14.496l28.323-8.78 86.975-29.089c21.45 15.455 44.642 29.109 69.651 40.137l17.599 85.478 5.476 27.813zM438.73 864l-0.473-2.403-21.057-102.269c-2.204-10.703-9.718-19.542-19.927-23.441-30.25-11.551-58.012-28.057-83.453-47.996-8.463-6.632-19.69-8.571-29.887-5.162l-105.54 35.217-1.743-3.003-71.737-119.979 0.979-0.856 79.452-67.591c8.532-7.258 12.648-18.451 10.851-29.508-0.625-3.846-1.242-7.466-1.829-10.915-2.422-14.218-4.348-25.529-4.348-37.802 0-12.275 1.927-23.592 4.349-37.812 0.587-3.447 1.203-7.065 1.828-10.909 1.798-11.057-2.318-22.249-10.851-29.508l-80.429-68.445 0.991-1.709 70.972-118.656 1.516-2.624 2.933 0.915 102.606 34.304c10.196 3.411 21.424 1.472 29.887-5.158 25.439-19.936 53.201-36.442 83.453-47.994 10.209-3.898 17.723-12.736 19.927-23.437l21.111-102.541 0.419-2.138h146.536l0.476 2.387 20.993 102.272c2.198 10.707 9.715 19.558 19.93 23.456 30.252 11.552 58.013 28.058 83.453 47.994 8.461 6.63 19.693 8.57 29.888 5.158l105.587-35.238 1.754 3.014 71.68 119.994-0.966 0.838-79.469 67.606c-8.563 7.284-12.672 18.529-10.829 29.619 0.544 3.291 1.082 6.425 1.6 9.434 2.541 14.769 4.557 26.532 4.557 39.176 0 12.641-2.016 24.4-4.557 39.166-0.512 3.011-1.056 6.146-1.6 9.44-1.843 11.090 2.266 22.334 10.829 29.619l80.435 68.447-0.979 1.687-72.454 121.309-3.008-0.934-102.579-34.298c-10.195-3.409-21.427-1.47-29.888 5.162-25.44 19.939-53.203 36.444-83.453 47.996-10.216 3.901-17.732 12.749-19.93 23.46l-21.030 102.452-0.438 2.201h-146.537zM511.978 544.207c-53.004 0-96-42.997-96-95.914 0-52.918 42.998-95.918 96-95.918s96 43 96 95.918c0 52.916-42.997 95.914-96 95.914zM351.978 448.293c0 88.303 71.691 159.914 160 159.914s160-71.61 160-159.914c0-88.302-71.69-159.916-160-159.916s-160 71.613-160 159.916z" />
<glyph unicode="&#xe920;" glyph-name="trading-pairs-icon" d="M32 128c0-88.365 71.635-160 160-160s160 71.635 160 160c0 77.408-54.968 141.978-128 156.8v291.2c0 88.365 71.635 160 160 160h114.745l-73.372-73.373 45.254-45.254 150.628 150.627-150.628 150.627-45.254-45.255 73.372-73.373h-114.745c-123.712 0-224-100.288-224-224v-291.2c-73.032-14.822-128-79.392-128-156.8zM192 32c-53.020 0-96 42.982-96 96s42.98 96 96 96c53.020 0 96-42.982 96-96s-42.98-96-96-96zM553.373-22.63l45.254 45.261-73.372 73.37h114.745c123.712 0 224 100.288 224 224v291.201c73.030 14.824 128 79.393 128 156.799 0 88.365-71.635 160-160 160s-160-71.635-160-160c0-77.407 54.97-141.975 128-156.799v-291.201c0-88.365-71.635-160-160-160h-114.745l73.372 73.37-45.254 45.261-150.628-150.63 150.628-150.63zM832 672c-53.018 0-96 42.98-96 96s42.982 96 96 96c53.018 0 96-42.98 96-96s-42.982-96-96-96z" />
<glyph unicode="&#xe921;" glyph-name="transactions-icon" d="M882.746 735.999l-137.376 137.373 45.261 45.255 192-192c12.493-12.497 12.493-32.758 0-45.255l-192-192-45.261 45.255 137.376 137.372h-626.746c-88.365 0-160-71.635-160-160v-96h-64v96c0 123.712 100.288 224 224 224h626.746zM992 479.999v-96c0-123.711-100.288-223.999-224-223.999h-626.745l137.372-137.376-45.255-45.254-192 192c-12.497 12.499-12.497 32.762 0 45.254l192 192.003 45.254-45.255-137.372-137.372h626.745c88.365 0 160 71.635 160 159.999v96h64z" />
<glyph unicode="&#xe922;" glyph-name="user-managment-icon" d="M512 864c-88.395 0-160-71.588-160-159.875s71.605-159.875 160-159.875c88.395 0 160 71.589 160 159.875s-71.605 159.875-160 159.875zM288 704.125c0 123.672 100.299 223.875 224 223.875s224-100.203 224-223.875c0-123.672-100.299-223.875-224-223.875s-224 100.204-224 223.875zM384 288.378c-88.372 0-160-71.61-160-159.968v-95.827h576v95.827c0 88.358-71.629 159.968-160 159.968h-256zM160 128.41c0 123.718 100.295 223.965 224 223.965h256c123.706 0 224-100.247 224-223.965v-159.827h-704v159.827z" />
<glyph unicode="&#xe923;" glyph-name="withdrawals-icon" d="M32 704c0 53.020 42.981 96 96 96h768c53.018 0 96-42.98 96-96v-512c0-53.018-42.982-96-96-96h-768c-53.019 0-96 42.982-96 96v512zM128 736c-17.673 0-32-14.327-32-32v-512c0-17.67 14.327-32 32-32h768c17.67 0 32 14.33 32 32v512c0 17.673-14.33 32-32 32h-768zM160 672h128v-64h-64v-64h-64v128zM800 608h-64v64h128v-128h-64v64zM352 448c0 88.365 71.635 160 160 160s160-71.635 160-160c0-88.365-71.635-160-160-160s-160 71.635-160 160zM512 544c-53.020 0-96-42.98-96-96s42.98-96 96-96c53.020 0 96 42.98 96 96s-42.98 96-96 96zM160 352h64v-64h64v-64h-128v128zM864 352v-128h-128v64h64v64h64z" />
<glyph unicode="&#xe924;" glyph-name="logout-icon" d="M19.188 940.8h531.2v-64h-467.199l-0.001-857.6h467.2v-64h-531.2v985.6zM765.018 701.027l252.141-252.14-251.258-272.189-47.027 43.405 180.826 195.898h-656.512v64h652.346l-175.776 175.773 45.261 45.254z" />
<glyph unicode="&#xe925;" glyph-name="arrow-down-icon" horiz-adv-x="2048" d="M62.549 912.229c33.325 33.325 87.354 33.325 120.68 0l741.831-741.832c54.285-54.283 143.614-54.283 197.898 0l741.825 741.832c33.326 33.325 87.359 33.325 120.684 0s33.326-87.355 0-120.68l-741.831-741.831c-120.933-120.933-318.323-120.933-439.256 0l-741.831 741.831c-33.325 33.326-33.325 87.355 0 120.68z" />
<glyph unicode="&#xe926;" glyph-name="edit-icon" d="M628.417 945.974c11.11 11.108 29.121 11.108 40.226 0l341.333-341.333c11.11-11.109 11.11-29.119 0-40.227l-622.73-622.731h-353.115c-15.709 0-28.444 12.737-28.444 28.444v353.115l622.73 622.732zM62.577 299.679v-301.107h301.107l381.157 381.156-301.108 301.107-381.156-381.156zM483.958 721.061l301.108-301.107 164.574 164.573-301.107 301.107-164.575-164.574zM1024-58.317h-477.868v56.889h477.868v-56.889z" />
</font>
</defs>
</svg>
