<?xml version="1.0" standalone="no"?>
<!DOCTYPE svg PUBLIC "-//W3C//DTD SVG 1.1//EN" "http://www.w3.org/Graphics/SVG/1.1/DTD/svg11.dtd" >
<svg xmlns="http://www.w3.org/2000/svg">
<metadata>Generated by IcoMoon</metadata>
<defs>
<font id="icomoon" horiz-adv-x="1024">
<font-face units-per-em="1024" ascent="960" descent="-64" />
<missing-glyph horiz-adv-x="1024" />
<glyph unicode="&#x20;" horiz-adv-x="512" d="" />
<glyph unicode="&#xe900;" horiz-adv-x="1472" d="M128 960h1177.6c70.692 0 128-57.308 128-128v-768c0-70.692-57.308-128-128-128h-1177.6c-70.692 0-128 57.308-128 128v768c0 70.692 57.308 128 128 128z" />
<glyph unicode="&#xe901;" horiz-adv-x="1472" d="M1433.6 960h-1433.6v-68.267h1433.6v68.267zM1433.6 823.466h-1433.6v-68.267h1433.6v68.267zM0 686.934h1433.6v-68.267h-1433.6v68.267zM1433.6 550.4h-1433.6v-68.267h1433.6v68.267zM0 413.866h1433.6v-68.267h-1433.6v68.267zM1433.6 277.331h-1433.6v-68.262h1433.6v68.262zM0 140.8h1433.6v-68.269h-1433.6v68.269zM1433.6 4.269h-1433.6v-68.269h1433.6v68.269z" />
<glyph unicode="&#xe902;" horiz-adv-x="1472" d="M0 960h614.4v-477.867h-614.4v477.867z" />
<glyph unicode="&#xe903;" horiz-adv-x="1472" d="M136.532 857.617c0-18.851-15.282-34.133-34.134-34.133s-34.133 15.282-34.133 34.133c0 18.851 15.282 34.133 34.133 34.133s34.134-15.282 34.134-34.133zM273.064 857.617c0-18.851-15.282-34.133-34.133-34.133s-34.133 15.282-34.133 34.133c0 18.851 15.282 34.133 34.133 34.133s34.133-15.282 34.133-34.133zM375.467 823.484c18.851 0 34.133 15.282 34.133 34.133s-15.282 34.133-34.133 34.133c-18.851 0-34.134-15.282-34.134-34.133s15.283-34.133 34.134-34.133zM546.132 857.617c0-18.851-15.282-34.133-34.134-34.133s-34.133 15.282-34.133 34.133c0 18.851 15.282 34.133 34.133 34.133s34.134-15.282 34.134-34.133zM170.667 755.217c18.851 0 34.133 15.282 34.133 34.133s-15.282 34.134-34.133 34.134c-18.852 0-34.134-15.283-34.134-34.134s15.282-34.133 34.134-34.133zM341.332 789.35c0-18.851-15.282-34.133-34.134-34.133s-34.133 15.282-34.133 34.133c0 18.851 15.282 34.134 34.133 34.134s34.134-15.283 34.134-34.134zM443.731 755.217c18.851 0 34.133 15.282 34.133 34.133s-15.282 34.134-34.133 34.134c-18.851 0-34.133-15.283-34.133-34.134s15.282-34.133 34.133-34.133zM546.132 721.083c0-18.851-15.282-34.133-34.134-34.133s-34.133 15.282-34.133 34.133c0 18.851 15.282 34.133 34.133 34.133s34.134-15.282 34.134-34.133zM375.467 686.95c18.851 0 34.133 15.282 34.133 34.133s-15.282 34.133-34.133 34.133c-18.851 0-34.134-15.282-34.134-34.133s15.283-34.133 34.134-34.133zM273.064 721.083c0-18.851-15.282-34.133-34.133-34.133s-34.133 15.282-34.133 34.133c0 18.851 15.282 34.133 34.133 34.133s34.133-15.282 34.133-34.133zM102.399 686.95c18.852 0 34.134 15.282 34.134 34.133s-15.282 34.133-34.134 34.133c-18.851 0-34.133-15.282-34.133-34.133s15.282-34.133 34.133-34.133zM204.8 652.817c0-18.851-15.282-34.133-34.133-34.133s-34.134 15.282-34.134 34.133c0 18.851 15.282 34.133 34.134 34.133s34.133-15.282 34.133-34.133zM307.199 618.684c18.852 0 34.134 15.282 34.134 34.133s-15.282 34.133-34.134 34.133c-18.851 0-34.133-15.282-34.133-34.133s15.282-34.133 34.133-34.133zM477.864 652.817c0-18.851-15.282-34.133-34.133-34.133s-34.133 15.282-34.133 34.133c0 18.851 15.282 34.133 34.133 34.133s34.133-15.282 34.133-34.133zM511.999 550.417c18.852 0 34.134 15.282 34.134 34.133s-15.282 34.133-34.134 34.133c-18.851 0-34.133-15.282-34.133-34.133s15.282-34.133 34.133-34.133zM409.6 584.55c0-18.851-15.282-34.133-34.133-34.133s-34.134 15.282-34.134 34.133c0 18.851 15.283 34.133 34.134 34.133s34.133-15.282 34.133-34.133zM238.931 550.417c18.851 0 34.133 15.282 34.133 34.133s-15.282 34.133-34.133 34.133c-18.851 0-34.133-15.282-34.133-34.133s15.282-34.133 34.133-34.133zM136.532 584.55c0-18.851-15.282-34.133-34.134-34.133s-34.133 15.282-34.133 34.133c0 18.851 15.282 34.133 34.133 34.133s34.134-15.282 34.134-34.133z" />
<glyph unicode="&#xe904;" glyph-name="eye2" d="M511.996 568.75c-66.807 0-120.746-53.938-120.746-120.746s53.938-120.747 120.746-120.747c66.807 0 120.747 53.939 120.747 120.747s-53.939 120.746-120.747 120.746zM327.25 448.004c0 102.152 82.594 184.746 184.746 184.746s184.747-82.594 184.747-184.746c0-102.153-82.594-184.747-184.747-184.747s-184.746 82.594-184.746 184.747zM96.323 576.141c102.013 160.357 251.5 257.15 415.681 257.15 164.186 0 313.681-96.802 415.693-257.171 23.253-36.452 33.801-83.145 33.801-127.894 0-44.753-10.547-91.443-33.801-127.898-102.012-160.367-251.507-257.169-415.693-257.169-164.188 0-313.681 96.802-415.694 257.169-23.252 36.454-33.8 83.145-33.8 127.898 0 44.757 10.551 91.46 33.813 127.915zM512.004 769.292c-137.040 0-268.293-80.691-361.693-227.522l-0.027-0.042c-15.129-23.703-23.773-57.632-23.773-93.502 0-35.874 8.644-69.803 23.773-93.504l0.027-0.043c93.4-146.829 224.654-227.52 361.693-227.52 137.037 0 268.292 80.691 361.694 227.52l0.026 0.043c15.13 23.701 23.774 57.63 23.774 93.504 0 35.87-8.644 69.798-23.774 93.502l-0.026 0.042c-93.402 146.831-224.657 227.522-361.694 227.522z" />
<glyph unicode="&#xe905;" glyph-name="eye" d="M511.995 579.727c-72.879 0-131.723-58.844-131.723-131.723 0-23.757 6.234-45.917 17.235-65.122l179.609 179.609c-19.205 11.001-41.365 17.235-65.122 17.235zM310.454 448.005c0 111.439 90.102 201.541 201.541 201.541 55.752 0 105.942-22.595 142.448-59.097 13.629-13.633 13.629-35.736 0-49.369l-235.522-235.522c-13.633-13.629-35.736-13.629-49.369 0-36.502 36.506-59.097 86.696-59.097 142.448zM58.535 587.291c111.286 174.935 274.364 280.528 453.47 280.528 104.709 0 205.056-36.473 291.914-101.992 15.393-11.61 18.46-33.5 6.851-48.892-11.613-15.392-33.503-18.458-48.896-6.848-76.046 57.361-161.88 87.913-249.87 87.913-149.498 0-292.683-88.027-394.575-248.205l-0.029-0.046c-16.505-25.856-25.935-62.869-25.935-102.004 0-39.131 9.43-76.144 25.935-102l0.016-0.028c35.085-55.068 75.71-102.214 119.459-139.837 14.618-12.572 16.276-34.611 3.705-49.231-12.571-14.615-34.612-16.277-49.23-3.705-49.342 42.435-94.361 94.897-132.818 155.257-25.375 39.768-36.886 90.717-36.886 139.543 0 48.83 11.511 99.777 36.887 139.547zM864.815 664.655c15.025 12.084 36.999 9.701 49.082-5.322 17.869-22.215 35.421-46.086 51.614-71.597 25.349-39.761 36.85-90.685 36.85-139.49 0-48.831-11.511-99.775-36.887-139.543-111.286-174.936-274.362-280.529-453.469-280.529-62.209 0-123.12 13.154-180.179 37.181-17.769 7.48-26.108 27.951-18.627 45.717 7.482 17.771 27.951 26.112 45.72 18.627 49.065-20.657 100.794-31.707 153.085-31.707 149.499 0 292.682 88.027 394.575 248.204l0.028 0.047c16.505 25.856 25.935 62.869 25.935 102.004 0 39.131-9.43 76.146-25.935 102.003l-0.047 0.077c-14.531 22.897-30.492 44.64-47.067 65.247-12.083 15.023-9.7 36.997 5.32 49.081zM681.709 449.731c18.958-3.496 31.497-21.699 27.997-40.657-14.727-79.867-79.393-144.533-159.255-159.26-18.963-3.496-37.167 9.039-40.662 28.002-3.496 18.958 9.039 37.162 28.002 40.657 51.391 9.477 93.78 51.866 103.256 103.261 3.496 18.958 21.699 31.497 40.662 27.997zM418.924 354.914c13.633-13.633 13.633-35.738 0-49.371l-347.695-347.695c-13.633-13.633-35.736-13.633-49.369 0s-13.633 35.738 0 49.371l347.695 347.695c13.633 13.629 35.736 13.629 49.369 0zM1002.142 938.139c13.633-13.633 13.633-35.736 0-49.369l-347.695-347.695c-13.633-13.633-35.738-13.633-49.371 0s-13.633 35.736 0 49.369l347.695 347.695c13.633 13.633 35.738 13.633 49.371 0z" />
<glyph unicode="&#xe906;" glyph-name="Checkbox" d="M1000.205 792.633c-31.683 31.725-83.13 31.705-114.855 0l-516.929-516.949-229.753 229.751c-31.725 31.725-83.15 31.725-114.875 0s-31.725-83.15 0-114.875l287.178-287.178c15.852-15.852 36.639-23.799 57.428-23.799s41.595 7.926 57.448 23.799l574.359 574.379c31.725 31.703 31.725 83.15 0 114.873z" />
<glyph unicode="&#xe907;" glyph-name="facebook-f" horiz-adv-x="597" d="M560.046 416l29.501 175.025h-184.45v113.579c0 47.883 25.766 94.558 108.375 94.558h83.855v149.014c0 0-76.095 11.824-148.85 11.824-151.9 0-251.189-83.829-251.189-235.582v-133.393h-168.85v-175.025h168.85v-423.108h207.81v423.108h154.949z" />
<glyph unicode="&#xe908;" glyph-name="instagram" d="M498.983 690.706c-141.565 0-255.752-114.212-255.752-255.809s114.187-255.809 255.752-255.809c141.565 0 255.752 114.212 255.752 255.809s-114.187 255.809-255.752 255.809zM498.983 268.588c-91.483 0-166.272 74.583-166.272 166.309s74.567 166.309 166.272 166.309c91.706 0 166.272-74.583 166.272-166.309s-74.789-166.309-166.272-166.309zM824.848 701.17c0-33.172-26.711-59.666-59.651-59.666-33.166 0-59.654 26.716-59.654 59.666s26.711 59.667 59.654 59.667c32.941 0 59.651-26.716 59.651-59.667zM994.241 640.613c-3.789 79.926-22.040 150.725-80.581 209.056-58.313 58.33-129.099 76.587-209.007 80.594-82.357 4.675-329.205 4.675-411.562 0-79.686-3.785-150.469-22.041-209.009-80.372s-76.57-129.129-80.576-209.055c-4.674-82.375-4.674-329.279 0-411.654 3.784-79.93 22.036-150.727 80.576-209.056s129.1-76.587 209.009-80.597c82.357-4.671 329.205-4.671 411.562 0 79.908 3.789 150.694 22.048 209.007 80.597 58.321 58.329 76.572 129.126 80.581 209.056 4.671 82.375 4.671 329.056 0 411.431zM887.84 140.792c-17.361-43.63-50.972-77.249-94.822-94.838-65.66-26.049-221.471-20.039-294.034-20.039s-228.596-5.79-294.037 20.039c-43.627 17.361-77.237 50.979-94.822 94.838-26.043 65.681-20.033 221.526-20.033 294.105s-5.787 228.647 20.033 294.102c17.362 43.637 50.972 77.254 94.822 94.843 65.663 26.048 221.473 20.037 294.037 20.037s228.596 5.789 294.034-20.037c43.63-17.365 77.241-50.983 94.822-94.843 26.041-65.678 20.031-221.523 20.031-294.102s6.010-228.647-20.031-294.105z" />
<glyph unicode="&#xe909;" glyph-name="telegram-plane" horiz-adv-x="1396" d="M1330.586 813.162l-196.673-789.964c-14.839-55.761-53.537-69.632-108.525-43.371l-299.659 188.078-144.595-118.445c-16.001-13.629-29.384-25.024-60.223-25.024l21.529 259.932 555.392 427.446c24.148 18.337-5.232 28.496-37.525 10.16l-686.609-368.223-295.59 78.799c-64.297 17.098-65.46 54.763 13.383 81.029l1156.18 379.373c53.527 17.098 100.371-10.16 82.916-79.79z" />
<glyph unicode="&#xe90a;" glyph-name="twitter" horiz-adv-x="1109" d="M998.221 676.239c0.691-9.955 0.691-19.912 0.691-29.867 0-303.643-222.902-653.515-630.295-653.515-125.51 0-242.103 37.692-340.179 103.117 17.833-2.133 34.977-2.85 53.496-2.85 103.561 0 198.895 36.269 275.024 98.136-97.39 2.134-179.005 68.267-207.126 159.29 13.718-2.132 27.435-3.555 41.838-3.555 19.889 0 39.78 2.846 58.297 7.821-101.505 21.335-177.636 113.779-177.636 225.423v2.843c29.49-17.067 63.785-27.733 100.132-29.154-59.668 41.246-98.76 111.645-98.76 191.29 0 42.666 10.972 81.777 30.176 115.91 109.050-139.377 272.969-230.398 456.773-240.355-3.429 17.067-5.487 34.842-5.487 52.621 0 126.579 98.762 229.689 221.528 229.689 63.783 0 121.39-27.733 161.864-72.533 50.065 9.955 98.074 29.156 140.595 55.466-16.461-53.335-51.439-98.135-97.391-126.577 44.578 4.976 87.791 17.778 127.565 35.554-30.174-45.509-67.891-86.041-111.104-118.754v0z" />
<glyph unicode="&#xe90b;" glyph-name="vk" horiz-adv-x="1664" d="M1584.384 890.56c11.136 40 0 69.44-53.581 69.44h-177.28c-45.146 0-65.907-25.28-77.048-53.44 0 0-90.295-233.92-217.912-385.6-41.235-43.84-60.197-57.92-82.771-57.92-11.136 0-28.292 14.080-28.292 54.080v373.44c0 48-12.641 69.44-49.964 69.44h-278.712c-28.292 0-45.147-22.4-45.147-43.2 0-45.44 63.808-56 70.429-184v-277.76c0-60.8-10.232-72-32.806-72-60.197 0-206.476 234.88-293.16 503.68-17.457 52.16-34.612 73.28-80.061 73.28h-177.28c-50.565 0-60.799-25.28-60.799-53.44 0-49.92 60.197-297.92 280.216-625.6 146.579-223.68 353.055-344.96 540.869-344.96 112.869 0 126.715 26.88 126.715 73.28 0 213.76-10.234 233.92 46.351 233.92 26.186 0 71.333-14.080 176.678-121.92 120.396-128 140.261-185.28 207.679-185.28h177.28c50.56 0 76.147 26.88 61.402 80-33.715 111.68-261.555 341.44-271.795 356.8-26.176 35.84-18.65 51.84 0 83.84 0.307 0.32 216.717 324.16 238.989 433.92z" />
<glyph unicode="&#xe90c;" glyph-name="youtube" horiz-adv-x="1434" d="M1338.235 742.16c-14.909 58.862-58.87 105.22-114.668 120.952-101.151 28.587-506.759 28.587-506.759 28.587s-405.602 0-506.755-28.587c-55.806-15.735-99.757-62.091-114.675-120.952-27.103-106.692-27.103-329.293-27.103-329.293s0-222.601 27.103-329.293c14.918-58.862 58.869-103.289 114.675-119.021 101.153-28.585 506.755-28.585 506.755-28.585s405.598 0 506.759 28.585c55.798 15.732 99.758 60.159 114.668 119.021 27.105 106.692 27.105 329.293 27.105 329.293s0 222.601-27.105 329.293zM584.153 210.763v404.21l339.004-202.11-339.004-202.1z" />
<glyph unicode="&#xe90d;" glyph-name="arrow" horiz-adv-x="1280" d="M1262.208 467.5c0 35.346-28.655 64-64 64h-1066.667c-35.346 0-64-28.654-64-64s28.654-64 64-64h1066.667c35.345 0 64 28.653 64 64zM607.098-6.076c24.942 25.045 24.858 65.562-0.187 90.505l-384.682 383.095 384.678 383.025c25.048 24.94 25.135 65.462 0.195 90.51s-65.463 25.135-90.51 0.195l-430.222-428.374c-12.062-12.009-18.842-28.329-18.843-45.35s6.779-33.341 18.839-45.351l430.223-428.442c25.045-24.943 65.568-24.858 90.509 0.188z" />
<glyph unicode="&#xe90e;" glyph-name="settings" d="M512 544c-53.018 0-96-42.982-96-96s42.982-96 96-96c53.018 0 96 42.982 96 96s-42.982 96-96 96zM352 448c0 88.366 71.634 160 160 160s160-71.634 160-160c0-88.367-71.633-160-160-160s-160 71.633-160 160zM409.748 799.134c-11.421 19.027-35.472 24.946-53.333 14.319l-0.465-0.277-73.815-42.236c-23.354-13.346-31.412-43.603-18.053-66.724l-27.708-16.009 27.686 16.047c22.83-39.387 28.967-82.557 8.573-117.945-20.39-35.383-60.801-51.702-106.232-51.702-27.017 0-49.067-22.258-49.067-49.065v-75.093c0-26.812 22.049-49.067 49.067-49.067 45.431 0 85.842-16.32 106.232-51.703s14.257-78.545-8.564-117.931c-13.341-23.117-5.298-53.35 18.048-66.692l74.301-42.517c17.861-10.624 41.909-4.71 53.33 14.315l4.586 7.919c22.821 39.377 57.219 66.21 98.038 66.21 40.853 0 75.149-26.854 97.762-66.274 0.009-0.017 0.017-0.034 0.030-0.051l4.514-7.804c11.422-19.025 35.473-24.943 53.333-14.319l0.465 0.277 73.818 42.236c23.292 13.312 31.471 43.149 18.018 66.786-22.784 39.36-28.894 82.487-8.516 117.845 20.39 35.383 60.8 51.703 106.231 51.703 27.017 0 49.067 22.255 49.067 49.067v75.093c0 27.017-22.255 49.065-49.067 49.065-45.431 0-85.841 16.319-106.231 51.702-20.39 35.381-14.259 78.541 8.559 117.922 13.346 23.119 5.303 53.356-18.044 66.699l-74.3 42.519c-17.86 10.627-41.911 4.711-53.333-14.316l-4.582-7.919c-22.822-39.373-57.22-66.207-98.044-66.207-40.845 0-75.136 26.848-97.749 66.26-0.012 0.022-0.025 0.044-0.038 0.066l-4.517 7.801zM323.946 868.606c49.469 29.242 112.218 11.302 140.89-36.89l0.192-0.327 4.762-8.227c15.787-27.539 32.252-34.154 42.261-34.154 10.061 0 26.654 6.671 42.654 34.273 0.004 0.004 0-0.005 0 0l4.885 8.436c28.672 48.192 91.422 66.132 140.89 36.889l73.583-42.107c54.298-31.028 72.713-100.621 41.698-154.299l-0.021-0.038c-16-27.599-13.487-45.23-8.495-53.895 4.996-8.67 18.987-19.657 50.782-19.657 61.935 0 113.067-50.484 113.067-113.065v-75.093c0-61.939-50.483-113.067-113.067-113.067-31.795 0-45.786-10.991-50.782-19.661-4.992-8.661-7.505-26.295 8.495-53.892l0.098-0.171c30.857-53.999 12.565-123.102-41.758-154.159-0.004-0.004 0.004 0.004 0 0l-73.604-42.121c-49.468-29.239-112.213-11.298-140.885 36.894l-0.192 0.329-4.762 8.226c-15.787 27.537-32.252 34.155-42.266 34.155-10.057 0-26.65-6.673-42.65-34.274-0.004-0.004 0 0.004 0 0l-4.885-8.435c-28.672-48.192-91.418-66.133-140.887-36.894l-73.586 42.112c-0.006 0.004 0.006-0.004 0 0-54.286 31.031-72.709 100.625-41.698 154.3l0.022 0.038c15.997 27.597 13.487 45.231 8.493 53.892-4.996 8.67-18.985 19.661-50.781 19.661-62.583 0-113.067 51.127-113.067 113.067v75.093c0 61.935 50.484 113.065 113.067 113.065 31.796 0 45.785 10.987 50.781 19.657 4.993 8.665 7.504 26.296-8.493 53.895l-0.022 0.038c-31.011 53.673-12.605 123.257 41.681 154.289l73.6 42.118z" />
<glyph unicode="&#xe90f;" glyph-name="arrow2" horiz-adv-x="2048" d="M2048 960h-2048l1024-1024 1024 1024z" />
<glyph unicode="&#xe910;" glyph-name="wallet" d="M266.667 576c0 17.673 14.327 32 32 32h256c17.673 0 32-14.327 32-32s-14.327-32-32-32h-256c-17.673 0-32 14.327-32 32zM807.253 503.458c-15.322 0-28.791-5.939-38.515-15.923l-0.572-0.576c-11.354-11.081-17.694-26.854-16.098-43.614l0.038-0.375h-0.004c2.257-27.093 28.309-50.445 60.271-50.445h82.893c6.895 0.448 11.401 5.841 11.401 11.52v87.893c0 5.683-4.506 11.076-11.401 11.52h-88.013zM723.17 532.476c21.828 22.262 51.755 34.982 84.083 34.982h88.747c0.38 0 0.764-0.006 1.143-0.020 40.661-1.452 73.523-34.356 73.523-75.5v-87.893c0-41.143-32.862-74.048-73.523-75.499-0.38-0.013-0.764-0.021-1.143-0.021h-83.627c-60.143 0-118.515 43.977-124.032 108.941-3.447 36.787 10.56 71.155 34.829 95.010zM298.667 778.667c-10.421 0-20.31-0.744-29.694-2.188l-0.881-0.123c-47.246-5.929-84.386-26.157-109.817-55.994-25.497-29.914-40.941-71.525-40.941-123.029v-298.667c0-56.73 18.769-101.517 49.294-132.041s75.311-49.293 132.039-49.293h384c56.73 0 101.517 18.769 132.041 49.293s49.293 75.311 49.293 132.041v29.867h-51.627c-60.143 0-118.515 43.977-124.032 108.941-3.447 36.787 10.56 71.155 34.829 95.006 21.828 22.266 51.755 34.986 84.083 34.986h56.747v29.867c0 51.853-15.714 93.723-41.613 123.734-25.839 29.942-63.556 50.115-111.415 55.681-0.525 0.061-1.045 0.135-1.566 0.221-7.676 1.279-16.303 1.697-26.739 1.697h-384zM259.683 839.802c12.663 1.924 25.667 2.864 38.983 2.864h384c11.507 0 23.927-0.416 36.459-2.437 61.888-7.366 114.56-34.295 151.714-77.35 37.248-43.163 57.161-100.493 57.161-165.547v-61.867c0-17.672-14.327-32-32-32h-88.747c-15.322 0-28.796-5.939-38.515-15.923l-0.572-0.576c-11.354-11.081-17.694-26.859-16.098-43.614l0.038-0.375h-0.004c2.257-27.093 28.309-50.445 60.271-50.445h83.627c17.673 0 32-14.327 32-32v-61.867c0-71.27-23.898-133.15-68.041-177.293s-106.022-68.041-177.293-68.041h-384c-71.272 0-133.152 23.898-177.294 68.041s-68.039 106.022-68.039 177.293v298.667c0 64.549 19.543 121.498 56.233 164.544 36.668 43.021 88.753 70.127 150.117 77.925z" />
<glyph unicode="&#xe911;" glyph-name="card-add" d="M53.323 597.333c0 17.673 14.327 32 32 32h490.668c17.673 0 32-14.327 32-32s-14.327-32-32-32h-490.668c-17.673 0-32 14.327-32 32zM223.99 256c0 17.673 14.327 32 32 32h85.333c17.673 0 32-14.327 32-32s-14.327-32-32-32h-85.333c-17.673 0-32 14.327-32 32zM415.99 256c0 17.673 14.325 32 32.002 32h170.667c17.673 0 32-14.327 32-32s-14.327-32-32-32h-170.667c-17.677 0-32.002 14.327-32.002 32zM145.742 750.418c-18.136-17.932-28.419-52.015-28.419-127.058v-350.72c0-75.042 10.283-109.124 28.419-127.057 18.262-18.057 53.032-28.25 129.021-28.25h474.455c75.989 0 110.758 10.193 129.020 28.25 18.133 17.933 28.42 52.015 28.42 127.057v174.080c0 17.673 14.323 32 32 32 17.673 0 32-14.327 32-32v-174.080c0-74.718-8.704-134.289-47.424-172.57-38.592-38.157-98.539-46.737-174.016-46.737h-474.455c-75.478 0-135.428 8.58-174.019 46.737-38.717 38.281-47.421 97.852-47.421 172.57v350.72c0 74.717 8.704 134.287 47.421 172.568 38.591 38.157 98.541 46.738 174.019 46.738h301.228c17.673 0 32-14.327 32-32s-14.327-32-32-32h-301.228c-75.989 0-110.759-10.192-129.021-28.248zM671.991 693.333c0 17.673 14.323 32 32 32h234.667c17.673 0 32-14.327 32-32s-14.327-32-32-32h-234.667c-17.677 0-32 14.327-32 32zM821.325 842.667c17.673 0 32-14.327 32-32v-234.667c0-17.673-14.327-32-32-32-17.677 0-32 14.327-32 32v234.667c0 17.673 14.323 32 32 32z" />
<glyph unicode="&#xe912;" glyph-name="directbox-notif" d="M122.995 416.213c30.575 44.258 87.306 63.787 175.662 63.787 23.416 0 41.47-2.423 57.692-8.742 15.231-5.931 26.861-14.665 37.081-22.336 0.411-0.311 0.82-0.619 1.227-0.922 1.498-1.122 2.894-2.377 4.172-3.742l43.036-46.020c38.204-40.393 102.148-40.226 139.78-0.043l0.094 0.098 43.52 46.080c1.25 1.323 2.607 2.534 4.066 3.627 0.405 0.303 0.815 0.61 1.225 0.922 10.219 7.671 21.85 16.405 37.082 22.336 16.222 6.319 34.274 8.742 57.694 8.742 88.354 0 145.084-19.529 175.659-63.787 14.639-21.188 21.043-45.124 24.068-68.288 2.94-22.498 2.94-46.707 2.94-69.44v-43.819c0-61.722-10.987-124.13-50.031-171.247-40.055-48.337-104.055-74.086-195.302-74.086h-341.335c-109.701 0-177.093 24.333-212.998 76.322-17.302 25.054-25.041 53.589-28.733 81.852-3.604 27.597-3.604 57.399-3.603 85.973v45.005c-0.001 22.733-0.002 46.942 2.936 69.44 3.025 23.164 9.431 47.1 24.069 68.288zM162.387 339.635c-2.346-17.963-2.397-38.221-2.397-62.302v-42.667c0-29.948 0.051-55.808 3.064-78.869 2.975-22.775 8.569-40.213 17.934-53.773 17.429-25.237 56.703-48.691 160.336-48.691h341.335c79.415 0 122.086 22.037 146.027 50.927 24.956 30.11 35.307 74.368 35.307 130.406v42.667c0 24.081-0.051 44.339-2.398 62.302-2.308 17.677-6.571 30.511-13.265 40.205-12.092 17.502-40.695 36.16-123.004 36.16-19.251 0-28.506-2.057-34.47-4.378-5.935-2.313-10.799-5.611-20.954-13.193l-41.54-43.985c-0.017-0.017-0.038-0.038-0.055-0.055-63.049-67.26-169.69-67.098-233.020-0.043l-0.108 0.115-41.16 44.015c-10.115 7.548-14.971 10.837-20.893 13.146-5.965 2.321-15.217 4.378-34.468 4.378-82.311 0-110.914-18.658-123.005-36.16-6.695-9.694-10.956-22.528-13.264-40.205zM208.328 842.882c30.575 44.258 87.306 63.785 175.662 63.785h256.002c88.354 0 145.084-19.527 175.659-63.785 14.639-21.189 21.043-45.127 24.068-68.292 2.94-22.496 2.94-46.707 2.94-69.439v-257.152c0-17.673-14.327-32-32-32-17.677 0-32 14.327-32 32v256c0 24.083-0.051 44.34-2.398 62.303-2.308 17.675-6.571 30.51-13.265 40.201-12.092 17.502-40.695 36.162-123.004 36.162h-256.002c-82.311 0-110.914-18.66-123.005-36.162-6.695-9.691-10.956-22.527-13.264-40.201-2.346-17.963-2.397-38.22-2.397-62.303v-256c0-17.673-14.327-32-32-32s-32 14.327-32 32v257.152c-0.001 22.732-0.002 46.942 2.936 69.439 3.025 23.165 9.431 47.103 24.069 68.292zM418.125 566.188c0 17.673 14.327 32 32 32h142.080c17.673 0 32-14.327 32-32s-14.327-32-32-32h-142.080c-17.673 0-32 14.327-32 32zM382.708 694.188c0 17.673 14.327 32 32 32h213.332c17.673 0 32-14.327 32-32s-14.327-32-32-32h-213.332c-17.673 0-32 14.327-32 32z" />
<glyph unicode="&#xe913;" glyph-name="scan" d="M277.333 842.667c-88.567 0-160-71.433-160-160v-106.667c0-17.673-14.327-32-32-32s-32 14.327-32 32v106.667c0 123.913 100.087 224 224 224h106.667c17.673 0 32-14.327 32-32s-14.327-32-32-32h-106.667zM608 874.667c0 17.673 14.327 32 32 32h106.667c123.913 0 224-100.087 224-224v-106.667c0-17.673-14.327-32-32-32s-32 14.327-32 32v106.667c0 88.567-71.433 160-160 160h-106.667c-17.673 0-32 14.327-32 32zM938.667 309.333c17.673 0 32-14.327 32-32v-64c0-123.913-100.087-224-224-224h-64c-17.673 0-32 14.327-32 32s14.327 32 32 32h64c88.567 0 160 71.433 160 160v64c0 17.673 14.327 32 32 32zM85.333 352c17.673 0 32-14.327 32-32v-106.667c0-88.567 71.433-160 160-160h106.667c17.673 0 32-14.327 32-32s-14.327-32-32-32h-106.667c-123.913 0-224 100.087-224 224v106.667c0 17.673 14.327 32 32 32zM353.294 628.039c-13.216-13.216-22.627-35.639-22.627-73.373v-213.333c0-37.734 9.412-60.156 22.627-73.374 13.216-13.214 35.639-22.626 73.373-22.626h170.667c37.734 0 60.156 9.412 73.374 22.626 13.214 13.218 22.626 35.639 22.626 73.374v213.333c0 37.734-9.412 60.157-22.626 73.373-13.218 13.216-35.639 22.627-73.374 22.627h-170.667c-37.734 0-60.157-9.412-73.373-22.627zM308.039 673.294c29.451 29.451 71.028 41.373 118.627 41.373h170.667c47.599 0 89.178-11.921 118.626-41.373 29.453-29.451 41.374-71.028 41.374-118.627v-213.333c0-47.599-11.921-89.178-41.374-118.626-29.449-29.453-71.027-41.374-118.626-41.374h-170.667c-47.599 0-89.176 11.921-118.627 41.374-29.451 29.449-41.373 71.027-41.373 118.626v213.333c0 47.599 11.921 89.176 41.373 118.627zM181.333 448c0 17.673 14.327 32 32 32h597.333c17.673 0 32-14.327 32-32s-14.327-32-32-32h-597.333c-17.673 0-32 14.327-32 32z" />
<glyph unicode="&#xe914;" glyph-name="profile-circle" d="M512 662.188c-59.917 0-107.948-48.329-107.948-107.947 0-57.55 44.955-104.47 101.915-107.453 3.925 0.32 8.111 0.35 12.173 0.009 56.717 3.029 101.431 49.766 101.807 107.535-0.051 59.512-48.422 107.856-107.947 107.856zM340.052 554.241c0 94.836 76.557 171.947 171.948 171.947 94.899 0 171.947-77.047 171.947-171.947v-0.181c-0.525-92.518-73.293-168.17-165.739-171.319-1.877-0.064-3.755 0.034-5.615 0.303 0.183-0.030 0.222-0.026 0.102-0.017-0.111 0.004-0.294 0.013-0.538 0.013-0.525 0-1.007-0.034-1.31-0.073-1.677-0.209-3.371-0.286-5.060-0.226-92.28 3.145-165.736 78.682-165.736 171.5zM317.733 216.593c-32.862-22.131-51.23-47.458-58.388-71.531 68.531-57.387 156.388-91.733 252.655-91.733 96.269 0 184.124 34.347 252.655 91.733-7.159 24.081-25.54 49.421-58.432 71.565-51.635 34.534-121.847 52.809-193.903 52.809-72.021 0-142.481-18.257-194.587-52.843zM512.32 333.436c81.745 0 165.116-20.544 229.53-63.642l0.068-0.047c51.315-34.53 83.959-81.395 89.476-133.244 1.075-10.108-2.714-20.122-10.21-26.987-81.609-74.731-189.935-120.188-309.184-120.188s-227.573 45.457-309.184 120.188c-7.495 6.865-11.284 16.879-10.209 26.987 5.516 51.849 38.162 98.714 89.476 133.244l0.159 0.107c64.792 43.038 148.325 63.582 230.078 63.582zM512 842.667c-217.968 0-394.667-176.698-394.667-394.667 0-217.967 176.698-394.667 394.667-394.667 217.967 0 394.667 176.7 394.667 394.667 0 217.968-176.7 394.667-394.667 394.667zM53.333 448c0 253.315 205.352 458.667 458.667 458.667s458.667-205.352 458.667-458.667c0-253.316-205.35-458.667-458.667-458.667-253.315 0-458.667 205.35-458.667 458.667z" />
<glyph unicode="&#xe915;" glyph-name="document" d="M132.029 827.961c56.937 56.937 142.138 78.706 251.961 78.706h256.002c109.82 0 195.021-21.769 251.959-78.706s78.707-142.138 78.707-251.961v-256c0-109.824-21.769-195.025-78.707-251.959-56.939-56.939-142.14-78.707-251.959-78.707h-256.002c-109.823 0-195.024 21.769-251.961 78.707-56.937 56.934-78.706 142.135-78.706 251.959v256c0 109.823 21.769 195.023 78.706 251.961zM177.284 782.706c-39.063-39.063-59.961-103.195-59.961-206.706v-256c0-103.509 20.898-167.642 59.961-206.707 39.063-39.061 103.195-59.959 206.706-59.959h256.002c103.509 0 167.642 20.898 206.703 59.959 39.066 39.066 59.964 103.198 59.964 206.707v256c0 103.511-20.898 167.643-59.964 206.706-39.061 39.063-103.194 59.961-206.703 59.961h-256.002c-103.511 0-167.643-20.898-206.706-59.961zM319.99 576c0 17.673 14.327 32 32 32h320.002c17.673 0 32-14.327 32-32s-14.327-32-32-32h-320.002c-17.673 0-32 14.327-32 32zM319.99 320c0 17.673 14.327 32 32 32h320.002c17.673 0 32-14.327 32-32s-14.327-32-32-32h-320.002c-17.673 0-32 14.327-32 32z" />
<glyph unicode="&#xe916;" glyph-name="Lock" d="M279.573 649.503c0.547 124.911 102.191 225.691 227.055 225.182 124.864-0.038 226.108-101.305 226.108-226.176v-91.605c0-17.673-14.327-32.002-32-32.002s-32 14.329-32 32.002v91.605c0 89.548-72.627 162.176-162.176 162.176h-0.141c-89.523 0.392-162.418-71.833-162.846-161.396v-92.386c0-17.673-14.327-32.002-32-32.002s-32 14.329-32 32.002v92.599zM343.136 527.936c-71.676 0-129.792-58.082-129.792-129.792v-182.997c0-71.706 58.116-129.792 129.792-129.792h326.014c71.68 0 129.792 58.086 129.792 129.792v182.997c0 71.71-58.112 129.792-129.792 129.792h-326.014zM149.344 398.144c0 107.068 86.781 193.794 193.792 193.794h326.014c107.012 0 193.792-86.726 193.792-193.794v-182.997c0-107.063-86.78-193.792-193.792-193.792h-326.014c-107.011 0-193.792 86.729-193.792 193.792v182.997zM506.155 386.022c17.677 0 32-14.327 32-32v-94.763c0-17.677-14.323-32-32-32-17.673 0-32 14.323-32 32v94.763c0 17.673 14.327 32 32 32z" />
<glyph unicode="&#xe917;" glyph-name="edit" d="M661.391 826.536c52.316 6.689 104.494-14.88 156.518-63.83l0.072-0.067c52.183-49.353 76.887-100.357 73.201-153.084-3.543-50.703-32.881-93.097-65.28-127.329-0.010-0.006 0.005 0.006 0 0l-350.084-370.548c-10.518-11.443-24.458-20.936-37.424-27.868-13.159-7.035-28.568-13.169-43.277-15.785l-0.256-0.046-137.328-23.455c-0.004 0 0.004 0 0 0-35.011-6.031-69.075 2.673-93.481 25.82-24.371 23.112-34.903 56.612-30.994 91.781l0.013 0.118 15.869 138.962c1.954 14.648 7.341 30.239 13.561 43.576 6.195 13.286 14.757 27.633 25.107 38.651l0.075 0.077 350.291 370.775c32.42 34.247 73.114 65.82 123.418 72.252zM593.777 701.514c-0.005-0.007 0.005 0.007 0 0l-350.193-370.664c-0.008-0.010 0.008 0.005 0 0-2.877-3.077-7.34-9.651-11.48-18.524-4.043-8.673-6.332-16.41-6.993-20.997l-15.724-137.682c-0.002-0.015-0.004-0.036-0.006-0.051-1.622-14.715 2.987-23.229 7.518-27.525 4.497-4.265 13.107-8.356 27.585-5.862l0.059 0.010 137.228 23.439c4.504 0.819 12.085 3.425 20.412 7.88 8.474 4.531 14.463 9.231 17.143 12.17l0.459 0.502 350.299 370.768c28.175 29.765 42.803 55.872 44.488 79.933 1.536 22.040-7.25 52.093-49.326 91.898-41.825 39.339-72.192 46.351-94.111 43.548-23.936-3.060-49.198-19.102-77.358-48.842zM501.507 704.012c20.954 3.265 40.589-11.076 43.855-32.031 15.636-100.384 97.106-177.232 198.436-187.438 21.105-2.125 36.485-20.954 34.36-42.057-2.125-21.1-20.956-36.48-42.056-34.355-135.895 13.686-245.573 116.891-266.627 252.028-3.265 20.955 11.076 40.589 32.031 43.853z" />
<glyph unicode="&#xe918;" glyph-name="card-add2" d="M68.267 597.333c0 9.426 7.641 17.067 17.067 17.067h490.667c9.426 0 17.067-7.641 17.067-17.067s-7.641-17.067-17.067-17.067h-490.667c-9.426 0-17.067 7.641-17.067 17.067zM238.933 256c0 9.426 7.641 17.067 17.067 17.067h85.333c9.426 0 17.067-7.641 17.067-17.067s-7.641-17.067-17.067-17.067h-85.333c-9.426 0-17.067 7.641-17.067 17.067zM430.933 256c0 9.426 7.641 17.067 17.067 17.067h170.667c9.426 0 17.067-7.641 17.067-17.067s-7.641-17.067-17.067-17.067h-170.667c-9.426 0-17.067 7.641-17.067 17.067zM135.253 761.037c-22.938-22.68-32.853-62.71-32.853-137.677v-350.72c0-74.967 9.915-114.997 32.853-137.677 23.006-22.746 63.651-32.563 139.521-32.563h474.453c75.87 0 116.516 9.817 139.52 32.563 22.939 22.68 32.853 62.71 32.853 137.677v174.080c0 9.426 7.641 17.067 17.067 17.067s17.067-7.641 17.067-17.067v-174.080c0-74.793-9.073-128.416-42.988-161.949-33.848-33.468-87.922-42.424-163.519-42.424h-474.453c-75.597 0-129.672 8.957-163.519 42.424-33.915 33.533-42.987 87.156-42.987 161.949v350.72c0 74.793 9.072 128.416 42.987 161.949 33.848 33.467 87.923 42.424 163.519 42.424h301.227c9.426 0 17.067-7.641 17.067-17.067s-7.641-17.067-17.067-17.067h-301.227c-75.87 0-116.515-9.817-139.521-32.563zM686.933 693.333c0 9.426 7.641 17.067 17.067 17.067h234.667c9.426 0 17.067-7.641 17.067-17.067s-7.641-17.067-17.067-17.067h-234.667c-9.426 0-17.067 7.641-17.067 17.067zM821.333 827.733c9.426 0 17.067-7.641 17.067-17.067v-234.667c0-9.426-7.641-17.067-17.067-17.067s-17.067 7.641-17.067 17.067v234.667c0 9.426 7.641 17.067 17.067 17.067z" />
<glyph unicode="&#xe919;" glyph-name="close" d="M798.17 734.17c16.661-16.663 16.661-43.677 0-60.34l-512-512c-16.663-16.661-43.677-16.661-60.34 0s-16.662 43.678 0 60.339l512 512c16.661 16.662 43.678 16.662 60.339 0zM225.83 734.17c16.663 16.662 43.677 16.662 60.34 0l512-512c16.661-16.661 16.661-43.678 0-60.339s-43.678-16.661-60.339 0l-512 512c-16.662 16.663-16.662 43.677 0 60.34z" />
<glyph unicode="&#xe91a;" glyph-name="info-circle" d="M42.667 448c0 258.231 211.103 469.333 469.333 469.333s469.333-211.103 469.333-469.333c0-258.23-211.103-469.333-469.333-469.333s-469.333 211.103-469.333 469.333zM512 832c-211.103 0-384-172.897-384-384s172.897-384 384-384c211.103 0 384 172.897 384 384s-172.897 384-384 384zM512 661.333c23.564 0 42.667-19.103 42.667-42.667v-213.333c0-23.563-19.103-42.667-42.667-42.667s-42.667 19.103-42.667 42.667v213.333c0 23.564 19.103 42.667 42.667 42.667zM454.875 277.333c0 31.42 25.47 56.889 56.889 56.889h0.383c31.419 0 56.889-25.469 56.889-56.889s-25.471-56.889-56.889-56.889h-0.383c-31.419 0-56.889 25.469-56.889 56.889z" />
<glyph unicode="&#xe91b;" glyph-name="Paper" d="M345.005 874.165h283.803c8.713 0 17.050-3.553 23.083-9.839l216.107-225.109c5.722-5.959 8.917-13.9 8.917-22.161v-390.974c0.7-106.637-83.264-194.628-189.807-198.95-0.431-0.017-0.866-0.026-1.297-0.026h-340.437c-1.058-0.026-1.984-0.021-2.653-0.017-1.018 0.009-1.193 0.017-1.701 0.017l-0.711 0.004c-107.703 2.398-193.095 91.546-190.947 199.198v456.753l0.009 0.754c2.501 106.118 89.502 190.724 195.634 190.35zM213.362 682.664v-456.689l-0.007-0.7c-1.577-72.422 55.778-132.446 128.16-134.174l0.817-0.004 1.432-0.013c0.112 0 0.154 0.004 0.149 0.004 0.344 0.009 0.688 0.017 1.032 0.017h340.182c71.812 3.238 128.303 62.677 127.787 134.639v378.437l-197.747 205.983h-270.345c-71.213 0.274-129.595-56.399-131.461-127.501zM617.604 874.667c17.673 0 32-14.327 32-32v-124.117c0-42.932 34.684-77.724 77.619-77.867h117.495c17.673 0 32-14.327 32-32s-14.327-32-32-32h-117.636c-78.221 0.221-141.478 63.638-141.478 141.867v124.117c0 17.673 14.327 32 32 32zM347.219 304.708c0 17.673 14.327 32 32 32h230.398c17.677 0 32-14.327 32-32s-14.323-32-32-32h-230.398c-17.673 0-32 14.327-32 32zM347.177 464.811c0 17.677 14.327 32 32 32h143.191c17.673 0 32-14.323 32-32 0-17.673-14.327-32-32-32h-143.191c-17.673 0-32 14.327-32 32z" />
<glyph unicode="&#xe91c;" glyph-name="user" d="M745.118 753.135c2.863 17.44 19.319 29.258 36.757 26.396 73.446-12.052 129.476-75.715 129.476-152.58v-0.066c-0.162-77.983-57.958-142.294-133.022-152.837-17.498-2.462-33.681 9.732-36.139 27.234s9.737 33.682 27.234 36.141c43.968 6.178 77.815 43.91 77.926 89.562-0.017 44.975-32.815 82.33-75.84 89.391-17.438 2.862-29.257 19.319-26.394 36.759zM820.774 367.386c2.611 17.476 18.901 29.53 36.378 26.914 30.545-4.565 60.395-12.651 83.375-27.721 24.589-16.128 41.771-40.862 41.771-74.325 0-22.131-7.595-41.472-21.325-57.007-13.137-14.865-30.63-24.862-48.845-31.817-16.512-6.298-35.004 1.98-41.306 18.492-6.302 16.508 1.975 35.004 18.487 41.306 12.42 4.736 19.716 9.886 23.71 14.404 3.401 3.844 5.278 8.119 5.278 14.622 0 8.132-2.931 14.289-12.873 20.809-11.546 7.573-30.639 13.888-57.737 17.941-17.476 2.615-29.53 18.901-26.914 36.382zM329.11 354.586c51.574 17.297 119.474 22.426 188.722 22.426 69.658 0 137.587-5.303 189.099-22.814 25.924-8.811 50.027-21.474 67.925-40.23 18.641-19.533 29.184-44.309 29.184-73.446 0-29.205-10.641-53.978-29.402-73.429-17.993-18.658-42.185-31.177-68.13-39.855-51.558-17.242-119.45-22.31-188.676-22.31-69.649 0-137.581 5.278-189.097 22.75-25.925 8.794-50.035 21.431-67.943 40.166-18.65 19.507-29.21 44.275-29.21 73.404 0 29.201 10.652 53.969 29.4 73.425 17.989 18.671 42.179 31.215 68.127 39.915zM307.069 270.263c-7.497-7.778-11.485-16.725-11.485-29.018 0-12.343 3.99-21.355 11.472-29.18 8.224-8.602 21.829-16.862 42.235-23.778 41.145-13.956 100.34-19.362 168.543-19.362 67.904 0 127.121 5.21 168.38 19.008 20.467 6.844 34.116 15.036 42.359 23.586 7.479 7.757 11.469 16.691 11.469 29.001 0 12.378-3.998 21.414-11.482 29.261-8.226 8.619-21.828 16.892-42.223 23.821-41.126 13.982-100.305 19.409-168.503 19.409-67.883 0-127.104-5.261-168.373-19.102-20.473-6.865-34.135-15.078-42.391-23.646zM322.897 626.45c0.033 107.629 87.307 194.883 194.944 194.883 107.657 0 194.944-87.287 194.944-194.944 0-107.703-87.292-194.944-194.944-194.944h-1.301c-107.353 0.358-194.018 87.676-193.643 195.005zM322.897 626.45c0 0.020 0 0.041 0 0.061l32-0.122h-32c0 0.020 0 0.041 0 0.061zM517.841 757.333c-72.311 0-130.944-58.633-130.944-130.944v-0.122c-0.274-71.999 57.831-130.554 129.805-130.822h1.139c72.316 0 130.944 58.596 130.944 130.944 0 72.311-58.633 130.944-130.944 130.944zM290.525 753.135c2.862-17.44-8.956-33.898-26.396-36.759-43.026-7.061-75.822-44.416-75.838-89.392 0.111-45.66 33.924-83.383 77.921-89.56 17.501-2.457 29.697-18.636 27.24-36.137s-18.637-29.696-36.138-27.243c-75.118 10.547-132.861 74.868-133.023 152.841v0.066c0 76.866 56.030 140.528 129.474 152.58 17.44 2.862 33.898-8.956 36.76-26.396zM214.859 367.386c2.614-17.481-9.437-33.766-26.916-36.382-27.099-4.053-46.188-10.368-57.737-17.941-9.939-6.519-12.872-12.676-12.872-20.809 0-6.502 1.878-10.778 5.278-14.622 3.993-4.518 11.291-9.668 23.71-14.404 16.512-6.302 24.789-24.798 18.488-41.306-6.301-16.512-24.794-24.789-41.306-18.492-18.216 6.955-35.707 16.951-48.845 31.817-13.731 15.535-21.325 34.876-21.325 57.007 0 33.463 17.184 58.197 41.773 74.325 22.979 15.070 52.829 23.155 83.372 27.721 17.479 2.615 33.767-9.438 36.38-26.914z" />
<glyph unicode="&#xe91d;" glyph-name="trade" d="M416.074 603.414c127.887-22.291 229.059-123.465 251.352-251.35 132.685 3.234 239.241 111.795 239.241 245.259 0 135.5-109.833 245.333-245.333 245.333-133.466 0-242.026-106.557-245.259-239.242zM352 597.323c0 170.846 138.487 309.333 309.333 309.333s309.333-138.487 309.333-309.333c0-170.848-138.487-309.332-309.333-309.332-8.324 0-16.887 0.482-24.064 0.905-15.953 0.939-28.766 13.5-30.025 29.431-9.429 119.565-105.344 215.479-224.908 224.908-15.929 1.256-28.491 14.071-29.429 30.022-0.422 7.176-0.908 15.743-0.908 24.065zM362.667 543.99c-135.5 0-245.333-109.835-245.333-245.332 0-135.501 109.833-245.333 245.333-245.333s245.333 109.833 245.333 245.333c0 6.089-0.354 12.774-0.777 19.977-9.566 119.317-105.259 215.014-224.577 224.576-7.205 0.423-13.888 0.779-19.98 0.779zM53.333 298.658c0 170.846 138.487 309.332 309.333 309.332 8.322 0 16.889-0.486 24.065-0.908l0.637-0.044c150.94-11.904 271.776-132.738 283.68-283.68l0.043-0.636c0.422-7.177 0.909-15.744 0.909-24.064 0-170.85-138.487-309.333-309.333-309.333s-309.333 138.483-309.333 309.333zM53.333 831.99c0 41.14 33.527 74.667 74.667 74.667h110.507c66.991 0 99.020-80.746 53.1-127.406l-0.18-0.182-110.507-110.506c-47.143-47.143-127.587-13.414-127.587 52.92v110.507zM128 842.656c-5.794 0-10.667-4.873-10.667-10.667v-110.507c0-9.612 11.715-14.282 18.332-7.665l110.389 110.389c3.257 3.355 3.924 7.607 2.173 11.855-1.727 4.189-5.043 6.595-9.721 6.595h-110.507zM843.089 227.422c47.142 47.142 127.586 13.414 127.586-52.924v-110.507c0-41.139-33.527-74.667-74.667-74.667h-110.507c-66.991 0-99.021 80.747-53.099 127.407l0.179 0.183 110.507 110.507zM906.675 174.498c0 9.613-11.716 14.285-18.334 7.667l-110.387-110.387c-3.255-3.358-3.925-7.607-2.172-11.857 1.724-4.19 5.043-6.596 9.719-6.596h110.507c5.794 0 10.667 4.877 10.667 10.667v110.507z" />
<glyph unicode="&#xe91e;" glyph-name="money-recive" d="M467.627 565.76c-14.81 0-29.867-13.414-29.867-33.28 0-15.044 3.23-20.467 4.847-22.528 1.92-2.445 5.76-5.491 16.034-9.161l128.516-44.83c15.036-5.35 32.218-13.751 45.052-30.187 13.116-16.798 18.458-37.751 18.458-61.828 0-52.382-40.542-97.28-93.867-97.28h-80.213c-58.251 0-103.253 48.964-103.253 106.667 0 17.673 14.327 32 32 32s32-14.327 32-32c0-25.067 18.999-42.667 39.253-42.667h80.213c14.942 0 29.867 13.129 29.867 33.28 0 14.75-3.191 20.25-4.902 22.438-1.984 2.543-5.905 5.653-15.979 9.25l-128.516 44.83c-14.834 5.282-32.096 13.53-44.996 29.956-13.208 16.819-18.513 37.85-18.513 62.059 0 51.814 40.407 97.28 93.866 97.28h80.213c58.253 0 103.253-48.962 103.253-106.667 0-17.673-14.327-32-32-32s-32 14.327-32 32c0 25.069-18.999 42.667-39.253 42.667h-80.213zM512 672c17.673 0 32-14.327 32-32v-384c0-17.673-14.327-32-32-32s-32 14.327-32 32v384c0 17.673 14.327 32 32 32zM512 85.333c-200.295 0-362.667 162.372-362.667 362.667s162.371 362.667 362.667 362.667c200.294 0 362.667-162.371 362.667-362.667s-162.372-362.667-362.667-362.667zM512 21.333c235.639 0 426.667 191.027 426.667 426.667 0 235.642-191.027 426.667-426.667 426.667-235.642 0-426.667-191.025-426.667-426.667 0-235.639 191.025-426.667 426.667-426.667z" />
<glyph unicode="&#xe91f;" glyph-name="Logout" d="M86.271 684.524c0 104.494 84.721 189.227 189.184 189.227h208.001c104.499 0 189.227-84.727 189.227-189.227v-39.808c0-17.673-14.327-32-32-32s-32 14.327-32 32v39.808c0 69.153-56.073 125.227-125.227 125.227h-208.001c-69.105 0-125.184-56.068-125.184-125.227v-474.881c0-69.158 56.079-125.227 125.184-125.227h208.428c68.907 0 124.8 55.872 124.8 124.757v40.235c0 17.673 14.327 32 32 32s32-14.327 32-32v-40.235c0-104.256-84.57-188.757-188.8-188.757h-208.428c-104.463 0-189.184 84.732-189.184 189.227v474.881zM384.791 447.083c0 17.673 14.327 32 32 32h513.751c17.673 0 32-14.327 32-32s-14.327-32-32-32h-513.751c-17.673 0-32 14.327-32 32zM782.925 594.046c12.471 12.524 32.734 12.57 45.257 0.101l124.928-124.374c6.033-6.003 9.421-14.165 9.421-22.673 0.004-8.512-3.388-16.674-9.417-22.677l-124.928-124.416c-12.523-12.471-32.785-12.429-45.257 0.094s-12.429 32.781 0.094 45.252l102.157 101.739-102.153 101.7c-12.523 12.469-12.57 32.73-0.102 45.255z" />
<glyph unicode="&#xe920;" glyph-name="Password" d="M159.81 793.978c40.317 43.254 98.031 67.885 167.235 67.885h369.876c69.384 0 127.117-24.622 167.406-67.892 40.146-43.115 61.542-103.183 61.542-171.724v-348.5c0-68.541-21.396-128.609-61.548-171.725-40.297-43.272-98.040-67.891-167.444-67.891h-369.833c-69.384 0-127.108 24.622-167.388 67.894-40.135 43.116-61.52 103.183-61.52 171.722v348.5c0 68.562 21.495 128.627 61.672 171.731zM187.9 767.795c-32.451-34.815-51.362-84.959-51.362-145.549v-348.5c0-60.613 18.829-110.756 51.227-145.559 32.253-34.647 79.384-55.657 139.281-55.657h369.833c59.919 0 107.075 21.010 139.343 55.66 32.412 34.806 51.249 84.946 51.249 145.556v348.5c0 60.611-18.836 110.751-51.246 145.556-32.264 34.65-79.406 55.66-139.302 55.66h-369.876c-59.692 0-106.834-21.002-139.145-55.667zM377.050 507.812c-33.044 0-59.82-26.775-59.82-59.817 0-33.044 26.775-59.82 59.82-59.82s59.82 26.775 59.82 59.82c0 33.014-26.749 59.781-59.702 59.817h-0.118zM278.83 447.995c0 54.252 43.968 98.217 98.22 98.217h0.128c54.17-0.051 98.092-44.024 98.092-98.217 0-54.254-43.968-98.22-98.22-98.22s-98.22 43.965-98.22 98.22zM436.995 448c0 10.604 8.596 19.2 19.2 19.2h269.568c10.604 0 19.2-8.596 19.2-19.2v-79.020c0-10.604-8.596-19.2-19.2-19.2s-19.2 8.596-19.2 19.2v59.82h-250.368c-10.604 0-19.2 8.596-19.2 19.2zM605.087 467.187c10.604 0 19.2-8.596 19.2-19.2v-79.020c0-10.604-8.596-19.2-19.2-19.2s-19.2 8.596-19.2 19.2v79.020c0 10.604 8.596 19.2 19.2 19.2z" />
<glyph unicode="&#xe921;" glyph-name="percent" d="M658.271 601.101c7.498-7.498 7.498-19.653 0-27.151l-279.037-279.040c-7.498-7.498-19.656-7.498-27.154 0s-7.498 19.656 0 27.154l279.040 279.037c7.498 7.498 19.653 7.498 27.151 0zM383.15 603.313c-18.381 0-33.283-14.902-33.283-33.28 0-18.381 14.902-33.28 33.283-33.28 18.378 0 33.277 14.899 33.277 33.28s-14.899 33.28-33.277 33.28zM311.468 570.033c0 39.588 32.095 71.68 71.683 71.68s71.677-32.095 71.677-71.68c0-39.588-32.090-71.68-71.677-71.68s-71.683 32.092-71.683 71.68zM662.185 359.25c-18.381 0-33.277-14.899-33.277-33.28s14.899-33.28 33.277-33.28c18.381 0 33.28 14.902 33.28 33.28 0 18.381-14.899 33.28-33.28 33.28zM590.508 325.97c0 39.588 32.090 71.68 71.677 71.68s71.68-32.090 71.68-71.68c0-39.588-32.092-71.68-71.68-71.68s-71.677 32.095-71.677 71.68zM511.997 855.462c-225.037 0-407.466-182.428-407.466-407.468 0-225.037 182.429-407.465 407.466-407.465 225.039 0 407.468 182.428 407.468 407.465 0 225.039-182.428 407.468-407.468 407.468zM66.131 447.995c0 246.246 199.622 445.868 445.866 445.868 246.246 0 445.868-199.621 445.868-445.868 0-246.244-199.621-445.865-445.868-445.865-246.244 0-445.866 199.621-445.866 445.865z" />
<glyph unicode="&#xe922;" glyph-name="messages-2" d="M561.923 855.462c-198.876 0-357.548-150.067-357.548-332.372 0-0.179 0-0.356 0-0.532 34.792 16.863 74.020 26.13 115.627 26.13 139.067 0 253.865-105.526 253.865-238.505 0-43.292-12.472-83.953-34.186-118.884 7.34-0.387 14.753-0.581 22.241-0.581 3.451 0 6.84-0.932 9.807-2.696l178.911-106.322c16.338-9.892 37.366 3.261 34.995 23.071 0 0.008 0-0.005 0 0l-16.635 134.792c-0.87 7.048 2.22 14.001 8.033 18.076 86.7 60.769 142.433 157.12 142.433 265.452 0 182.306-158.671 332.372-357.545 332.372zM165.975 523.090c0 205.96 178.396 370.772 395.948 370.772s395.945-164.812 395.945-370.772c0-118.024-58.778-222.52-149.368-290.081l15.258-123.622c6.141-50.972-48.696-87.283-92.925-60.582-0.028 0.018-0.056 0.033-0.082 0.051l-174.154 103.493c-18.621 0.21-36.913 1.533-54.866 3.983-6.953 0.947-12.836 5.612-15.34 12.165-2.506 6.556-1.239 13.955 3.308 19.297 28.818 33.882 45.77 76.47 45.77 122.388 0 109.368-95.119 200.105-215.465 200.105-45.801 0-87.806-13.012-122.638-35.709-5.559-3.625-12.595-4.119-18.607-1.311-6.012 2.806-10.149 8.52-10.939 15.107-1.4 11.666-1.844 23.142-1.844 34.716zM319.997 510.287c-45.798 0-87.805-13.012-122.637-35.712l-0.145-0.095-0.001 0.003c-56.426-36.050-92.684-96.34-92.684-164.301 0-64.852 33.156-122.755 85.614-159.16 5.879-4.081 9.001-11.092 8.1-18.191l-10.652-83.94c-0.317-2.888 0.97-5.466 3.493-7.114 2.488-1.626 5.137-1.697 7.511-0.243l0.237 0.146h0.001l111.361 66.132c2.964 1.761 6.351 2.691 9.802 2.691 69.507 0 131.008 30.403 169.51 77.071l0.184 0.223v-0.003c28.818 33.879 45.773 76.47 45.773 122.388 0 109.368-95.122 200.105-215.468 200.105zM176.468 506.796c41.101 26.765 90.374 41.892 143.529 41.892 139.069 0 253.868-105.526 253.868-238.505 0-55.575-20.554-106.813-54.828-147.156-44.961-54.431-115.21-89.347-193.679-90.872l-106.809-63.429c-32.912-20.058-73.446 7.66-69.086 44.716l0.020 0.174h0.001l9.24 72.812c-56.459 43.267-92.593 109.356-92.593 183.757 0 82.196 43.923 154.15 110.337 196.613z" />
<glyph unicode="&#xe923;" glyph-name="arrow3" d="M601.212 650.018c17.318 15.983 44.309 14.904 60.292-2.411l137.847-149.332c15.087-16.341 15.087-41.536 0-57.877l-137.847-149.338c-15.983-17.314-42.974-18.394-60.288-2.411-17.318 15.983-18.398 42.974-2.415 60.292l71.748 77.726h-414.549c-23.564 0-42.667 19.102-42.667 42.667s19.102 42.667 42.667 42.667h414.549l-71.748 77.726c-15.983 17.315-14.903 44.308 2.411 60.291z" />
<glyph unicode="&#xe924;" glyph-name="apple" d="M568.051 5.436c29.282-12.13 64.627-26.769 114.615-26.769 86.528 0 153.557 97.485 187.908 213.376l0.030 0.094c1.408 4.757 2.765 9.549 4.062 14.362 5.056 18.748 9.263 37.879 12.57 57.079 1.267 7.377-5.086 13.756-12.57 13.756-58.91 0-106.667 47.757-106.667 106.667s47.757 106.667 106.667 106.667c5.854 0 10.679 5.116 9.57 10.863-2.662 13.794-5.833 27.221-9.57 40.169-3.328 11.523-7.1 22.666-11.366 33.348l-0.243 0.608c-30.468 75.861-85.751 128.345-180.39 128.345-45.73 0-73.079-12.253-98.466-23.627-21.986-9.85-42.496-19.040-72.201-19.040s-50.214 9.19-72.201 19.040c-25.386 11.373-52.736 23.627-98.466 23.627-170.667 0-213.332-170.675-213.333-341.333s85.333-384 213.333-384c49.987 0 85.333 14.639 114.615 26.769 20.706 8.576 38.379 15.898 56.051 15.898s35.345-7.322 56.051-15.898zM512 106.667c-35.354 0-67.605-13.542-85.022-20.851-27.652-11.61-55.222-21.815-85.645-21.815-12.798 0-44.441 13.026-78.342 80.832-30.981 61.961-49.658 144.759-49.658 217.835 0 80.973 10.574 150.332 33.658 196.502 10.939 21.878 23.34 35.826 36.344 44.496 12.47 8.314 30.264 15.002 57.998 15.002 14.789 0 25.187-1.917 33.46-4.276 9.069-2.586 17.060-6.042 30.118-11.892l2.123-0.953c22.261-9.997 56.885-25.545 104.966-25.545s82.705 15.549 104.969 25.545l2.121 0.953c13.056 5.85 21.047 9.306 30.118 11.892 8.273 2.359 18.671 4.276 33.459 4.276 30.481 0 49.229-8.052 62.315-18.092 12.787-9.812 25.092-25.396 35.674-49.126-58.483-32.904-97.988-95.564-97.988-167.449 0-74.739 42.701-139.503 105.037-171.226-14.989-49.271-35.524-89.975-57.498-116.766-22.682-27.657-39.159-32.009-47.539-32.009-30.421 0-57.993 10.206-85.645 21.815-17.417 7.309-49.668 20.851-85.022 20.851zM512 757.333c0 88.366 71.633 160 160 160 5.892 0 10.667-4.776 10.667-10.667 0-88.366-71.633-160-160-160-5.892 0-10.667 4.776-10.667 10.667z" />
<glyph unicode="&#xe925;" glyph-name="star" horiz-adv-x="931" d="M415.516 884.708l-113.623-240.698-254.216-38.722c-45.588-6.908-63.859-65.628-30.798-99.261l183.919-187.249-43.5-264.513c-7.831-47.814 40.368-83.626 80.736-61.266l227.42 124.894 227.42-124.894c40.368-22.174 88.567 13.452 80.737 61.266l-43.5 264.513 183.919 187.249c33.058 33.633 14.79 92.353-30.798 99.261l-254.215 38.722-113.623 240.698c-20.358 42.904-79.345 43.449-99.877 0z" />
<glyph unicode="&#xe926;" glyph-name="search-normal" d="M490.646 826.687c-197.35 0-357.333-159.983-357.333-357.333 0-197.348 159.983-357.335 357.333-357.335 197.348 0 357.335 159.987 357.335 357.335 0 197.35-159.987 357.333-357.335 357.333zM37.313 469.354c0 250.369 202.964 453.333 453.333 453.333 250.372 0 453.335-202.964 453.335-453.333 0-250.372-202.963-453.335-453.335-453.335-250.369 0-453.333 202.963-453.333 453.335zM819.373 140.627c18.746 18.746 49.133 18.746 67.878 0l85.338-85.331c18.746-18.746 18.746-49.139 0-67.885s-49.139-18.746-67.885 0l-85.331 85.338c-18.746 18.746-18.746 49.133 0 67.878z" />
<glyph unicode="&#xe927;" horiz-adv-x="1229" d="M0 857.6c0 56.554 45.846 102.4 102.4 102.4h1024c56.556 0 102.4-45.846 102.4-102.4s-45.844-102.4-102.4-102.4h-1024c-56.554 0-102.4 45.847-102.4 102.4z" />
<glyph unicode="&#xe928;" horiz-adv-x="1229" d="M0 448c0 56.553 45.846 102.4 102.4 102.4h1024c56.556 0 102.4-45.847 102.4-102.4s-45.844-102.4-102.4-102.4h-1024c-56.554 0-102.4 45.847-102.4 102.4z" />
<glyph unicode="&#xe929;" horiz-adv-x="1229" d="M0 38.4c0 56.553 45.846 102.4 102.4 102.4h1024c56.556 0 102.4-45.847 102.4-102.4s-45.844-102.4-102.4-102.4h-1024c-56.554 0-102.4 45.847-102.4 102.4z" />
<glyph unicode="&#xe92a;" horiz-adv-x="1229" d="M0 857.6c0 56.554 45.846 102.4 102.4 102.4h1024c56.556 0 102.4-45.846 102.4-102.4s-45.844-102.4-102.4-102.4h-1024c-56.554 0-102.4 45.847-102.4 102.4z" />
<glyph unicode="&#xe92b;" horiz-adv-x="1229" d="M0 448c0 56.553 45.846 102.4 102.4 102.4h1024c56.556 0 102.4-45.847 102.4-102.4s-45.844-102.4-102.4-102.4h-1024c-56.554 0-102.4 45.847-102.4 102.4z" />
<glyph unicode="&#xe92c;" horiz-adv-x="1229" d="M0 38.4c0 56.553 45.846 102.4 102.4 102.4h1024c56.556 0 102.4-45.847 102.4-102.4s-45.844-102.4-102.4-102.4h-1024c-56.554 0-102.4 45.847-102.4 102.4z" />
<glyph unicode="&#xe92d;" horiz-adv-x="1229" d="M0 857.6c0 56.554 45.846 102.4 102.4 102.4h1024c56.556 0 102.4-45.846 102.4-102.4s-45.844-102.4-102.4-102.4h-1024c-56.554 0-102.4 45.847-102.4 102.4z" />
<glyph unicode="&#xe92e;" horiz-adv-x="1229" d="M0 448c0 56.553 45.846 102.4 102.4 102.4h1024c56.556 0 102.4-45.847 102.4-102.4s-45.844-102.4-102.4-102.4h-1024c-56.554 0-102.4 45.847-102.4 102.4z" />
<glyph unicode="&#xe92f;" horiz-adv-x="1229" d="M0 38.4c0 56.553 45.846 102.4 102.4 102.4h1024c56.556 0 102.4-45.847 102.4-102.4s-45.844-102.4-102.4-102.4h-1024c-56.554 0-102.4 45.847-102.4 102.4z" />
<glyph unicode="&#xe930;" glyph-name="question" d="M562 203c0-27.614-22.386-50-50-50s-50 22.386-50 50c0 27.614 22.386 50 50 50s50-22.386 50-50zM512 960c-282.968 0-512-228.994-512-512 0-282.968 228.994-512 512-512 282.968 0 512 228.994 512 512 0 282.968-228.994 512-512 512zM512 16c-238.754 0-432 193.214-432 432 0 238.754 193.214 432 432 432 238.754 0 432-193.214 432-432 0-238.754-193.214-432-432-432zM512 703c-88.224 0-160-71.776-160-160 0-22.092 17.908-40 40-40s40 17.908 40 40c0 44.112 35.888 80 80 80s80-35.888 80-80c0-44.112-35.888-80-80-80-22.092 0-40-17.908-40-40v-100c0-22.092 17.908-40 40-40s40 17.908 40 40v65.062c68.932 17.806 120 80.52 120 154.938 0 88.224-71.776 160-160 160z" />
<glyph unicode="&#xe931;" glyph-name="Calendar" d="M99.958 558.75c0 17.673 14.327 32 32 32h760.488c17.673 0 32-14.327 32-32s-14.327-32-32-32h-760.488c-17.673 0-32 14.327-32 32zM684.54 906.667c17.677 0 32-14.327 32-32v-140.407c0-17.673-14.323-32-32-32-17.673 0-32 14.327-32 32v140.407c0 17.673 14.327 32 32 32zM339.875 906.667c17.673 0 32-14.327 32-32v-140.407c0-17.673-14.327-32-32-32s-32 14.327-32 32v140.407c0 17.673 14.327 32 32 32zM160.746 779.547c42.737 40.626 102.401 59.745 170.815 59.745h361.273c68.582 0 128.282-19.104 170.944-59.776 42.906-40.899 64.427-99.644 64.222-170.371v-389.3c0-70.729-21.632-129.536-64.55-170.513-42.688-40.759-102.374-59.994-171.012-59.994h-360.876c-68.606 0-128.339 19.631-171.038 61.018-42.859 41.54-64.523 101.082-64.523 172.715v386.119c0 70.777 21.762 129.497 64.746 170.358zM204.841 733.161c-27.471-26.115-44.841-66.446-44.841-123.972v-386.119c0-58.684 17.468-100.011 45.065-126.758 27.756-26.901 69.804-42.974 126.496-42.974h360.876c57.058 0 99.149 15.868 126.818 42.283 27.439 26.202 44.745 66.65 44.745 124.224v389.443c0.175 57.551-17.037 97.839-44.382 123.904-27.593 26.304-69.675 42.1-126.784 42.1h-361.273c-56.885 0-99.002-15.781-126.72-42.131z" />
<glyph unicode="&#xe932;" glyph-name="aed" d="M1024 448c0-282.77-229.23-512-512-512s-512 229.23-512 512c0 282.77 229.23 512 512 512s512-229.23 512-512z" />
<glyph unicode="&#xe933;" glyph-name="inputfile" horiz-adv-x="939" d="M861.875 885.404c-102.387 99.462-268.971 99.462-371.358 0l-390.999-379.821c-12.067-11.721-12.067-30.711 0-42.432 12.067-11.725 31.616-11.725 43.683 0l390.999 379.819c75.9 73.672 208.094 73.672 283.994 0 78.285-76.046 78.285-199.802 0-275.848l-545.976-536.337c-46.699-45.367-128.061-45.367-174.758 0-48.177 46.797-48.177 122.931 0 169.732l524.135 515.153c17.498 16.996 48.026 16.996 65.523 0 18.069-17.552 18.069-46.126 0-63.68l-502.263-493.905c-10.418-10.121-10.418-32.311 0-42.436 12.067-11.721 31.616-11.721 43.683 0l502.263 493.91c42.176 40.97 42.176 107.578 0 148.546-40.845 39.678-112.102 39.62-152.887 0l-524.135-515.151c-71.702-69.653-71.702-184.947 0-254.601 35.025-34.027 81.572-52.352 131.075-52.352s96.054 18.325 131.048 52.348l545.976 536.341c102.387 99.462 102.387 261.254 0 360.715z" />
<glyph unicode="&#xe934;" glyph-name="send2" horiz-adv-x="1138" d="M0.541 960l-0.541-379.258 812.698-108.361-812.698-108.36 0.541-379.261 1137.237 487.621-1137.237 487.619z" />
<glyph unicode="&#xe935;" glyph-name="uniE935" d="M1024 448c0-282.77-229.23-512-512-512s-512 229.23-512 512c0 282.77 229.23 512 512 512s512-229.23 512-512z" />
<glyph unicode="&#xe936;" glyph-name="uniE936" d="M682.667 352.832v57.997h-341.333v-57.997h41.872c-11.18-14.724-17.976-33.237-18.196-51.529 0.219-68.928 52.395-109.303 147.537-109.303 97.997 0 149.073 37.7 152.363 121.126h-83.964c-1.314-37.922-28.497-52.42-68.399-52.42-40.772 0-64.887 16.73-65.109 45.504 0.222 16.508 6.797 32.789 20.83 46.622h214.4zM514.304 592.628c38.583 0 58.091-16.284 57.873-41.267 0.218-17.176-7.671-31.677-20.169-44.614h-210.675v-59.115h341.333v59.115h-46.037c10.086 14.498 16.444 31.453 16.222 49.521 0.222 64.913-49.984 105.065-139.426 105.065-95.802 0-139.427-46.844-142.935-118.225h83.304c0.879 31.006 19.951 49.521 60.51 49.521z" />
<glyph unicode="&#xe937;" glyph-name="fi_copy" d="M469.333 544c-29.457 0-53.333-23.876-53.333-53.333v-384c0-29.457 23.876-53.333 53.333-53.333h384c29.457 0 53.333 23.876 53.333 53.333v384c0 29.457-23.876 53.333-53.333 53.333h-384zM352 490.667c0 64.801 52.532 117.333 117.333 117.333h384c64.802 0 117.333-52.532 117.333-117.333v-384c0-64.802-52.531-117.333-117.333-117.333h-384c-64.801 0-117.333 52.531-117.333 117.333v384zM170.667 842.667c-14.145 0-27.71-5.619-37.712-15.621s-15.621-23.567-15.621-37.712v-384c0-14.144 5.619-27.712 15.621-37.713s23.567-15.62 37.712-15.62h42.667c17.673 0 32-14.327 32-32s-14.327-32-32-32h-42.667c-31.119 0-60.963 12.361-82.967 34.368-22.004 22.003-34.366 51.849-34.366 82.965v384c0 31.119 12.362 60.963 34.366 82.967s51.848 34.366 82.967 34.366h384c31.117 0 60.962-12.362 82.965-34.366 22.007-22.004 34.368-51.848 34.368-82.967v-42.667c0-17.673-14.327-32-32-32s-32 14.327-32 32v42.667c0 14.145-5.619 27.71-15.62 37.712s-23.569 15.621-37.713 15.621h-384z" />
<glyph unicode="&#xe938;" glyph-name="vuesax-linear-empty-wallet-converted" d="M535.885 890.547c-8.73-1.459-31.232-9.83-302.592-112.563-79.437-30.080-80.41-30.566-102.502-51.686-19.277-18.432-31.334-38.886-39.168-66.509-3.686-12.954-3.686-13.158-4.224-245.914-0.333-150.63 0.102-238.694 1.229-249.19 2.458-22.938 7.526-40.883 17.101-60.57 25.651-52.736 73.549-88.986 130.842-98.97 22.298-3.891 528.666-3.891 550.989 0 58.112 10.138 106.982 47.795 132.326 101.99 11.802 25.19 17.024 52.634 17.050 89.37l0.026 18.995 9.011 4.403c11.648 5.709 23.987 18.125 29.875 30.054l4.634 9.446v121.19l-4.634 9.446c-5.888 11.93-18.227 24.346-29.875 30.054l-9.011 4.403-0.026 24.115c-0.026 43.904-4.506 67.917-17.971 96.41-22.477 47.514-62.285 81.306-114.278 96.998-15.309 4.634-15.488 4.659-83.61 5.581l-68.275 0.922-0.922 82.79c-0.691 62.003-1.485 84.48-3.174 89.6-11.264 33.997-39.501 60.134-73.702 68.198-10.189 2.381-29.235 3.098-39.117 1.434zM579.738 846.387c13.952-6.758 22.477-15.411 29.338-29.747l4.48-9.395 0.486-79.744 0.512-79.744-379.878-0.922-15.36-4.736c-32.179-9.882-63.642-29.133-83.686-51.226l-9.626-10.598 0.717 34.125c0.64 30.208 1.152 35.379 4.634 44.979 7.962 22.093 26.189 43.75 46.797 55.629 8.448 4.864 353.792 135.45 363.648 137.498 11.597 2.432 24.627 0.333 37.939-6.118zM790.938 606.234c26.496-7.962 43.315-17.178 60.979-33.459 21.043-19.405 34.714-42.266 41.702-69.811 3.533-13.952 4.096-20.147 4.096-45.594v-29.466l-42.24-0.845c-46.976-0.947-52.403-1.894-73.779-12.698-14.899-7.552-33.69-25.293-42.291-39.91-31.539-53.581-11.546-120.141 44.493-148.173 22.349-11.162 29.286-12.416 74.138-13.363l39.68-0.819v-22.938c0-14.054-1.050-27.981-2.688-36.045-10.624-52.326-52.429-95.437-105.805-109.107-11.11-2.867-28.339-3.046-277.222-3.046h-265.395l-14.438 3.942c-28.621 7.834-57.344 26.394-75.085 48.538-10.112 12.646-22.554 36.966-26.854 52.48-2.867 10.342-3.072 22.502-3.072 179.2 0 187.52-0.691 176 12.032 202.931 19.533 41.344 56.602 70.4 101.453 79.539 8.96 1.818 62.054 2.202 275.635 1.971 248.218-0.282 265.139-0.486 274.662-3.328zM285.696 460.979c-4.762-4.762-5.811-7.091-5.811-12.979s1.050-8.218 5.811-12.979l5.811-5.786h312.986l5.811 5.786c4.762 4.762 5.811 7.091 5.811 12.979s-1.050 8.218-5.811 12.979l-5.811 5.786h-312.986l-5.811-5.786zM929.485 385.485c3.2-1.51 7.552-5.171 9.651-8.090 3.738-5.248 3.789-6.272 3.789-57.395 0-72.448 4.019-68.275-65.306-68.275-25.293 0-50.15 0.794-55.194 1.741-38.349 7.27-64.666 42.163-58.189 77.082 2.688 14.515 9.344 27.29 19.379 37.35 18.253 18.227 26.598 20.122 89.933 20.25 42.854 0.102 50.944-0.282 55.936-2.662z" />
<glyph unicode="&#xe939;" glyph-name="vuesax-linear-shield-tick-converted" d="M477.158 891.648c-17.92-2.79-29.082-6.323-78.182-24.755-196.019-73.574-190.413-71.194-213.453-90.317-23.091-19.174-44.954-53.094-54.451-84.531l-3.84-12.8-0.538-174.080c-0.589-189.568-0.538-190.822 9.011-220.16 10.778-33.075 32.563-69.837 54.272-91.571 16.512-16.512 203.904-156.442 223.718-167.040 16.589-8.883 34.79-15.386 55.629-19.866 21.299-4.582 68.403-4.198 89.6 0.717 22.17 5.12 43.264 13.235 58.445 22.426 7.296 4.403 57.395 41.062 111.386 81.434 104.576 78.285 112.358 84.966 130.483 112.358 17.664 26.726 30.771 57.83 35.891 85.094 2.33 12.442 2.611 36.838 2.202 194.176l-0.486 179.942-4.89 14.49c-15.565 46.182-49.715 86.221-87.398 102.502-25.446 10.982-232.269 87.142-243.072 89.498-15.104 3.302-68.966 4.89-84.326 2.483zM552.32 851.814c19.046-4.096 238.515-86.912 249.37-94.106 24.576-16.333 43.827-42.010 53.658-71.629l3.968-11.955v-356.685l-4.813-15.36c-10.061-32.128-27.878-62.95-47.565-82.278-15.539-15.258-202.624-154.47-217.293-161.69-45.542-22.4-105.549-22.912-151.526-1.28-18.278 8.602-206.49 148.301-222.566 165.197-21.581 22.707-37.709 52.506-47.002 86.886-3.635 13.466-3.686 15.923-4.301 176.64-0.435 109.133-0.026 168.192 1.203 178.765 3.123 26.982 15.053 52.173 34.534 73.011 19.507 20.864 22.733 22.374 144.998 68.454 113.971 42.957 122.496 45.875 140.467 48.435 14.49 2.074 52.352 0.691 66.867-2.406zM630.605 585.498c-2.816-1.28-43.494-40.806-90.419-87.808l-85.299-85.478-60.006 59.674h-7.859c-13.466 0-22.912-11.904-19.2-24.166 1.434-4.71 71.27-75.674 77.952-79.206 5.53-2.918 12.186-3.123 17.28-0.538 5.299 2.662 188.595 185.728 191.565 191.309 5.197 9.754 1.101 22.144-8.704 26.24-7.040 2.944-8.755 2.944-15.309-0.026z" />
<glyph unicode="&#xe93a;" glyph-name="Iconly-Light-Paper-converted" d="M465.92 860.928c-135.859-0.845-152.166-1.229-162.125-3.891-70.63-18.79-119.219-67.354-136.909-136.909l-3.891-15.283v-510.285l4.634-16.794c17.331-62.822 62.874-110.694 123.366-129.613 26.010-8.115 31.718-8.32 231.245-7.706 184.986 0.538 187.008 0.589 199.731 4.198 38.349 10.906 61.005 23.91 87.142 49.971 27.571 27.494 43.418 56.602 50.918 93.389 3.456 16.973 3.533 21.76 3.533 225.818 0 149.837-0.538 209.485-1.894 212.019-1.485 2.79-185.395 195.61-217.216 227.763-6.451 6.502-7.834 7.117-17.254 7.68-5.632 0.307-78.208 0.154-161.28-0.358zM599.040 762.291c0-55.706 0.307-62.362 3.43-74.65 12.442-48.819 50.432-85.274 99.328-95.283 10.394-2.15 24.755-2.714 68.685-2.714h55.552v-187.494c0-160.384-0.384-189.67-2.611-202.445-10.189-58.445-54.016-104.269-112.922-118.067-12.493-2.944-25.011-3.123-199.347-3.123h-186.035l-14.515 3.84c-50.56 13.466-88.909 49.715-103.859 98.125-6.963 22.656-7.322 37.248-6.682 283.725 0.589 216.192 0.87 236.416 3.558 246.4 7.629 28.211 18.458 48.026 36.685 67.098 23.808 24.934 52.378 39.757 84.685 43.981 5.709 0.742 69.683 1.459 142.208 1.562l131.84 0.23v-61.184zM719.667 719.718c44.902-46.72 83.149-86.733 85.018-88.909l3.43-3.968-48.64 0.691c-46.925 0.666-49.075 0.845-60.774 5.043-27.802 9.984-46.899 28.979-57.318 57.062-3.482 9.421-3.789 13.645-4.403 62.566-0.358 28.877-0.256 52.48 0.23 52.48 0.461 0 37.581-38.221 82.458-84.966zM369.357 480.64c-10.803-6.63-11.93-21.811-2.227-29.978l5.197-4.378h77.44c56.397 0 78.643 0.563 81.92 2.048 10.163 4.634 12.467 19.994 4.352 29.082l-4.992 5.581-78.208 0.435c-74.214 0.435-78.49 0.282-83.482-2.79zM366.541 318.438c-4.941-4.403-5.581-5.99-5.581-13.798s0.64-9.395 5.581-13.798l5.555-4.966h244.352l5.811 5.786c4.48 4.48 5.786 7.219 5.786 12.032 0 8.090-3.712 15.13-9.318 17.69-3.354 1.51-35.328 2.022-125.542 2.022h-121.088l-5.555-4.966z" />
<glyph unicode="&#xe93b;" glyph-name="receive-square" d="M127.518 832.482c58.725 58.724 146.033 80.58 256.486 80.58h256.001c110.454 0 197.76-21.856 256.486-80.58 58.721-58.725 80.579-146.033 80.579-256.486v-256.001c0-110.454-21.857-197.76-80.579-256.486-58.726-58.721-146.033-80.579-256.486-80.579h-256.001c-110.454 0-197.762 21.857-256.486 80.579-58.724 58.726-80.58 146.033-80.58 256.486v256.001c0 110.454 21.856 197.762 80.58 256.486zM181.823 778.177c-37.275-37.276-58.086-99.301-58.086-202.181v-256.001c0-102.876 20.811-164.905 58.086-202.179 37.276-37.279 99.301-58.086 202.181-58.086h256.001c102.876 0 164.905 20.808 202.179 58.086 37.279 37.274 58.086 99.302 58.086 202.179v256.001c0 102.879-20.808 164.905-58.086 202.181-37.274 37.275-99.302 58.086-202.179 58.086h-256.001c-102.879 0-164.905-20.811-202.181-58.086zM356.847 496.053c14.996 14.996 39.31 14.996 54.306 0l100.847-100.845 100.849 100.845c14.996 14.996 39.306 14.996 54.303 0s14.996-39.309 0-54.304l-128-128c-14.996-14.996-39.308-14.996-54.304 0l-128 128c-14.996 14.995-14.996 39.308 0 54.304zM512 720.637c21.207 0 38.4-17.192 38.4-38.4v-341.332c0-21.207-17.193-38.4-38.4-38.4s-38.4 17.193-38.4 38.4v341.332c0 21.208 17.192 38.4 38.4 38.4zM219.578 267.735c6.722 20.116 28.477 30.971 48.591 24.248 158.074-52.823 329.586-52.823 487.655 0 20.116 6.723 41.871-4.132 48.594-24.248 6.723-20.111-4.137-41.866-24.248-48.589-173.875-58.107-362.471-58.107-536.344 0-20.114 6.723-30.971 28.477-24.249 48.589z" />
<glyph unicode="&#xe93c;" glyph-name="arrow-5" d="M340.039 126.707c-12.497 12.497-12.497 32.755 0 45.252l276.038 276.041-276.038 276.039c-12.497 12.497-12.497 32.758 0 45.255s32.758 12.497 45.255 0l298.665-298.668c12.497-12.497 12.497-32.755 0-45.252l-298.665-298.667c-12.497-12.497-32.758-12.497-45.255 0z" />
<glyph unicode="&#xe93d;" glyph-name="arrow-3" d="M267.713 843.864c16.663 16.662 43.678 16.663 60.34 0.001l151.163-151.161c16.663-16.663 16.663-43.678 0.001-60.34s-43.677-16.663-60.34-0.001l-120.993 120.991-120.991-120.991c-16.662-16.662-43.678-16.662-60.34 0s-16.662 43.678 0 60.34l151.161 151.161zM297.889 856.361c23.564 0 42.667-19.102 42.667-42.667v-731.427c0-23.563-19.103-42.667-42.667-42.667s-42.667 19.103-42.667 42.667v731.427c0 23.565 19.102 42.667 42.667 42.667zM544.83 263.589c16.662 16.657 43.68 16.663 60.337 0l120.997-120.991 120.991 120.991c16.663 16.663 43.674 16.663 60.336 0s16.663-43.679 0-60.342l-151.159-151.159c-16.663-16.663-43.674-16.663-60.336 0l-151.165 151.159c-16.663 16.663-16.663 43.679-0.001 60.342zM726.164 856.361c23.569 0 42.667-19.102 42.667-42.667v-731.427c0-23.563-19.098-42.667-42.667-42.667-23.563 0-42.667 19.103-42.667 42.667v731.427c0 23.565 19.103 42.667 42.667 42.667z" />
<glyph unicode="&#xe93e;" glyph-name="refresh-2" d="M512.003 850.656c-223.91 0-402.667-180.339-402.667-402.666 0-13.254-10.745-24-24-24s-24 10.746-24 24c0 248.711 200.123 450.666 450.667 450.666 149.418 0 261.338-62.379 335.427-124.184 27.526-22.963 49.93-45.921 67.238-65.732v142.023c0 13.255 10.746 24 24 24s24-10.745 24-24v-213.332c0-13.254-10.746-24-24-24h-189.44c-13.254 0-24 10.746-24 24s10.746 23.999 24 23.999h142.506c-16.966 21.031-42 48.612-75.053 76.184-68.099 56.808-169.51 113.043-304.678 113.043zM938.669 471.99c13.254 0 24-10.746 24-24 0-248.774-201.891-450.669-450.666-450.669-126.096 0-226.444 63.475-294.098 124.838-24.505 22.227-45.005 44.422-61.209 63.728v-140.672c0-13.254-10.745-24-24-24s-24 10.746-24 24v213.334c0 13.254 10.745 24 24 24h192.853c13.254 0 24-10.746 24-24s-10.746-24-24-24h-146.47c16.487-21.219 40.442-49.053 71.075-76.838 63.119-57.248 152.423-112.39 261.85-112.39 222.266 0 402.666 180.403 402.666 402.669 0 13.254 10.746 24 24 24z" />
<glyph unicode="&#xe93f;" glyph-name="close-circle" d="M61.336 447.99c0 247.921 202.745 450.666 450.667 450.666 247.92 0 450.666-202.745 450.666-450.666 0-247.923-202.746-450.669-450.666-450.669-247.922 0-450.667 202.746-450.667 450.669zM512.003 850.656c-221.412 0-402.667-181.255-402.667-402.666s181.255-402.669 402.667-402.669c221.411 0 402.666 181.258 402.666 402.669s-181.254 402.666-402.666 402.666zM649.715 585.722c9.373-9.373 9.373-24.57 0-33.942l-241.494-241.494c-9.373-9.373-24.57-9.373-33.942 0s-9.373 24.57 0 33.942l241.494 241.494c9.373 9.373 24.57 9.373 33.942 0zM374.278 585.722c9.373 9.373 24.57 9.373 33.942 0l241.494-241.494c9.373-9.373 9.373-24.57 0-33.942s-24.57-9.373-33.942 0l-241.494 241.494c-9.373 9.373-9.373 24.57 0 33.942z" />
<glyph unicode="&#xe940;" glyph-name="lines2" horiz-adv-x="1117" d="M93.091 960c51.413 0 93.091-41.678 93.091-93.091v-837.818c0-51.414-41.678-93.091-93.091-93.091s-93.091 41.677-93.091 93.091v837.818c0 51.413 41.678 93.091 93.091 93.091zM558.545 960c51.414 0 93.091-41.678 93.091-93.091v-837.818c0-51.414-41.677-93.091-93.091-93.091s-93.091 41.677-93.091 93.091v837.818c0 51.413 41.677 93.091 93.091 93.091zM1024 960c51.414 0 93.091-41.678 93.091-93.091v-837.818c0-51.414-41.677-93.091-93.091-93.091s-93.091 41.677-93.091 93.091v837.818c0 51.413 41.677 93.091 93.091 93.091z" />
<glyph unicode="&#xe941;" glyph-name="bitcoin-convert" d="M981.333 310.626c17.673 0 32-14.327 32-32 0-182.793-147.874-330.667-330.667-330.667-11.529 0-22.165 6.199-27.844 16.23-5.683 10.035-5.525 22.345 0.405 32.23l44.8 74.667c9.092 15.155 28.749 20.070 43.904 10.978s20.066-28.749 10.974-43.904l-11.575-19.294c118.148 27.409 206.003 133.184 206.003 259.759 0 17.673 14.327 32 32 32zM280.67 879.716c-118.148-27.411-206.003-133.184-206.003-259.758 0-17.673-14.327-32-32-32s-32 14.327-32 32c0 182.793 147.874 330.667 330.667 330.667 11.529 0 22.166-6.201 27.846-16.234s5.525-22.344-0.407-32.23l-44.8-74.667c-9.093-15.154-28.749-20.069-43.904-10.976s-20.069 28.749-10.976 43.904l11.576 19.293zM250.438 402.334c0 17.673 14.327 32 32 32h119.893c45.025 0 80.212-39.134 80.212-80.213 0-43.942-35.473-80.213-80.212-80.213h-119.893c-17.673 0-32 14.327-32 32v96.427zM314.438 370.334v-32.427h87.893c9.023 0 16.213 7.249 16.213 16.213 0 7.561-8.332 16.213-16.213 16.213h-87.893zM250.438 305.916c0 17.673 14.327 32 32 32h137.387c43.698 0 87.039-31.671 87.039-80.213 0-47.94-43.145-80.213-87.039-80.213h-137.387c-17.673 0-32 14.327-32 32v96.427zM314.438 273.916v-32.427h105.387c7.525 0 13.75 2.709 17.782 6.246 3.989 3.499 5.257 7.142 5.257 9.967 0 3.132-1.34 6.716-5.184 10.065-3.942 3.435-10.159 6.148-17.855 6.148h-105.387zM359.229 241.916c17.673 0 32-14.327 32-32v-47.787c0-17.673-14.327-32-32-32s-32 14.327-32 32v47.787c0 17.673 14.327 32 32 32zM359.229 482.125c17.673 0 32-14.327 32-32v-47.787c0-17.673-14.327-32-32-32s-32 14.327-32 32v47.787c0 17.673 14.327 32 32 32zM370.337 537.167c-127.82 0-231.253-103.434-231.253-231.255s103.433-231.253 231.253-231.253c127.822 0 231.255 103.433 231.255 231.253 0 3.046-0.090 5.982-0.196 9.314l-0.017 0.465c-0.085 2.709-0.188 5.79-0.209 8.964-9.118 112.909-99.486 203.021-212.513 211.729-0.628 0.037-1.241 0.073-1.839 0.109-6.537 0.387-11.356 0.673-16.48 0.673zM75.084 305.911c0 163.166 132.087 295.255 295.253 295.255 7.142 0 13.9-0.404 20.151-0.778 0.743-0.044 1.479-0.089 2.208-0.131l0.543-0.032v-0.005c145.044-11.010 260.824-126.791 271.832-271.832 0.060-0.806 0.094-1.613 0.094-2.423 0-2.577 0.085-5.227 0.196-8.644v-0.030c0.107-3.281 0.23-7.172 0.23-11.379 0-163.166-132.087-295.253-295.255-295.253s-295.253 132.087-295.253 295.253zM422.923 597.313c121.149-21.675 216.701-117.228 238.376-238.375 124.467 3.814 224.021 105.741 224.021 231.143 0 127.82-103.433 231.252-231.253 231.252-125.402 0-227.328-99.554-231.144-224.020zM358.813 590.081c0 163.166 132.089 295.252 295.255 295.252s295.253-132.086 295.253-295.252c0-163.167-132.087-295.254-295.253-295.254h-20.907c-16.734 0-30.643 12.89-31.91 29.577-8.614 113.519-99.341 204.245-212.86 212.863-16.686 1.266-29.578 15.174-29.578 31.908v20.906z" />
<glyph unicode="&#xe942;" glyph-name="Notification" d="M194.938 621.009c0 137.004 127.477 285.658 317.062 285.658s317.065-148.654 317.065-285.658c0-35.148 4.471-59.759 10.577-78.685 6.127-18.987 14.289-33.575 23.693-49.315 0.964-1.613 1.95-3.251 2.957-4.924 8.58-14.255 18.539-30.805 26.142-50.697 8.768-22.942 14.234-49.557 14.234-84.13 0-0.922-0.038-1.847-0.119-2.765-3.102-35.75-13.722-67.119-33.929-93.257-20.122-26.022-47.91-44.489-81.421-57.613-65.472-25.643-159.006-33.122-279.198-33.122-120.136 0-213.667 7.36-279.142 32.934-33.519 13.094-61.325 31.552-81.458 57.613-20.217 26.172-30.837 57.6-33.947 93.44-0.080 0.922-0.12 1.843-0.12 2.769 0 34.573 5.466 61.188 14.234 84.13 7.602 19.891 17.563 36.442 26.143 50.701 1.006 1.668 1.993 3.311 2.954 4.919 9.405 15.74 17.568 30.327 23.693 49.315 6.106 18.926 10.58 43.537 10.58 78.685zM512 842.667c-155.607 0-253.062-121.353-253.062-221.658 0-40.805-5.227-72.163-13.672-98.338-8.425-26.112-19.663-45.756-29.66-62.485-0.989-1.655-1.957-3.268-2.903-4.847-8.852-14.763-15.88-26.479-21.352-40.798-5.684-14.874-9.871-33.306-10.013-59.878 2.418-25.634 9.698-44.233 20.71-58.487 11.291-14.613 28.371-27.072 54.099-37.124 53.020-20.71 135.426-28.548 255.854-28.548 120.418 0 202.842 7.949 255.859 28.715 25.741 10.078 42.833 22.558 54.123 37.167 11.012 14.242 18.274 32.781 20.681 58.278-0.141 26.573-4.331 45.005-10.014 59.878-5.47 14.319-12.501 26.035-21.35 40.798-0.947 1.579-1.916 3.191-2.906 4.847-9.997 16.73-21.235 36.373-29.658 62.485-8.444 26.175-13.67 57.533-13.67 98.338 0 100.305-97.455 221.658-253.065 221.658zM384.779 93.884c13.146 11.814 33.378 10.735 45.19-2.415 45.922-51.106 114.56-50.624 160.179 0.030 11.827 13.133 32.060 14.191 45.193 2.364s14.191-32.060 2.364-45.193c-70.793-78.605-183.744-79.654-255.34 0.026-11.812 13.146-10.731 33.378 2.415 45.188z" />
<glyph unicode="&#xe943;" glyph-name="more" d="M501.632 830.037c-32.384-3.243-60.715-27.648-70.955-61.013-1.28-4.139-2.304-14.208-2.304-22.357 0-24.747 6.869-41.216 24.661-58.965 17.749-17.792 34.219-24.661 58.965-24.661s41.216 6.869 58.965 24.661c17.877 17.835 24.661 34.219 24.661 59.307 0 23.424-6.357 39.637-22.144 56.619-19.072 20.523-43.051 29.355-71.851 26.411zM501.632 531.371c-32.384-3.243-60.715-27.648-70.955-61.013-1.28-4.139-2.304-14.208-2.304-22.357 0-24.747 6.869-41.216 24.661-58.965 17.749-17.792 34.219-24.661 58.965-24.661s41.216 6.869 58.965 24.661c17.877 17.835 24.661 34.219 24.661 59.307 0 23.424-6.357 39.637-22.144 56.619-19.072 20.523-43.051 29.355-71.851 26.411zM501.632 232.704c-32.384-3.243-60.715-27.648-70.955-61.013-1.28-4.139-2.304-14.208-2.304-22.357 0-24.747 6.869-41.216 24.661-58.965 17.749-17.792 34.219-24.661 58.965-24.661s41.216 6.869 58.965 24.661c17.877 17.835 24.661 34.219 24.661 59.307 0 23.424-6.357 39.637-22.144 56.619-19.072 20.523-43.051 29.355-71.851 26.411z" />
<glyph unicode="&#xe944;" glyph-name="Iconly-Light-Delete-converted" d="M420.693 872.96c-14.421-2.005-28.117-7.552-39.723-16.085-22.059-16.213-28.885-29.525-38.016-74.155-7.125-34.773-8.747-39.424-16.384-46.507-12.032-11.179-8.96-10.795-97.024-11.733-56.491-0.597-81.237-1.451-83.627-2.859-4.352-2.517-11.819-10.539-14.293-15.36-2.688-5.248-2.389-20.309 0.469-25.813 3.243-6.187 11.051-13.355 16.939-15.573 3.328-1.28 117.163-1.835 373.76-1.792h368.939l6.784 3.84c20.864 11.819 21.333 41.173 0.896 53.205-5.717 3.371-9.173 3.541-85.376 4.352l-79.403 0.853-8.491 4.352c-14.123 7.211-18.048 14.891-24.704 48.768-3.115 15.829-7.083 32.981-8.832 38.059-8.576 25.301-30.848 45.995-58.581 54.443-7.125 2.176-24.363 2.645-105.813 2.987-53.504 0.213-101.888-0.213-107.52-0.981zM622.080 809.045c9.003-3.755 11.947-10.539 18.005-41.643 3.029-15.616 6.528-31.403 7.808-35.029s2.347-6.912 2.347-7.253c0-0.341-57.941-0.64-128.768-0.64h-128.725l2.432 7.253c1.365 4.011 5.12 20.48 8.363 36.651s7.125 31.275 8.619 33.536c6.315 9.6 5.376 9.515 108.843 9.557 79.061 0.043 96.213-0.384 101.077-2.432zM212.48 586.368c-7.509-1.835-11.904-4.523-16.853-10.411-8.533-10.155-8.619-12.416-2.816-81.877 18.56-222.635 30.933-350.677 35.925-371.925 10.923-46.421 44.331-81.621 88.533-93.269 19.413-5.12 45.44-5.888 204.971-5.888 160.896 0 183.253 0.64 203.947 6.059 34.773 9.088 65.877 35.627 80.555 68.779 9.984 22.571 12.16 38.144 25.216 181.205 10.837 119.168 23.083 265.387 23.083 276.309 0 12.032-5.504 21.76-15.573 27.392-8.149 4.608-20.267 5.376-27.264 1.792-6.741-3.499-15.019-12.203-16.811-17.792-0.939-2.901-4.437-37.888-7.765-77.781-16.725-200.533-30.037-339.883-33.877-354.133-7.083-26.283-22.784-41.131-49.749-47.147-15.019-3.328-350.208-3.285-365.227 0.043-27.605 6.144-44.245 22.955-50.048 50.603-3.584 16.981-20.395 197.291-32.64 349.781-5.76 71.893-6.869 79.317-12.843 87.125-6.613 8.704-20.395 13.696-30.763 11.136z" />
</font>
</defs>
</svg>
