<?xml version="1.0" standalone="no"?>
<!DOCTYPE svg PUBLIC "-//W3C//DTD SVG 1.1//EN" "http://www.w3.org/Graphics/SVG/1.1/DTD/svg11.dtd" >
<svg xmlns="http://www.w3.org/2000/svg" xmlns:xlink="http://www.w3.org/1999/xlink" version="1.1">
<metadata>
Created by FontForge 20170731 at Fri Feb 19 10:29:03 2016
 By Aleksey,,,
(c) 1999-2015 Typodermic Fonts Inc.
</metadata>
<defs>
<font id="NasalizationRg-Regular" horiz-adv-x="784" >
  <font-face 
    font-family="Nasalization Rg"
    font-weight="400"
    font-stretch="normal"
    units-per-em="1000"
    panose-1="2 11 6 4 2 2 2 2 2 4"
    ascent="800"
    descent="-200"
    x-height="528"
    cap-height="675"
    bbox="-587 -264 1425 1249"
    underline-thickness="10"
    underline-position="-80"
    unicode-range="U+0017-E409"
  />
<missing-glyph horiz-adv-x="726" 
d="M707 767v-1030h-687v1030h687zM120 459h299q43 0 43 -35q0 -17 -10.5 -27.5t-32.5 -10.5h-55q-74 0 -102.5 -34.5t-28.5 -100.5v-85h138v48q0 13 8 22.5t29 9.5h45q45 0 77.5 14.5t53 40t30.5 59.5t10 72q0 41 -11.5 74.5t-36 57.5t-63.5 37.5t-93 13.5h-300v-156z
M214 -98h177v168h-177v-168z" />
    <glyph glyph-name=".notdef" horiz-adv-x="726" 
d="M707 767v-1030h-687v1030h687zM120 459h299q43 0 43 -35q0 -17 -10.5 -27.5t-32.5 -10.5h-55q-74 0 -102.5 -34.5t-28.5 -100.5v-85h138v48q0 13 8 22.5t29 9.5h45q45 0 77.5 14.5t53 40t30.5 59.5t10 72q0 41 -11.5 74.5t-36 57.5t-63.5 37.5t-93 13.5h-300v-156z
M214 -98h177v168h-177v-168z" />
    <glyph glyph-name=".null" horiz-adv-x="0" 
 />
    <glyph glyph-name="nonmarkingreturn" horiz-adv-x="267" 
 />
    <glyph glyph-name="uni0017" horiz-adv-x="267" 
 />
    <glyph glyph-name="space" unicode=" " horiz-adv-x="267" 
 />
    <glyph glyph-name="exclam" unicode="!" horiz-adv-x="234" 
d="M180 694l-16 -456h-91l-17 456h124zM175 136v-136h-114v136h114z" />
    <glyph glyph-name="quotedbl" unicode="&#x22;" horiz-adv-x="382" 
d="M46 458zM335 757l-13 -299h-75l-14 299h102zM148 757l-13 -299h-75l-14 299h102z" />
    <glyph glyph-name="numbersign" unicode="#" horiz-adv-x="623" 
d="M228 675v-173h166v173h73v-173h113v-73h-113v-185h113v-73h-113v-171h-73v171h-166v-171h-73v171h-113v73h113v185h-113v73h113v173h73zM228 244h166v185h-166v-185z" />
    <glyph glyph-name="dollar" unicode="$" horiz-adv-x="620" 
d="M290 593v141h72v-141h170v-102h-292q-37 0 -53 -16.5t-16 -42.5t15.5 -43.5t59.5 -17.5h124q55 0 90.5 -11.5t56 -31t28.5 -46t8 -56.5q0 -36 -9.5 -65.5t-30.5 -50.5t-54 -33t-79 -12h-18v-124h-72v124h-217v103h307q38 0 53.5 16.5t15.5 42.5q0 25 -15 43t-60 18h-125
q-55 0 -90 12t-55.5 33t-28.5 48.5t-8 58.5q0 70 40 111.5t132 41.5h51z" />
    <glyph glyph-name="percent" unicode="%" horiz-adv-x="845" 
d="M29 0zM725 675l-528 -675h-81l530 675h79zM648 376q81 0 124.5 -48t43.5 -143q0 -94 -43.5 -142.5t-124.5 -48.5q-82 0 -124.5 48.5t-42.5 142.5q0 95 43 143t124 48zM648 308q-54 0 -77 -29.5t-23 -92.5t23 -93t77 -30q53 0 76.5 30t23.5 93t-23.5 92.5t-76.5 29.5z
M196 680q81 0 124.5 -48t43.5 -143q0 -94 -43.5 -142.5t-124.5 -48.5q-82 0 -124.5 48.5t-42.5 142.5q0 95 43 143t124 48zM196 612q-54 0 -77 -29.5t-23 -92.5t23 -93t77 -30q53 0 76.5 30t23.5 93t-23.5 92.5t-76.5 29.5z" />
    <glyph glyph-name="ampersand" unicode="&#x26;" horiz-adv-x="765" 
d="M421 757q43 0 74.5 -13.5t52.5 -37t31 -54.5t10 -66q0 -57 -29 -97.5t-98 -74.5l-62 -31l119 -137l88 118h125l-146 -194l149 -170h-135l-78 89q-26 -29 -48.5 -46.5t-44.5 -27t-45 -12.5t-49 -3h-114q-36 0 -68.5 11t-57 34t-38.5 58.5t-14 84.5q0 33 8 59.5t28 49.5
t54 45.5t87 46.5l28 13l-35 41q-26 29 -41.5 63.5t-15.5 79.5q0 35 11 66t33 54.5t53.5 37t73.5 13.5h94zM336 103q34 0 61 12.5t59 49.5l-151 172l-32 -16q-35 -18 -58 -31.5t-36.5 -27t-18.5 -27.5t-5 -32q0 -45 23.5 -72.5t65.5 -27.5h92zM270 575q0 -27 10 -46.5
t30 -41.5l34 -39l62 30q38 18 57.5 39.5t19.5 57.5q0 33 -17 57.5t-59 24.5h-60q-41 0 -59 -23.5t-18 -58.5z" />
    <glyph glyph-name="quotesingle" unicode="'" horiz-adv-x="194" 
d="M148 757l-13 -299h-75l-14 299h102z" />
    <glyph glyph-name="parenleft" unicode="(" horiz-adv-x="394" 
d="M366 895v-73h-15q-55 0 -92.5 -13.5t-61 -45t-33.5 -84t-10 -129.5v-469q0 -77 10 -129.5t33.5 -84t61 -45t92.5 -13.5h15v-73h-15q-75 0 -126.5 20t-83.5 63t-46 110t-14 161v451q0 94 14 161t46 110t83.5 63t126.5 20h15z" />
    <glyph glyph-name="parenright" unicode=")" horiz-adv-x="394" 
d="M28 -264v73h15q55 0 92.5 13.5t61 45t33.5 84t10 129.5v469q0 77 -10 129.5t-33.5 84t-61 45t-92.5 13.5h-15v73h15q75 0 126.5 -20t83.5 -63t46 -110t14 -161v-451q0 -94 -14 -161t-46 -110t-83.5 -63t-126.5 -20h-15z" />
    <glyph glyph-name="asterisk" unicode="*" horiz-adv-x="558" 
d="M253 553l-9 204h69l-9 -204l173 110l34 -60l-181 -94l182 -94l-35 -59l-172 109l9 -204h-68l9 204l-173 -111l-35 60l181 95l-182 93l35 60z" />
    <glyph glyph-name="plus" unicode="+" horiz-adv-x="619" 
d="M346 607v-234h232v-73h-232v-231h-74v231h-232v73h232v234h74z" />
    <glyph glyph-name="comma" unicode="," horiz-adv-x="257" 
d="M193 136v-162q0 -142 -130 -142h-35v87h12q39 0 39 43v174h114z" />
    <glyph glyph-name="hyphen" unicode="-" horiz-adv-x="415" 
d="M386 368v-102h-357v102h357z" />
    <glyph glyph-name="period" unicode="." horiz-adv-x="242" 
d="M178 136v-136h-114v136h114z" />
    <glyph glyph-name="slash" unicode="/" horiz-adv-x="455" 
d="M444 757l-330 -969h-103l331 969h102z" />
    <glyph glyph-name="zero" unicode="0" horiz-adv-x="748" 
d="M362 685q148 0 226.5 -88.5t78.5 -259.5t-78 -259t-227 -88t-227 88t-78 259t78.5 259.5t226.5 88.5zM362 567q-100 0 -144.5 -56.5t-44.5 -172.5q0 -117 44.5 -173.5t144.5 -56.5t144 56.5t44 173.5q0 116 -44.5 172.5t-143.5 56.5z" />
    <glyph glyph-name="one" unicode="1" horiz-adv-x="337" 
d="M100 675q46 0 76.5 -8.5t48.5 -28t25 -50t7 -74.5v-514h-118v506q0 27 -11 39t-38 12h-61v118h71z" />
    <glyph glyph-name="two" unicode="2" horiz-adv-x="734" 
d="M476 675q98 0 150.5 -48.5t52.5 -142.5q0 -75 -37.5 -118.5t-119.5 -62.5l-281 -63q-35 -8 -45.5 -26.5t-10.5 -47.5v-34q0 -14 13 -14h463v-118h-538q-56 0 -56 55v102q0 41 7 73t24 55.5t45.5 39.5t71.5 26l284 65q36 8 49.5 25t13.5 41q0 34 -21 54.5t-62 20.5h-390
v118h387z" />
    <glyph glyph-name="three" unicode="3" horiz-adv-x="681" 
d="M397 675q60 0 102.5 -13.5t70 -38t40.5 -57.5t13 -72q0 -60 -24.5 -97.5t-71.5 -57.5q48 -20 73 -58.5t25 -99.5q0 -38 -13 -71t-40 -57.5t-69.5 -38.5t-102.5 -14h-341v118h341q52 0 77 22.5t25 63.5q0 81 -103 81h-208v107h205q52 0 77.5 19.5t25.5 61.5q0 38 -24 61
t-78 23h-337v118h337z" />
    <glyph glyph-name="four" unicode="4" horiz-adv-x="704" 
d="M270 599q16 19 31 33t33 23.5t40.5 14.5t52.5 5h75q66 0 94 -31.5t28 -91.5v-552h-119v140h-316q-86 0 -121 30t-35 87q0 38 11.5 62t30.5 47zM177 309q-12 -14 -12 -31q0 -16 10.5 -24.5t34.5 -8.5h295v279q0 33 -30 33h-53q-23 0 -35 -6t-26 -23z" />
    <glyph glyph-name="five" unicode="5" horiz-adv-x="685" 
d="M598 675v-118h-391q-13 0 -13 -12v-123q0 -12 13 -12h200q68 0 112.5 -16t70 -43t35.5 -63t10 -76q0 -46 -12 -85t-38 -67t-67 -44t-99 -16h-340v118h344q51 0 72.5 26t21.5 70q0 40 -22.5 64.5t-81.5 24.5h-281q-56 0 -56 55v262q0 55 56 55h466z" />
    <glyph glyph-name="six" unicode="6" horiz-adv-x="713" 
d="M621 675v-118h-259q-85 0 -129 -37.5t-55 -121.5h283q104 0 151.5 -44.5t47.5 -138.5q0 -45 -11.5 -84.5t-37 -68.5t-65.5 -45.5t-96 -16.5h-115q-64 0 -115.5 21t-87.5 63t-55.5 105t-19.5 148q0 171 78.5 254.5t226.5 83.5h259zM176 303q6 -98 48.5 -141.5t126.5 -43.5
h94q51 0 75 27t24 71q0 45 -24.5 66t-70.5 21h-273z" />
    <glyph glyph-name="seven" unicode="7" horiz-adv-x="651" 
d="M452 675q47 0 78.5 -12.5t50 -32t26.5 -44t8 -49.5q0 -34 -13.5 -68t-42.5 -75l-290 -394h-148l348 471q17 23 17 44q0 16 -10 29t-38 13h-409v118h423z" />
    <glyph glyph-name="eight" unicode="8" horiz-adv-x="726" 
d="M442 675q60 0 102.5 -13.5t70 -38t40.5 -58.5t13 -75q0 -58 -24.5 -95t-71.5 -56q48 -20 73.5 -57t25.5 -96q0 -41 -13 -75t-40.5 -58.5t-70 -38.5t-102.5 -14h-165q-60 0 -102.5 14t-69.5 38.5t-40 58.5t-13 75q0 59 25 96t73 57q-47 19 -71.5 56t-24.5 95q0 41 13 75
t40.5 58.5t70 38t102.5 13.5h159zM448 117q54 0 79 22.5t25 64.5q0 84 -104 84h-171q-104 0 -104 -84q0 -42 25.5 -64.5t78.5 -22.5h171zM445 390q104 0 104 82q0 39 -24.5 63t-78.5 24h-166q-54 0 -79 -24t-25 -63q0 -82 105 -82h164z" />
    <glyph glyph-name="nine" unicode="9" horiz-adv-x="713" 
d="M390 675q59 0 108 -18.5t84 -58t54.5 -101.5t19.5 -149q0 -177 -79 -262.5t-226 -85.5h-222v118h222q81 0 126 37t57 122h-283q-103 0 -150.5 44.5t-47.5 138.5q0 45 12 84.5t38.5 68.5t69 45.5t104.5 16.5h113zM168 459q0 -45 24.5 -66t70.5 -21h274q-5 97 -47.5 141
t-127.5 44h-94q-51 0 -75.5 -27t-24.5 -71z" />
    <glyph glyph-name="colon" unicode=":" horiz-adv-x="272" 
d="M79 0zM193 514v-136h-114v136h114zM193 136v-136h-114v136h114z" />
    <glyph glyph-name="semicolon" unicode=";" horiz-adv-x="272" 
d="M28 0zM193 136v-162q0 -142 -130 -142h-35v87h12q39 0 39 43v174h114zM193 514v-136h-114v136h114z" />
    <glyph glyph-name="less" unicode="&#x3c;" horiz-adv-x="619" 
d="M578 605v-79l-462 -179q-6 -4 -6 -11q0 -9 6 -11l462 -179v-78l-494 194q-24 9 -34 27t-10 47t10 46.5t34 27.5z" />
    <glyph glyph-name="equal" unicode="=" horiz-adv-x="619" 
d="M578 244v-73h-538v73h538zM578 502v-73h-538v73h538z" />
    <glyph glyph-name="greater" unicode="&#x3e;" horiz-adv-x="619" 
d="M41 67v79l462 179q6 4 6 11q0 9 -6 11l-462 179v78l494 -194q24 -9 34 -27t10 -47t-10 -46.5t-34 -27.5z" />
    <glyph glyph-name="question" unicode="?" horiz-adv-x="569" 
d="M339 694q52 0 89 -12.5t60 -35.5t34 -55t11 -71q0 -36 -9.5 -68.5t-29.5 -57t-50.5 -38.5t-73.5 -14h-58q-26 0 -37 -12.5t-11 -34.5v-57h-91v79q0 58 25.5 88t86.5 30h65q41 0 59.5 22.5t18.5 57.5t-21 56t-68 21h-310v102h310zM276 136v-136h-114v136h114z" />
    <glyph glyph-name="at" unicode="@" horiz-adv-x="766" 
d="M520 607q87 0 128 -44t41 -138v-255q0 -95 -41.5 -135.5t-122.5 -40.5h-98q-81 0 -122.5 40.5t-41.5 135.5v37q0 97 41.5 136.5t122.5 39.5h179v37q0 54 -22 78t-72 24h-249q-50 0 -77 -29.5t-27 -93.5v-403q0 -64 27 -93.5t77 -29.5h422v-85h-422q-88 0 -137 51.5
t-49 157.5v401q0 106 49 157.5t137 51.5h257zM525 79q40 0 60.5 20.5t20.5 70.5v128h-179q-40 0 -60.5 -20t-20.5 -71v-37q0 -50 20.5 -70.5t60.5 -20.5h98z" />
    <glyph glyph-name="A" unicode="A" 
d="M149 0h-130l237 600q19 48 53.5 67.5t88.5 19.5q53 0 87.5 -19.5t52.5 -67.5l228 -600h-131l-205 543q-9 23 -33 23t-34 -23z" />
    <glyph glyph-name="B" unicode="B" horiz-adv-x="719" 
d="M435 675q60 0 102.5 -13.5t70 -38t40.5 -58.5t13 -75q0 -59 -24.5 -95t-72.5 -55q48 -20 74 -57.5t26 -96.5q0 -41 -13 -75t-40.5 -58.5t-70 -38.5t-102.5 -14h-300q-56 0 -56 55v565q0 55 56 55h297zM198 128q0 -11 13 -11h230q54 0 79 23t25 65q0 87 -104 87h-243v-164
zM198 390h240q104 0 104 81q0 40 -24.5 64t-78.5 24h-228q-13 0 -13 -12v-157z" />
    <glyph glyph-name="C" unicode="C" horiz-adv-x="682" 
d="M623 675v-118h-261q-98 0 -142.5 -51.5t-44.5 -168.5q0 -116 44 -167.5t143 -51.5h261v-118h-261q-148 0 -226.5 83.5t-78.5 253.5q0 171 78.5 254.5t226.5 83.5h261z" />
    <glyph glyph-name="D" unicode="D" horiz-adv-x="737" 
d="M376 675q149 0 226.5 -83t77.5 -255q0 -171 -77.5 -254t-226.5 -83h-238q-56 0 -56 55v565q0 55 56 55h238zM200 130q0 -12 13 -12h163q98 0 142 52t44 168t-43.5 167.5t-142.5 51.5h-163q-13 0 -13 -12v-415z" />
    <glyph glyph-name="E" unicode="E" horiz-adv-x="693" 
d="M621 675v-118h-338q-54 0 -78 -23t-24 -62q0 -80 103 -80h332v-107h-335q-103 0 -103 -82q0 -40 25 -62.5t77 -22.5h342v-118h-342q-60 0 -102.5 14t-70 38.5t-40 58.5t-12.5 73q0 58 25 96.5t72 58.5q-95 39 -95 152q0 40 13 74t40.5 58.5t70 38t102.5 13.5h338z" />
    <glyph glyph-name="F" unicode="F" horiz-adv-x="663" 
d="M605 675v-118h-272q-40 0 -67 -9t-43 -24.5t-22.5 -36t-6.5 -44.5v-64h407v-112h-407v-267h-118v442q0 51 13.5 93.5t43.5 73.5t77.5 48.5t114.5 17.5h280z" />
    <glyph glyph-name="G" unicode="G" horiz-adv-x="729" 
d="M640 675v-118h-278q-98 0 -142.5 -51.5t-44.5 -168.5q0 -116 44 -167.5t143 -51.5h112q50 0 72 26.5t22 68.5q0 41 -20.5 63.5t-62.5 22.5h-150v103h162q91 0 135 -51.5t44 -139.5q0 -44 -11.5 -82.5t-37 -67t-65 -45t-96.5 -16.5h-104q-148 0 -226.5 83.5t-78.5 253.5
q0 171 78.5 254.5t226.5 83.5h278z" />
    <glyph glyph-name="H" unicode="H" horiz-adv-x="745" 
d="M200 675v-275h345v275h119v-675h-119v282h-345v-282h-118v675h118z" />
    <glyph glyph-name="I" unicode="I" horiz-adv-x="281" 
d="M200 675v-675h-118v675h118z" />
    <glyph glyph-name="J" unicode="J" horiz-adv-x="583" 
d="M508 675v-442q0 -51 -14 -93.5t-44 -73.5t-77.5 -48.5t-114.5 -17.5h-229v118h222q40 0 66.5 9t42.5 24.5t22.5 37t6.5 45.5v441h119z" />
    <glyph glyph-name="K" unicode="K" horiz-adv-x="708" 
d="M200 675v-286h65q43 0 70.5 2.5t45.5 11.5t30.5 25.5t26.5 44.5l103 202h127l-106 -210q-23 -45 -49 -75t-68 -48q24 -6 42 -16.5t33.5 -26t29.5 -37t29 -50.5l109 -212h-132l-103 200q-14 27 -27 43t-33 25t-50 11.5t-78 2.5h-65v-282h-118v675h118z" />
    <glyph glyph-name="L" unicode="L" horiz-adv-x="622" 
d="M193 675v-441q0 -24 6.5 -45.5t22.5 -37t42.5 -24.5t66.5 -9h262v-118h-269q-67 0 -114.5 17.5t-77.5 48.5t-43.5 73.5t-13.5 93.5v442h118z" />
    <glyph glyph-name="M" unicode="M" horiz-adv-x="1102" 
d="M198 0h-117v536q0 68 40 109.5t122 41.5q72 0 114 -34.5t56 -98.5l95 -413q9 -38 45 -38q35 0 45 38l95 413q14 64 53.5 98.5t112.5 34.5q82 0 122 -41.5t40 -109.5v-536h-117v530q0 20 -12.5 31.5t-35.5 11.5q-21 0 -32 -9.5t-15 -26.5l-97 -413q-16 -67 -53 -101.5
t-107 -34.5q-71 0 -109.5 35t-53.5 101l-96 413q-4 17 -15.5 26.5t-31.5 9.5q-23 0 -35.5 -11.5t-12.5 -31.5v-530z" />
    <glyph glyph-name="N" unicode="N" horiz-adv-x="879" 
d="M199 0h-118v540q0 66 38 106.5t117 40.5q70 0 106.5 -33.5t57.5 -91.5l197 -431q6 -12 16 -20t27 -8q19 0 29.5 10.5t10.5 27.5v534h119v-539q0 -67 -38.5 -107.5t-116.5 -40.5q-35 0 -61.5 8.5t-46 25t-33.5 39.5t-24 52l-197 431q-13 29 -42 29q-20 0 -30.5 -10.5
t-10.5 -28.5v-534z" />
    <glyph glyph-name="O" unicode="O" horiz-adv-x="816" 
d="M454 675q148 0 226.5 -84t78.5 -255q0 -170 -78.5 -253t-226.5 -83h-92q-148 0 -226.5 83t-78.5 253q0 171 78.5 255t226.5 84h92zM362 557q-98 0 -142.5 -52t-44.5 -169q0 -116 44 -167t143 -51h92q97 0 141.5 51.5t44.5 167.5t-44 168t-142 52h-92z" />
    <glyph glyph-name="P" unicode="P" horiz-adv-x="679" 
d="M426 675q57 0 98 -16.5t67.5 -44t39 -64.5t12.5 -77q0 -38 -11.5 -76t-37.5 -68t-67.5 -49t-100.5 -19h-210q-17 0 -17 -17v-244h-118v267q0 57 25 82t81 25h243q25 0 43 8t29 21t16.5 29.5t5.5 34.5q0 37 -22.5 63.5t-70.5 26.5h-351v118h346z" />
    <glyph glyph-name="Q" unicode="Q" horiz-adv-x="816" 
d="M454 675q148 0 226.5 -83.5t78.5 -254.5q0 -121 -39.5 -197.5t-115.5 -111.5l64 -134h-119l-52 108q-11 -2 -21.5 -2h-21.5h-92q-148 0 -226.5 83.5t-78.5 253.5q0 171 78.5 254.5t226.5 83.5h92zM493 261l59 -125q46 22 67 71t21 130q0 116 -44 168t-142 52h-92
q-98 0 -142.5 -52t-44.5 -168t44 -167.5t143 -51.5h80l-68 143h119z" />
    <glyph glyph-name="R" unicode="R" horiz-adv-x="714" 
d="M446 675q57 0 98 -16.5t67.5 -44t39 -64.5t12.5 -77q0 -32 -8 -63.5t-25 -59t-44 -48.5t-66 -32l157 -270h-131l-154 261h-176q-17 0 -17 -17v-244h-118v267q0 57 25 82t81 25h263q25 0 43 8t29 21t16.5 30t5.5 35q0 36 -22.5 62.5t-71.5 26.5h-370v118h366z" />
    <glyph glyph-name="S" unicode="S" horiz-adv-x="703" 
d="M603 675v-118h-346q-46 0 -67 -22.5t-21 -57.5q0 -15 4.5 -29.5t16 -26t30.5 -18t49 -6.5h158q69 0 113 -17.5t69.5 -45.5t35 -64t9.5 -72q0 -43 -12 -79t-38 -62.5t-66.5 -41.5t-98.5 -15h-376v118h380q48 0 70.5 23.5t22.5 60.5q0 16 -5 31.5t-17 27t-32.5 18.5
t-51.5 7h-157q-68 0 -111 17t-67.5 45t-34 63t-9.5 70q0 42 11.5 77.5t37 61.5t65.5 40.5t96 14.5h342z" />
    <glyph glyph-name="T" unicode="T" horiz-adv-x="571" 
d="M542 675v-118h-197v-557h-119v557h-197v118h513z" />
    <glyph glyph-name="U" unicode="U" horiz-adv-x="732" 
d="M197 675v-451q0 -51 26.5 -78.5t85.5 -27.5h120q57 0 84 27.5t27 78.5v451h116v-460q0 -107 -55 -161t-164 -54h-142q-218 0 -218 215v460h120z" />
    <glyph glyph-name="V" unicode="V" 
d="M149 675l205 -543q9 -23 33 -23q23 0 33 23l215 543h131l-238 -600q-19 -48 -53.5 -67.5t-87.5 -19.5q-50 0 -86.5 18.5t-55.5 68.5l-226 600h130z" />
    <glyph glyph-name="W" unicode="W" horiz-adv-x="1046" 
d="M156 675l50 -527q2 -22 11.5 -33.5t29.5 -11.5q35 0 42 37l80 414q13 66 51 99.5t104 33.5t102.5 -33.5t48.5 -99.5l75 -414q6 -37 43 -37q20 0 29.5 11.5t11.5 33.5l57 527h123l-63 -534q-4 -33 -14 -61.5t-29 -48.5t-47 -31.5t-68 -11.5q-64 0 -103 32.5t-52 104.5
l-74 412q-6 36 -41 36q-34 0 -41 -36l-79 -412q-14 -69 -52.5 -103t-106.5 -34q-39 0 -66.5 11t-45.5 31.5t-28 48.5t-14 62l-58 534h124z" />
    <glyph glyph-name="X" unicode="X" horiz-adv-x="781" 
d="M191 675l207 -249l217 249h146l-289 -332l291 -343h-144l-224 268l-230 -268h-146l302 352l-274 323h144z" />
    <glyph glyph-name="Y" unicode="Y" horiz-adv-x="689" 
d="M156 675l189 -289l191 289h140l-272 -384v-291h-119v291l-272 384h143z" />
    <glyph glyph-name="Z" unicode="Z" horiz-adv-x="743" 
d="M524 675q81 0 122.5 -38.5t41.5 -109.5q0 -58 -27 -96.5t-81 -61.5l-368 -157q-16 -7 -25 -20t-9 -30q0 -20 12.5 -32t37.5 -12h445v-118h-453q-81 0 -122 38.5t-41 109.5q0 58 27 96.5t82 61.5l366 157q35 14 35 50q0 20 -12.5 32t-38.5 12h-435v118h443z" />
    <glyph glyph-name="bracketleft" unicode="[" horiz-adv-x="394" 
d="M366 895v-73h-211v-1013h211v-73h-284v1159h284z" />
    <glyph glyph-name="backslash" unicode="\" horiz-adv-x="455" 
d="M113 757l331 -969h-103l-330 969h102z" />
    <glyph glyph-name="bracketright" unicode="]" horiz-adv-x="394" 
d="M28 -264v73h211v1013h-211v73h284v-1159h-284z" />
    <glyph glyph-name="asciicircum" unicode="^" horiz-adv-x="535" 
d="M130 365h-79l142 348q10 24 27.5 34t46.5 10t46.5 -10t27.5 -34l141 -346h-79l-125 313q-4 7 -11 7q-8 0 -11 -7z" />
    <glyph glyph-name="underscore" unicode="_" horiz-adv-x="514" 
d="M518 -136v-76h-518v76h518z" />
    <glyph glyph-name="grave" unicode="`" horiz-adv-x="344" 
d="M202 777l112 -215h-106l-124 215h118z" />
    <glyph glyph-name="a" unicode="a" horiz-adv-x="672" 
d="M414 528q49 0 84 -13t57.5 -36.5t32.5 -55.5t10 -69v-248q0 -29 -4.5 -49t-16.5 -32.5t-33.5 -18.5t-54.5 -6h-247q-94 0 -135.5 43t-41.5 118q0 36 9.5 64t30.5 47.5t55 30t83 10.5h251v40q0 31 -18.5 52t-62.5 21h-316v102h317zM465 103q29 0 29 27v99h-249
q-42 0 -59 -16.5t-17 -45.5t17 -46.5t57 -17.5h222z" />
    <glyph glyph-name="b" unicode="b" horiz-adv-x="695" 
d="M182 757v-229h234q105 0 166.5 -65.5t61.5 -198.5q0 -134 -61.5 -199t-166.5 -65h-146q-96 0 -145 55.5t-49 170.5v531h106zM182 426v-195q0 -68 27 -98t92 -30h104q69 0 100.5 37.5t31.5 123.5t-31.5 124t-100.5 38h-223z" />
    <glyph glyph-name="c" unicode="c" horiz-adv-x="602" 
d="M552 528v-102h-262q-69 0 -100.5 -38t-31.5 -124t31.5 -123.5t100.5 -37.5h262v-103h-272q-106 0 -167.5 65t-61.5 199t61.5 199t167.5 65h272z" />
    <glyph glyph-name="d" unicode="d" horiz-adv-x="695" 
d="M620 757v-531q0 -115 -49.5 -170.5t-144.5 -55.5h-146q-106 0 -167.5 65t-61.5 199t61.5 199t167.5 65h233v229h107zM395 103q64 0 91 30t27 98v195h-223q-69 0 -100.5 -38t-31.5 -124t31.5 -123.5t100.5 -37.5h105z" />
    <glyph glyph-name="e" unicode="e" horiz-adv-x="652" 
d="M420 528q94 0 136 -42.5t42 -119.5q0 -73 -41 -112.5t-138 -39.5h-251v-38q0 -32 18.5 -52.5t62.5 -20.5h323v-103h-323q-50 0 -84.5 13t-57 36.5t-32.5 55t-10 69.5v180q0 37 10 69t32.5 55.5t57 36.5t84.5 13h171zM168 297h248q43 0 60.5 17t17.5 46q0 30 -18 48
t-57 18h-170q-44 0 -62.5 -21t-18.5 -52v-56z" />
    <glyph glyph-name="f" unicode="f" horiz-adv-x="375" 
d="M95 528v47q0 52 9 87t28 56t48.5 30t70.5 9h95v-97h-73q-38 0 -54.5 -17t-16.5 -62v-53h146v-102h-146v-426h-107v426h-72v102h72z" />
    <glyph glyph-name="g" unicode="g" horiz-adv-x="692" 
d="M426 528q95 0 144.5 -55.5t49.5 -170.5v-304q0 -56 -10.5 -96t-34 -65t-62 -36.5t-93.5 -11.5h-314v102h302q59 0 82 25t23 82v24h-233q-106 0 -167.5 62.5t-61.5 191.5q0 128 61.5 190t167.5 62h146zM158 272q0 -81 31.5 -117.5t100.5 -36.5h223v185q0 65 -27 94t-91 29
h-105q-69 0 -100.5 -36.5t-31.5 -117.5z" />
    <glyph glyph-name="h" unicode="h" horiz-adv-x="707" 
d="M182 757v-229h186q134 0 200 -61t66 -170v-297h-107v297q0 61 -38 95t-121 34h-186v-426h-106v757h106z" />
    <glyph glyph-name="i" unicode="i" horiz-adv-x="258" 
d="M76 0zM182 528v-528h-106v528h106zM183 727v-123h-107v123h107z" />
    <glyph glyph-name="j" unicode="j" horiz-adv-x="270" 
d="M0 0zM194 528v-558q0 -52 -9 -87t-28 -56t-48.5 -30t-69.5 -9h-93v102h69q39 0 55.5 17t16.5 62v559h107zM194 727v-123h-107v123h107z" />
    <glyph glyph-name="k" unicode="k" horiz-adv-x="602" 
d="M182 757v-448h49q31 0 51.5 1.5t34.5 7.5t24 18t22 33l88 159h115l-92 -166q-20 -35 -41 -57.5t-53 -36.5q38 -11 61 -35.5t47 -66.5l95 -166h-119l-88 156q-12 21 -23 33.5t-26.5 19t-38 9t-57.5 2.5h-49v-220h-106v757h106z" />
    <glyph glyph-name="l" unicode="l" horiz-adv-x="258" 
d="M182 757v-757h-106v757h106z" />
    <glyph glyph-name="m" unicode="m" horiz-adv-x="1032" 
d="M693 528q135 0 201 -60.5t66 -170.5v-297h-107v297q0 63 -37.5 96t-121.5 33h-124v-426h-107v426h-268q-13 0 -13 -15v-411h-106v446q0 47 17 64.5t57 17.5h543z" />
    <glyph glyph-name="n" unicode="n" horiz-adv-x="707" 
d="M368 528q135 0 200.5 -60.5t65.5 -170.5v-297h-107v297q0 63 -37.5 96t-121.5 33h-173q-13 0 -13 -15v-411h-106v446q0 47 17 64.5t57 17.5h218z" />
    <glyph glyph-name="o" unicode="o" horiz-adv-x="671" 
d="M391 528q105 0 167 -65.5t62 -198.5q0 -134 -62 -199t-167 -65h-111q-106 0 -167.5 65t-61.5 199t61.5 199t167.5 65h111zM290 426q-69 0 -100.5 -38t-31.5 -124t31.5 -123.5t100.5 -37.5h91q69 0 100.5 37.5t31.5 123.5t-31.5 124t-100.5 38h-91z" />
    <glyph glyph-name="p" unicode="p" horiz-adv-x="693" 
d="M414 528q105 0 166.5 -65.5t61.5 -198.5q0 -134 -61.5 -199t-166.5 -65h-234v-212h-106v514q0 115 49 170.5t145 55.5h146zM180 103h223q69 0 100.5 37.5t31.5 123.5t-31.5 124t-100.5 38h-104q-65 0 -92 -30t-27 -99v-194z" />
    <glyph glyph-name="q" unicode="q" horiz-adv-x="693" 
d="M426 528q95 0 144.5 -55.5t49.5 -170.5v-514h-107v212h-233q-106 0 -167.5 65t-61.5 199t61.5 199t167.5 65h146zM158 264q0 -86 31.5 -123.5t100.5 -37.5h223v194q0 69 -27 99t-91 30h-105q-69 0 -100.5 -38t-31.5 -124z" />
    <glyph glyph-name="r" unicode="r" horiz-adv-x="463" 
d="M435 528v-102h-186q-68 0 -68 -68v-358h-106v374q0 80 32.5 117t110.5 37h217z" />
    <glyph glyph-name="s" unicode="s" horiz-adv-x="586" 
d="M516 528v-102h-292q-37 0 -53 -15t-16 -45q0 -28 15.5 -42.5t59.5 -14.5h124q55 0 90.5 -12t56 -32t28.5 -47t8 -58q0 -35 -9.5 -64.5t-30.5 -50.5t-54 -33t-79 -12h-307v103h307q37 0 53 13.5t16 44.5q0 32 -17.5 45.5t-57.5 13.5h-125q-55 0 -90 12.5t-55.5 34
t-28.5 49.5t-8 58q0 71 40 112.5t132 41.5h293z" />
    <glyph glyph-name="t" unicode="t" horiz-adv-x="375" 
d="M95 528v125h107v-125h146v-102h-146v-250q0 -45 16.5 -62t54.5 -17h73v-97h-95q-41 0 -70.5 9t-48.5 30t-28 56t-9 87v244h-72v102h72z" />
    <glyph glyph-name="u" unicode="u" horiz-adv-x="702" 
d="M180 528v-316q0 -47 33.5 -78t96.5 -31h86q63 0 96 31t33 78v316h104v-320q0 -46 -14.5 -84t-43.5 -65.5t-71.5 -43t-99.5 -15.5h-98q-57 0 -99.5 15.5t-71.5 43t-43.5 65.5t-14.5 84v320h107z" />
    <glyph glyph-name="v" unicode="v" horiz-adv-x="677" 
d="M131 528l176 -424q6 -16 26 -16q21 0 28 16l183 424h114l-204 -471q-17 -38 -46.5 -53.5t-74.5 -15.5q-46 0 -75.5 16t-44.5 53l-194 471h112z" />
    <glyph glyph-name="w" unicode="w" horiz-adv-x="977" 
d="M145 528l47 -412q2 -17 10.5 -25.5t27.5 -8.5q18 0 26.5 7.5t12.5 21.5l75 320q12 53 47 80t98 27t96 -27t45 -80l71 -320q6 -29 40 -29q18 0 26 8.5t10 25.5l55 412h115l-59 -418q-8 -55 -42 -88.5t-106 -33.5q-62 0 -96 27t-46 82l-71 321q-3 14 -13.5 20t-25.5 6
q-33 0 -39 -26l-75 -321q-13 -55 -48 -82t-98 -27q-37 0 -62.5 9t-42 25t-25.5 38.5t-13 49.5l-55 418h115z" />
    <glyph glyph-name="x" unicode="x" horiz-adv-x="681" 
d="M170 528l175 -191l182 191h132l-248 -263l251 -265h-135l-186 203l-190 -203h-132l257 275l-240 253h134z" />
    <glyph glyph-name="y" unicode="y" horiz-adv-x="647" 
d="M628 528l-318 -740h-114l99 231q-45 0 -65.5 15t-33.5 50l-177 444h112l159 -393q5 -14 11 -18t21 -4h14l179 415h113z" />
    <glyph glyph-name="z" unicode="z" horiz-adv-x="624" 
d="M438 528q69 0 102.5 -33t33.5 -88q0 -49 -24 -80.5t-66 -46.5l-303 -110q-28 -11 -28 -36q0 -32 40 -32h370v-102h-376q-69 0 -102.5 33t-33.5 88q0 45 22 78t68 50l304 109q17 6 22.5 16t5.5 21q0 31 -41 31h-362v102h368z" />
    <glyph glyph-name="braceleft" unicode="{" horiz-adv-x="394" 
d="M366 895v-73h-34q-48 0 -69 -21.5t-21 -69.5v-287q0 -51 -15 -82t-38 -47q23 -15 38 -45.5t15 -82.5v-287q0 -48 21 -69.5t69 -21.5h34v-73h-34q-87 0 -124 36.5t-37 125.5v289q0 52 -20 72t-47 20h-51v73h51q13 0 25.5 4.5t21.5 15t14.5 28.5t5.5 44v289q0 90 37 126
t124 36h34z" />
    <glyph glyph-name="bar" unicode="|" horiz-adv-x="289" 
d="M181 797v-963h-73v963h73z" />
    <glyph glyph-name="braceright" unicode="}" horiz-adv-x="394" 
d="M28 -264v73h34q48 0 69 21.5t21 69.5v287q0 51 15 82t38 47q-23 15 -38 45.5t-15 82.5v287q0 48 -21 69.5t-69 21.5h-34v73h34q87 0 124 -36.5t37 -125.5v-289q0 -26 5.5 -44t14.5 -28.5t21 -15t26 -4.5h51v-73h-51q-27 0 -47 -20t-20 -72v-289q0 -90 -37 -126t-124 -36
h-34z" />
    <glyph glyph-name="asciitilde" unicode="~" horiz-adv-x="619" 
d="M40 357q20 26 49.5 42t76.5 16q40 0 74.5 -12.5t79.5 -34.5q34 -15 65.5 -26.5t69.5 -11.5q36 0 63.5 14.5t59.5 53.5v-83q-19 -25 -49 -41.5t-77 -16.5q-20 0 -38.5 3.5t-36.5 9.5t-37.5 14.5t-41.5 19.5q-34 16 -65.5 27.5t-68.5 11.5t-64.5 -14.5t-59.5 -54.5v83z" />
    <glyph glyph-name="nonbreakingspace" unicode="&#xa0;" horiz-adv-x="267" 
 />
    <glyph glyph-name="exclamdown" unicode="&#xa1;" horiz-adv-x="234" 
d="M57 -166l16 456h91l17 -456h-124zM62 392v136h114v-136h-114z" />
    <glyph glyph-name="cent" unicode="&#xa2;" horiz-adv-x="620" 
d="M319 593v141h74v-141h167v-102h-262q-69 0 -100.5 -38t-31.5 -125q0 -85 31.5 -122.5t100.5 -37.5h262v-103h-167v-124h-74v124h-31q-106 0 -167.5 65t-61.5 198q0 135 61.5 200t167.5 65h31z" />
    <glyph glyph-name="sterling" unicode="&#xa3;" horiz-adv-x="650" 
d="M159 390v52q0 51 14 93.5t44 73.5t77.5 48.5t114.5 17.5h167v-118h-159q-40 0 -67 -9t-43 -24.5t-22.5 -37t-6.5 -45.5v-51h294v-89h-294v-183h300v-118h-540v118h121v183h-121v89h121z" />
    <glyph glyph-name="currency" unicode="&#xa4;" horiz-adv-x="657" 
d="M357 562q64 0 110 -26l91 91l52 -51l-91 -91q35 -53 35 -142q0 -88 -34 -142l89 -89l-51 -52l-91 91q-44 -25 -110 -25h-60q-67 0 -111 25l-91 -90l-51 51l89 89q-34 54 -34 142q0 90 34 142l-90 90l52 52l91 -91q46 26 111 26h60zM294 488q-64 0 -92.5 -34t-28.5 -110
t28.5 -110t92.5 -34h66q64 0 92 34t28 110t-28.5 110t-91.5 34h-66z" />
    <glyph glyph-name="yen" unicode="&#xa5;" horiz-adv-x="689" 
d="M156 675l189 -289l191 289h140l-248 -350h205v-61h-229v-96h229v-61h-229v-107h-119v107h-229v61h229v96h-229v61h205l-248 350h143z" />
    <glyph glyph-name="brokenbar" unicode="&#xa6;" horiz-adv-x="289" 
d="M181 797v-414h-73v414h73zM181 248v-414h-73v414h73z" />
    <glyph glyph-name="section" unicode="&#xa7;" horiz-adv-x="663" 
d="M586 675v-102h-351q-47 0 -67 -20t-20 -55q0 -34 18 -56.5t58 -22.5h172q66 0 93 -30t27 -93v-146q50 -19 72.5 -63t22.5 -100q0 -39 -11 -70.5t-34 -54.5t-60 -35.5t-88 -12.5h-351v102h351q46 0 66.5 20t20.5 55q0 34 -18.5 56.5t-57.5 22.5h-172q-66 0 -93 30t-27 93
v145q-50 19 -72.5 63t-22.5 101q0 39 11 70.5t34 54.5t59.5 35.5t87.5 12.5h352zM228 327v-111q0 -27 13 -40.5t42 -13.5h142v111q0 27 -13 40.5t-43 13.5h-141z" />
    <glyph glyph-name="dieresis" unicode="&#xa8;" horiz-adv-x="458" 
d="M161 727v-123h-107v123h107zM401 727v-123h-107v123h107z" />
    <glyph glyph-name="copyright" unicode="&#xa9;" horiz-adv-x="816" 
d="M454 674q148 0 226.5 -83.5t78.5 -254.5q0 -170 -78.5 -253.5t-226.5 -83.5h-92q-148 0 -226.5 83.5t-78.5 253.5q0 171 78.5 254.5t226.5 83.5h92zM362 608q-116 0 -178 -66.5t-62 -205.5q0 -138 62 -204.5t178 -66.5h92q116 0 177.5 66.5t61.5 204.5q0 139 -61.5 205.5
t-177.5 66.5h-92zM531 520v-62h-138q-52 0 -75.5 -27.5t-23.5 -89.5q0 -61 23 -88.5t76 -27.5h138v-62h-138q-79 0 -120.5 44t-41.5 134q0 91 42 135t120 44h138z" />
    <glyph glyph-name="ordfeminine" unicode="&#xaa;" horiz-adv-x="474" 
d="M289 675q67 0 95 -33.5t28 -85.5v-165q0 -41 -15 -59t-62 -18h-161q-62 0 -89 28.5t-27 79.5q0 49 26 75.5t91 26.5h166v31q0 21 -12 35.5t-40 14.5h-209v70h209zM319 384q22 0 22 23v60h-165q-47 0 -47 -41q0 -19 11 -30.5t35 -11.5h144z" />
    <glyph glyph-name="guillemotleft" unicode="&#xab;" horiz-adv-x="420" 
d="M30 0zM390 546l-123 -255q-5 -8 -5 -18q0 -8 5 -18l123 -255h-71l-113 228q-9 19 -9 45q0 25 9 45l113 228h71zM223 546l-123 -255q-5 -8 -5 -18q0 -8 5 -18l123 -255h-71l-113 228q-9 19 -9 45q0 25 9 45l113 228h71z" />
    <glyph glyph-name="logicalnot" unicode="&#xac;" horiz-adv-x="619" 
d="M578 391v-391h-73v318h-465v73h538z" />
    <glyph glyph-name="softhyphen" unicode="&#xad;" horiz-adv-x="415" 
d="M29 266zM386 368v-102h-357v102h357z" />
    <glyph glyph-name="registered" unicode="&#xae;" horiz-adv-x="816" 
d="M454 674q148 0 226.5 -83.5t78.5 -254.5q0 -170 -78.5 -253.5t-226.5 -83.5h-92q-148 0 -226.5 83.5t-78.5 253.5q0 171 78.5 254.5t226.5 83.5h92zM362 608q-116 0 -178 -66.5t-62 -205.5q0 -138 62 -204.5t178 -66.5h92q116 0 177.5 66.5t61.5 204.5q0 139 -61.5 205.5
t-177.5 66.5h-92zM449 523q30 0 52 -8.5t36 -23t20.5 -34t6.5 -41.5q0 -33 -17.5 -64.5t-58.5 -42.5l83 -143h-69l-82 138h-93q-9 0 -9 -9v-129h-62v141q0 31 13.5 44t42.5 13h139q27 0 38.5 15t11.5 35q0 19 -12 33t-38 14h-196v62h194z" />
    <glyph glyph-name="macron" unicode="&#xaf;" horiz-adv-x="573" 
d="M513 717v-89h-459v89h459z" />
    <glyph glyph-name="degree" unicode="&#xb0;" horiz-adv-x="389" 
d="M231 687q62 0 97.5 -39t35.5 -120t-35.5 -120t-97.5 -39h-65q-62 0 -97 39t-35 120t35 120t97 39h65zM172 624q-39 0 -56 -22.5t-17 -73.5t17 -73t56 -22h53q38 0 55.5 22t17.5 73t-17.5 73.5t-55.5 22.5h-53z" />
    <glyph glyph-name="plusminus" unicode="&#xb1;" horiz-adv-x="619" 
d="M40 18zM346 676v-234h232v-73h-232v-231h-74v231h-232v73h232v234h74zM578 91v-73h-538v73h538z" />
    <glyph glyph-name="twosuperior" unicode="&#xb2;" horiz-adv-x="394" 
d="M29 304zM254 675q54 0 83 -26t29 -77q0 -42 -20.5 -67t-66.5 -36l-154 -35q-14 -3 -20.5 -10.5t-6.5 -28.5v-13q0 -9 8 -9h250v-69h-291q-36 0 -36 35v51q0 51 18.5 75t63.5 34l155 36q20 5 26 13.5t6 21.5q0 18 -9 27t-34 9h-214v69h213z" />
    <glyph glyph-name="threesuperior" unicode="&#xb3;" horiz-adv-x="394" 
d="M41 304zM233 675q65 0 91.5 -28t26.5 -71q0 -64 -46 -86q48 -24 48 -87q0 -42 -27 -70.5t-92 -28.5h-193v69h193q26 0 36.5 10.5t10.5 33.5q0 21 -10 31t-38 10h-119v63h118q29 0 38 10.5t9 31.5q0 23 -9.5 33t-36.5 10h-192v69h192z" />
    <glyph glyph-name="acute" unicode="&#xb4;" horiz-adv-x="344" 
d="M255 777l-125 -215h-105l112 215h118z" />
    <glyph glyph-name="paragraph" unicode="&#xb6;" horiz-adv-x="733" 
d="M540 757q63 0 88.5 -30t25.5 -90v-851h-91v819q0 23 -12 36.5t-38 13.5h-264q-52 0 -75 -23.5t-23 -63.5q0 -38 20.5 -63.5t65.5 -25.5h59q60 0 84.5 -28t24.5 -82v-581h-91v559q0 18 -10.5 29t-33.5 11h-53q-45 0 -77.5 14.5t-53.5 40t-31 59.5t-10 72q0 41 11.5 75
t36 58t63.5 37.5t93 13.5h291z" />
    <glyph glyph-name="periodcentered" unicode="&#xb7;" horiz-adv-x="242" 
d="M64 252zM178 388v-136h-114v136h114z" />
    <glyph glyph-name="cedilla" unicode="&#xb8;" horiz-adv-x="269" 
d="M209 -24v-107q0 -133 -122 -133h-33v80h12q37 0 37 42v118h106z" />
    <glyph glyph-name="onesuperior" unicode="&#xb9;" horiz-adv-x="394" 
d="M102 304zM184 675q29 0 47.5 -5t29 -16t14.5 -30t4 -46v-274h-68v269q0 20 -6.5 26.5t-26.5 6.5h-76v69h82z" />
    <glyph glyph-name="ordmasculine" unicode="&#xba;" horiz-adv-x="479" 
d="M276 675q70 0 110.5 -44.5t40.5 -136.5t-40.5 -136t-110.5 -44h-75q-69 0 -110 44t-41 136t41 136.5t110 44.5h75zM208 605q-44 0 -64.5 -26t-20.5 -85q0 -58 20.5 -84t64.5 -26h61q45 0 64.5 26t19.5 84q0 59 -19.5 85t-64.5 26h-61z" />
    <glyph glyph-name="guillemotright" unicode="&#xbb;" horiz-adv-x="420" 
d="M30 0zM267 546l114 -228q9 -20 9 -45q0 -12 -2.5 -23.5t-6.5 -21.5l-114 -228h-70l123 255q2 5 3 9t1 9q0 8 -4 18l-123 255h70zM100 546l114 -228q9 -20 9 -45q0 -12 -2.5 -23.5t-6.5 -21.5l-114 -228h-70l123 255q2 5 3 9t1 9q0 8 -4 18l-123 255h70z" />
    <glyph glyph-name="onequarter" unicode="&#xbc;" horiz-adv-x="865" 
d="M77 0zM712 675l-528 -675h-81l530 675h79zM159 675q29 0 47.5 -5t29 -16t14.5 -30t4 -46v-274h-68v269q0 20 -6.5 26.5t-26.5 6.5h-76v69h82zM589 329q17 22 35.5 32t50.5 10h42q35 0 50.5 -17t15.5 -50v-304h-69v80h-168q-47 0 -66 16t-19 47q0 21 6 34t17 26zM543 170
q-6 -6 -6 -15q0 -14 21 -14h156v147q0 14 -12 14h-29q-11 0 -17.5 -2.5t-13.5 -10.5z" />
    <glyph glyph-name="onehalf" unicode="&#xbd;" horiz-adv-x="865" 
d="M50 0zM685 675l-528 -675h-81l530 675h79zM132 675q29 0 47.5 -5t29 -16t14.5 -30t4 -46v-274h-68v269q0 20 -6.5 26.5t-26.5 6.5h-76v69h82zM702 371q54 0 83 -26t29 -77q0 -42 -20.5 -67t-66.5 -36l-154 -35q-14 -3 -20.5 -10.5t-6.5 -28.5v-13q0 -9 8 -9h250v-69h-291
q-36 0 -36 35v51q0 51 18.5 75t63.5 34l155 36q20 5 26 13.5t6 21.5q0 18 -9 27t-34 9h-214v69h213z" />
    <glyph glyph-name="threequarters" unicode="&#xbe;" horiz-adv-x="865" 
d="M42 0zM748 675l-528 -675h-81l530 675h79zM625 329q17 22 35.5 32t50.5 10h42q35 0 50.5 -17t15.5 -50v-304h-69v80h-168q-47 0 -66 16t-19 47q0 21 6 34t17 26zM579 170q-6 -6 -6 -15q0 -14 21 -14h156v147q0 14 -12 14h-29q-11 0 -17.5 -2.5t-13.5 -10.5zM234 675
q65 0 91.5 -28t26.5 -71q0 -64 -46 -86q48 -24 48 -87q0 -42 -27 -70.5t-92 -28.5h-193v69h193q26 0 36.5 10.5t10.5 33.5q0 21 -10 31t-38 10h-119v63h118q29 0 38 10.5t9 31.5q0 23 -9.5 33t-36.5 10h-192v69h192z" />
    <glyph glyph-name="questiondown" unicode="&#xbf;" horiz-adv-x="569" 
d="M223 -166q-52 0 -89 12.5t-60 35.5t-34 55t-11 71q0 36 9.5 68.5t29.5 57t50.5 38.5t73.5 14h58q26 0 37 12.5t11 34.5v57h91v-79q0 -58 -25.5 -88t-86.5 -30h-65q-41 0 -59.5 -22.5t-18.5 -57.5t21 -56t68 -21h310v-102h-310zM286 392v136h114v-136h-114z" />
    <glyph glyph-name="Agrave" unicode="&#xc0;" 
d="M19 0zM149 0h-130l237 600q19 48 53.5 67.5t88.5 19.5q53 0 87.5 -19.5t52.5 -67.5l228 -600h-131l-205 543q-9 23 -33 23t-34 -23zM385 924l112 -215h-106l-124 215h118z" />
    <glyph glyph-name="Aacute" unicode="&#xc1;" 
d="M19 0zM149 0h-130l237 600q19 48 53.5 67.5t88.5 19.5q53 0 87.5 -19.5t52.5 -67.5l228 -600h-131l-205 543q-9 23 -33 23t-34 -23zM520 924l-125 -215h-105l112 215h118z" />
    <glyph glyph-name="Acircumflex" unicode="&#xc2;" 
d="M19 0zM149 0h-130l237 600q19 48 53.5 67.5t88.5 19.5q53 0 87.5 -19.5t52.5 -67.5l228 -600h-131l-205 543q-9 23 -33 23t-34 -23zM285 873q14 28 42 39.5t68 11.5q39 0 66.5 -12t41.5 -39l91 -164h-113l-67 125q-5 9 -20 9t-20 -9l-66 -125h-113z" />
    <glyph glyph-name="Atilde" unicode="&#xc3;" 
d="M19 0zM149 0h-130l237 600q19 48 53.5 67.5t88.5 19.5q53 0 87.5 -19.5t52.5 -67.5l228 -600h-131l-205 543q-9 23 -33 23t-34 -23zM622 864v-89h-459v89h459z" />
    <glyph glyph-name="Adieresis" unicode="&#xc4;" 
d="M19 0zM149 0h-130l237 600q19 48 53.5 67.5t88.5 19.5q53 0 87.5 -19.5t52.5 -67.5l228 -600h-131l-205 543q-9 23 -33 23t-34 -23zM328 874v-123h-107v123h107zM568 874v-123h-107v123h107z" />
    <glyph glyph-name="Aring" unicode="&#xc5;" 
d="M19 0zM149 0h-130l237 600q19 48 53.5 67.5t88.5 19.5q53 0 87.5 -19.5t52.5 -67.5l228 -600h-131l-205 543q-9 23 -33 23t-34 -23zM427 924q46 0 73 -28t27 -87q0 -58 -27 -86.5t-73 -28.5h-69q-47 0 -73.5 28.5t-26.5 86.5q0 59 26.5 87t73.5 28h69zM364 873
q-27 0 -39 -15t-12 -49q0 -33 12 -48t39 -15h56q26 0 38.5 15t12.5 48q0 34 -12.5 49t-38.5 15h-56z" />
    <glyph glyph-name="AE" unicode="&#xc6;" horiz-adv-x="1010" 
d="M146 0h-127l215 562q10 29 24 52.5t33.5 39.5t46 24.5t61.5 8.5q42 0 72 -12h466v-118h-384q0 -5 0.5 -8.5t0.5 -8.5v-148h378v-107h-378v-55q0 -24 6.5 -44.5t22.5 -35.5t42.5 -23.5t66.5 -8.5h246v-118h-253q-67 0 -114.5 17t-77.5 47t-43.5 72t-13.5 93v305
q0 18 -10.5 28.5t-29.5 10.5q-17 0 -27.5 -8t-15.5 -21z" />
    <glyph glyph-name="Ccedilla" unicode="&#xc7;" horiz-adv-x="682" 
d="M57 0zM623 675v-118h-261q-98 0 -142.5 -51.5t-44.5 -168.5q0 -116 44 -167.5t143 -51.5h261v-118h-261q-148 0 -226.5 83.5t-78.5 253.5q0 171 78.5 254.5t226.5 83.5h261zM452 -24v-107q0 -133 -122 -133h-33v80h12q37 0 37 42v118h106z" />
    <glyph glyph-name="Egrave" unicode="&#xc8;" horiz-adv-x="693" 
d="M55 0zM621 675v-118h-338q-54 0 -78 -23t-24 -62q0 -80 103 -80h332v-107h-335q-103 0 -103 -82q0 -40 25 -62.5t77 -22.5h342v-118h-342q-60 0 -102.5 14t-70 38.5t-40 58.5t-12.5 73q0 58 25 96.5t72 58.5q-95 39 -95 152q0 40 13 74t40.5 58.5t70 38t102.5 13.5h338z
M382 924l112 -215h-106l-124 215h118z" />
    <glyph glyph-name="Eacute" unicode="&#xc9;" horiz-adv-x="693" 
d="M55 0zM621 675v-118h-338q-54 0 -78 -23t-24 -62q0 -80 103 -80h332v-107h-335q-103 0 -103 -82q0 -40 25 -62.5t77 -22.5h342v-118h-342q-60 0 -102.5 14t-70 38.5t-40 58.5t-12.5 73q0 58 25 96.5t72 58.5q-95 39 -95 152q0 40 13 74t40.5 58.5t70 38t102.5 13.5h338z
M516 924l-125 -215h-105l112 215h118z" />
    <glyph glyph-name="Ecircumflex" unicode="&#xca;" horiz-adv-x="693" 
d="M55 0zM621 675v-118h-338q-54 0 -78 -23t-24 -62q0 -80 103 -80h332v-107h-335q-103 0 -103 -82q0 -40 25 -62.5t77 -22.5h342v-118h-342q-60 0 -102.5 14t-70 38.5t-40 58.5t-12.5 73q0 58 25 96.5t72 58.5q-95 39 -95 152q0 40 13 74t40.5 58.5t70 38t102.5 13.5h338z
M277 873q14 28 42 39.5t68 11.5q39 0 66.5 -12t41.5 -39l91 -164h-113l-67 125q-5 9 -20 9t-20 -9l-66 -125h-113z" />
    <glyph glyph-name="Edieresis" unicode="&#xcb;" horiz-adv-x="693" 
d="M55 0zM621 675v-118h-338q-54 0 -78 -23t-24 -62q0 -80 103 -80h332v-107h-335q-103 0 -103 -82q0 -40 25 -62.5t77 -22.5h342v-118h-342q-60 0 -102.5 14t-70 38.5t-40 58.5t-12.5 73q0 58 25 96.5t72 58.5q-95 39 -95 152q0 40 13 74t40.5 58.5t70 38t102.5 13.5h338z
M322 874v-123h-107v123h107zM562 874v-123h-107v123h107z" />
    <glyph glyph-name="Igrave" unicode="&#xcc;" horiz-adv-x="293" 
d="M27 0zM212 675v-675h-118v675h118zM145 924l112 -215h-106l-124 215h118z" />
    <glyph glyph-name="Iacute" unicode="&#xcd;" horiz-adv-x="295" 
d="M38 0zM200 675v-675h-118v675h118zM268 924l-125 -215h-105l112 215h118z" />
    <glyph glyph-name="Icircumflex" unicode="&#xce;" horiz-adv-x="358" 
d="M0 0zM238 675v-675h-118v675h118zM70 873q14 28 42 39.5t68 11.5q39 0 66.5 -12t41.5 -39l91 -164h-113l-67 125q-5 9 -20 9t-20 -9l-66 -125h-113z" />
    <glyph glyph-name="Idieresis" unicode="&#xcf;" horiz-adv-x="318" 
d="M0 0zM222 675v-675h-118v675h118zM92 874v-123h-107v123h107zM332 874v-123h-107v123h107z" />
    <glyph glyph-name="Eth" unicode="&#xd0;" horiz-adv-x="737" 
d="M376 675q149 0 226.5 -83t77.5 -255q0 -171 -77.5 -254t-226.5 -83h-238q-56 0 -56 55v230h-71v107h71v228q0 55 56 55h238zM200 392h180v-107h-180v-155q0 -12 13 -12h163q98 0 142 52t44 168t-43.5 167.5t-142.5 51.5h-163q-13 0 -13 -12v-153z" />
    <glyph glyph-name="Ntilde" unicode="&#xd1;" horiz-adv-x="879" 
d="M81 0zM199 0h-118v540q0 66 38 106.5t117 40.5q70 0 106.5 -33.5t57.5 -91.5l197 -431q6 -12 16 -20t27 -8q19 0 29.5 10.5t10.5 27.5v534h119v-539q0 -67 -38.5 -107.5t-116.5 -40.5q-35 0 -61.5 8.5t-46 25t-33.5 39.5t-24 52l-197 431q-13 29 -42 29
q-20 0 -30.5 -10.5t-10.5 -28.5v-534zM669 864v-89h-459v89h459z" />
    <glyph glyph-name="Ograve" unicode="&#xd2;" horiz-adv-x="816" 
d="M57 0zM454 675q148 0 226.5 -84t78.5 -255q0 -170 -78.5 -253t-226.5 -83h-92q-148 0 -226.5 83t-78.5 253q0 171 78.5 255t226.5 84h92zM362 557q-98 0 -142.5 -52t-44.5 -169q0 -116 44 -167t143 -51h92q97 0 141.5 51.5t44.5 167.5t-44 168t-142 52h-92zM398 924
l112 -215h-106l-124 215h118z" />
    <glyph glyph-name="Oacute" unicode="&#xd3;" horiz-adv-x="816" 
d="M57 0zM454 675q148 0 226.5 -84t78.5 -255q0 -170 -78.5 -253t-226.5 -83h-92q-148 0 -226.5 83t-78.5 253q0 171 78.5 255t226.5 84h92zM362 557q-98 0 -142.5 -52t-44.5 -169q0 -116 44 -167t143 -51h92q97 0 141.5 51.5t44.5 167.5t-44 168t-142 52h-92zM535 924
l-125 -215h-105l112 215h118z" />
    <glyph glyph-name="Ocircumflex" unicode="&#xd4;" horiz-adv-x="816" 
d="M57 0zM454 675q148 0 226.5 -84t78.5 -255q0 -170 -78.5 -253t-226.5 -83h-92q-148 0 -226.5 83t-78.5 253q0 171 78.5 255t226.5 84h92zM362 557q-98 0 -142.5 -52t-44.5 -169q0 -116 44 -167t143 -51h92q97 0 141.5 51.5t44.5 167.5t-44 168t-142 52h-92zM298 873
q14 28 42 39.5t68 11.5q39 0 66.5 -12t41.5 -39l91 -164h-113l-67 125q-5 9 -20 9t-20 -9l-66 -125h-113z" />
    <glyph glyph-name="Otilde" unicode="&#xd5;" horiz-adv-x="816" 
d="M57 0zM454 675q148 0 226.5 -84t78.5 -255q0 -170 -78.5 -253t-226.5 -83h-92q-148 0 -226.5 83t-78.5 253q0 171 78.5 255t226.5 84h92zM362 557q-98 0 -142.5 -52t-44.5 -169q0 -116 44 -167t143 -51h92q97 0 141.5 51.5t44.5 167.5t-44 168t-142 52h-92zM637 864v-89
h-459v89h459z" />
    <glyph glyph-name="Odieresis" unicode="&#xd6;" horiz-adv-x="816" 
d="M57 0zM454 675q148 0 226.5 -84t78.5 -255q0 -170 -78.5 -253t-226.5 -83h-92q-148 0 -226.5 83t-78.5 253q0 171 78.5 255t226.5 84h92zM362 557q-98 0 -142.5 -52t-44.5 -169q0 -116 44 -167t143 -51h92q97 0 141.5 51.5t44.5 167.5t-44 168t-142 52h-92zM341 874v-123
h-107v123h107zM581 874v-123h-107v123h107z" />
    <glyph glyph-name="multiply" unicode="&#xd7;" horiz-adv-x="619" 
d="M309 389l182 180l51 -51l-182 -182l181 -180l-51 -52l-181 181l-181 -180l-52 51l181 180l-181 182l52 51z" />
    <glyph glyph-name="Oslash" unicode="&#xd8;" horiz-adv-x="816" 
d="M454 675q29 0 55 -3.5t49 -9.5l49 82h85l-66 -110q66 -38 99.5 -112t33.5 -186q0 -170 -78.5 -253t-226.5 -83h-92q-58 0 -104 12l-48 -81h-86l65 109q-132 77 -132 296q0 171 78.5 255t226.5 84h92zM362 557q-98 0 -142.5 -52t-44.5 -169q0 -75 18 -122.5t57 -70.5
l244 411q-18 3 -40 3h-92zM640 337q0 147 -75 194l-243 -411q9 -1 19 -1.5t21 -0.5h92q97 0 141.5 51.5t44.5 167.5z" />
    <glyph glyph-name="Ugrave" unicode="&#xd9;" horiz-adv-x="732" 
d="M77 0zM197 675v-451q0 -51 26.5 -78.5t85.5 -27.5h120q57 0 84 27.5t27 78.5v451h116v-460q0 -107 -55 -161t-164 -54h-142q-218 0 -218 215v460h120zM357 924l112 -215h-106l-124 215h118z" />
    <glyph glyph-name="Uacute" unicode="&#xda;" horiz-adv-x="732" 
d="M77 0zM197 675v-451q0 -51 26.5 -78.5t85.5 -27.5h120q57 0 84 27.5t27 78.5v451h116v-460q0 -107 -55 -161t-164 -54h-142q-218 0 -218 215v460h120zM493 924l-125 -215h-105l112 215h118z" />
    <glyph glyph-name="Ucircumflex" unicode="&#xdb;" horiz-adv-x="732" 
d="M77 0zM197 675v-451q0 -51 26.5 -78.5t85.5 -27.5h120q57 0 84 27.5t27 78.5v451h116v-460q0 -107 -55 -161t-164 -54h-142q-218 0 -218 215v460h120zM256 873q14 28 42 39.5t68 11.5q39 0 66.5 -12t41.5 -39l91 -164h-113l-67 125q-5 9 -20 9t-20 -9l-66 -125h-113z" />
    <glyph glyph-name="Udieresis" unicode="&#xdc;" horiz-adv-x="732" 
d="M77 0zM197 675v-451q0 -51 26.5 -78.5t85.5 -27.5h120q57 0 84 27.5t27 78.5v451h116v-460q0 -107 -55 -161t-164 -54h-142q-218 0 -218 215v460h120zM300 874v-123h-107v123h107zM540 874v-123h-107v123h107z" />
    <glyph glyph-name="Yacute" unicode="&#xdd;" horiz-adv-x="689" 
d="M13 0zM156 675l189 -289l191 289h140l-272 -384v-291h-119v291l-272 384h143zM471 924l-125 -215h-105l112 215h118z" />
    <glyph glyph-name="Thorn" unicode="&#xde;" horiz-adv-x="703" 
d="M199 675v-74q0 -39 41 -39h178q61 0 104 -19.5t70 -51t39 -71t12 -79.5t-12 -79.5t-39 -70.5t-70 -50.5t-104 -19.5h-178q-41 0 -41 -48v-73h-118v95q0 75 30 107t100 32h211q27 0 46.5 9t32 23.5t18 34t5.5 40.5t-5.5 40.5t-18 34t-32 23.5t-46.5 9h-211
q-70 0 -100 30.5t-30 99.5v97h118z" />
    <glyph glyph-name="germandbls" unicode="&#xdf;" horiz-adv-x="854" 
d="M351 757q84 0 119 -40t35 -125v-89q0 -49 44 -49h40q109 0 161.5 -56t52.5 -171q0 -117 -53 -172t-161 -55h-233v103h220q65 0 92.5 29t27.5 95t-27 95.5t-93 29.5h-58q-65 0 -92.5 32.5t-27.5 101.5v95q0 42 -18.5 60.5t-59.5 18.5h-51q-46 0 -66.5 -21t-20.5 -75v-564
h-106v558q0 57 10 95t31 61t53 33t76 10h105z" />
    <glyph glyph-name="agrave" unicode="&#xe0;" horiz-adv-x="672" 
d="M65 0zM414 528q49 0 84 -13t57.5 -36.5t32.5 -55.5t10 -69v-248q0 -29 -4.5 -49t-16.5 -32.5t-33.5 -18.5t-54.5 -6h-247q-94 0 -135.5 43t-41.5 118q0 36 9.5 64t30.5 47.5t55 30t83 10.5h251v40q0 31 -18.5 52t-62.5 21h-316v102h317zM465 103q29 0 29 27v99h-249
q-42 0 -59 -16.5t-17 -45.5t17 -46.5t57 -17.5h222zM332 777l112 -215h-106l-124 215h118z" />
    <glyph glyph-name="aacute" unicode="&#xe1;" horiz-adv-x="672" 
d="M65 0zM414 528q49 0 84 -13t57.5 -36.5t32.5 -55.5t10 -69v-248q0 -29 -4.5 -49t-16.5 -32.5t-33.5 -18.5t-54.5 -6h-247q-94 0 -135.5 43t-41.5 118q0 36 9.5 64t30.5 47.5t55 30t83 10.5h251v40q0 31 -18.5 52t-62.5 21h-316v102h317zM465 103q29 0 29 27v99h-249
q-42 0 -59 -16.5t-17 -45.5t17 -46.5t57 -17.5h222zM462 777l-125 -215h-105l112 215h118z" />
    <glyph glyph-name="acircumflex" unicode="&#xe2;" horiz-adv-x="672" 
d="M65 0zM414 528q49 0 84 -13t57.5 -36.5t32.5 -55.5t10 -69v-248q0 -29 -4.5 -49t-16.5 -32.5t-33.5 -18.5t-54.5 -6h-247q-94 0 -135.5 43t-41.5 118q0 36 9.5 64t30.5 47.5t55 30t83 10.5h251v40q0 31 -18.5 52t-62.5 21h-316v102h317zM465 103q29 0 29 27v99h-249
q-42 0 -59 -16.5t-17 -45.5t17 -46.5t57 -17.5h222zM230 726q14 28 42 39.5t68 11.5q39 0 66.5 -12t41.5 -39l91 -164h-113l-67 125q-5 9 -20 9t-20 -9l-66 -125h-113z" />
    <glyph glyph-name="atilde" unicode="&#xe3;" horiz-adv-x="672" 
d="M65 0zM414 528q49 0 84 -13t57.5 -36.5t32.5 -55.5t10 -69v-248q0 -29 -4.5 -49t-16.5 -32.5t-33.5 -18.5t-54.5 -6h-247q-94 0 -135.5 43t-41.5 118q0 36 9.5 64t30.5 47.5t55 30t83 10.5h251v40q0 31 -18.5 52t-62.5 21h-316v102h317zM465 103q29 0 29 27v99h-249
q-42 0 -59 -16.5t-17 -45.5t17 -46.5t57 -17.5h222zM565 717v-89h-459v89h459z" />
    <glyph glyph-name="adieresis" unicode="&#xe4;" horiz-adv-x="672" 
d="M65 0zM414 528q49 0 84 -13t57.5 -36.5t32.5 -55.5t10 -69v-248q0 -29 -4.5 -49t-16.5 -32.5t-33.5 -18.5t-54.5 -6h-247q-94 0 -135.5 43t-41.5 118q0 36 9.5 64t30.5 47.5t55 30t83 10.5h251v40q0 31 -18.5 52t-62.5 21h-316v102h317zM465 103q29 0 29 27v99h-249
q-42 0 -59 -16.5t-17 -45.5t17 -46.5t57 -17.5h222zM269 727v-123h-107v123h107zM509 727v-123h-107v123h107z" />
    <glyph glyph-name="aring" unicode="&#xe5;" horiz-adv-x="672" 
d="M65 0zM414 528q49 0 84 -13t57.5 -36.5t32.5 -55.5t10 -69v-248q0 -29 -4.5 -49t-16.5 -32.5t-33.5 -18.5t-54.5 -6h-247q-94 0 -135.5 43t-41.5 118q0 36 9.5 64t30.5 47.5t55 30t83 10.5h251v40q0 31 -18.5 52t-62.5 21h-316v102h317zM465 103q29 0 29 27v99h-249
q-42 0 -59 -16.5t-17 -45.5t17 -46.5t57 -17.5h222zM370 806q46 0 73 -28t27 -87q0 -58 -27 -86.5t-73 -28.5h-69q-47 0 -73.5 28.5t-26.5 86.5q0 59 26.5 87t73.5 28h69zM307 755q-27 0 -39 -15t-12 -49q0 -33 12 -48t39 -15h56q26 0 38.5 15t12.5 48q0 34 -12.5 49
t-38.5 15h-56z" />
    <glyph glyph-name="ae" unicode="&#xe6;" horiz-adv-x="1083" 
d="M852 528q94 0 136 -42.5t42 -119.5q0 -73 -41 -112.5t-138 -39.5h-251v-38q0 -32 18.5 -52.5t62.5 -20.5h323v-103h-323q-64 0 -106 22q-25 -22 -86 -22h-247q-94 0 -135.5 43t-41.5 118q0 36 9.5 64t30.5 47.5t55 30t83 10.5h251v40q0 31 -18.5 52t-62.5 21h-316v102
h317q45 0 78 -11t55 -31q23 20 55.5 31t78.5 11h171zM600 297h248q43 0 60.5 17t17.5 46q0 30 -18 48t-57 18h-170q-44 0 -62.5 -21t-18.5 -52v-56zM465 103q29 0 29 27v99h-249q-42 0 -59 -16.5t-17 -45.5t17 -46.5t57 -17.5h222z" />
    <glyph glyph-name="ccedilla" unicode="&#xe7;" horiz-adv-x="602" 
d="M51 0zM552 528v-102h-262q-69 0 -100.5 -38t-31.5 -124t31.5 -123.5t100.5 -37.5h262v-103h-272q-106 0 -167.5 65t-61.5 199t61.5 199t167.5 65h272zM406 -24v-107q0 -133 -122 -133h-33v80h12q37 0 37 42v118h106z" />
    <glyph glyph-name="egrave" unicode="&#xe8;" horiz-adv-x="652" 
d="M65 0zM420 528q94 0 136 -42.5t42 -119.5q0 -73 -41 -112.5t-138 -39.5h-251v-38q0 -32 18.5 -52.5t62.5 -20.5h323v-103h-323q-50 0 -84.5 13t-57 36.5t-32.5 55t-10 69.5v180q0 37 10 69t32.5 55.5t57 36.5t84.5 13h171zM168 297h248q43 0 60.5 17t17.5 46q0 30 -18 48
t-57 18h-170q-44 0 -62.5 -21t-18.5 -52v-56zM325 777l112 -215h-106l-124 215h118z" />
    <glyph glyph-name="eacute" unicode="&#xe9;" horiz-adv-x="652" 
d="M65 0zM420 528q94 0 136 -42.5t42 -119.5q0 -73 -41 -112.5t-138 -39.5h-251v-38q0 -32 18.5 -52.5t62.5 -20.5h323v-103h-323q-50 0 -84.5 13t-57 36.5t-32.5 55t-10 69.5v180q0 37 10 69t32.5 55.5t57 36.5t84.5 13h171zM168 297h248q43 0 60.5 17t17.5 46q0 30 -18 48
t-57 18h-170q-44 0 -62.5 -21t-18.5 -52v-56zM459 777l-125 -215h-105l112 215h118z" />
    <glyph glyph-name="ecircumflex" unicode="&#xea;" horiz-adv-x="652" 
d="M65 0zM420 528q94 0 136 -42.5t42 -119.5q0 -73 -41 -112.5t-138 -39.5h-251v-38q0 -32 18.5 -52.5t62.5 -20.5h323v-103h-323q-50 0 -84.5 13t-57 36.5t-32.5 55t-10 69.5v180q0 37 10 69t32.5 55.5t57 36.5t84.5 13h171zM168 297h248q43 0 60.5 17t17.5 46q0 30 -18 48
t-57 18h-170q-44 0 -62.5 -21t-18.5 -52v-56zM217 726q14 28 42 39.5t68 11.5q39 0 66.5 -12t41.5 -39l91 -164h-113l-67 125q-5 9 -20 9t-20 -9l-66 -125h-113z" />
    <glyph glyph-name="edieresis" unicode="&#xeb;" horiz-adv-x="652" 
d="M65 0zM420 528q94 0 136 -42.5t42 -119.5q0 -73 -41 -112.5t-138 -39.5h-251v-38q0 -32 18.5 -52.5t62.5 -20.5h323v-103h-323q-50 0 -84.5 13t-57 36.5t-32.5 55t-10 69.5v180q0 37 10 69t32.5 55.5t57 36.5t84.5 13h171zM168 297h248q43 0 60.5 17t17.5 46q0 30 -18 48
t-57 18h-170q-44 0 -62.5 -21t-18.5 -52v-56zM263 727v-123h-107v123h107zM503 727v-123h-107v123h107z" />
    <glyph glyph-name="igrave" unicode="&#xec;" horiz-adv-x="278" 
d="M22 0zM140 777l112 -215h-106l-124 215h118zM202 528v-528h-106v528h106z" />
    <glyph glyph-name="iacute" unicode="&#xed;" horiz-adv-x="277" 
d="M27 0zM257 777l-125 -215h-105l112 215h118zM182 528v-528h-106v528h106z" />
    <glyph glyph-name="icircumflex" unicode="&#xee;" horiz-adv-x="364" 
d="M0 0zM235 528v-528h-106v528h106zM73 726q14 28 42 39.5t68 11.5q39 0 66.5 -12t41.5 -39l91 -164h-113l-67 125q-5 9 -20 9t-20 -9l-66 -125h-113z" />
    <glyph glyph-name="idieresis" unicode="&#xef;" horiz-adv-x="346" 
d="M0 0zM106 727v-123h-107v123h107zM346 727v-123h-107v123h107zM225 528v-528h-106v528h106z" />
    <glyph glyph-name="eth" unicode="&#xf0;" horiz-adv-x="695" 
d="M307 757l29 60h59l-29 -60h54q55 0 93.5 -15.5t62 -45.5t34 -73.5t10.5 -99.5v-296q0 -115 -49.5 -170.5t-144.5 -55.5h-146q-106 0 -167.5 61t-61.5 182t61.5 183.5t167.5 62.5h233v33q0 58 -23 95t-82 37h-92l-39 -82h-59l39 82h-73v102h123zM395 103q64 0 91 28.5
t27 94.5v169h-223q-69 0 -100.5 -36t-31.5 -111q0 -76 31.5 -110.5t100.5 -34.5h105z" />
    <glyph glyph-name="ntilde" unicode="&#xf1;" horiz-adv-x="707" 
d="M76 0zM368 528q135 0 200.5 -60.5t65.5 -170.5v-297h-107v297q0 63 -37.5 96t-121.5 33h-173q-13 0 -13 -15v-411h-106v446q0 47 17 64.5t57 17.5h218zM583 717v-89h-459v89h459z" />
    <glyph glyph-name="ograve" unicode="&#xf2;" horiz-adv-x="671" 
d="M51 0zM391 528q105 0 167 -65.5t62 -198.5q0 -134 -62 -199t-167 -65h-111q-106 0 -167.5 65t-61.5 199t61.5 199t167.5 65h111zM290 426q-69 0 -100.5 -38t-31.5 -124t31.5 -123.5t100.5 -37.5h91q69 0 100.5 37.5t31.5 123.5t-31.5 124t-100.5 38h-91zM326 777
l112 -215h-106l-124 215h118z" />
    <glyph glyph-name="oacute" unicode="&#xf3;" horiz-adv-x="671" 
d="M51 0zM391 528q105 0 167 -65.5t62 -198.5q0 -134 -62 -199t-167 -65h-111q-106 0 -167.5 65t-61.5 199t61.5 199t167.5 65h111zM290 426q-69 0 -100.5 -38t-31.5 -124t31.5 -123.5t100.5 -37.5h91q69 0 100.5 37.5t31.5 123.5t-31.5 124t-100.5 38h-91zM462 777
l-125 -215h-105l112 215h118z" />
    <glyph glyph-name="ocircumflex" unicode="&#xf4;" horiz-adv-x="671" 
d="M51 0zM391 528q105 0 167 -65.5t62 -198.5q0 -134 -62 -199t-167 -65h-111q-106 0 -167.5 65t-61.5 199t61.5 199t167.5 65h111zM290 426q-69 0 -100.5 -38t-31.5 -124t31.5 -123.5t100.5 -37.5h91q69 0 100.5 37.5t31.5 123.5t-31.5 124t-100.5 38h-91zM226 726
q14 28 42 39.5t68 11.5q39 0 66.5 -12t41.5 -39l91 -164h-113l-67 125q-5 9 -20 9t-20 -9l-66 -125h-113z" />
    <glyph glyph-name="otilde" unicode="&#xf5;" horiz-adv-x="671" 
d="M51 0zM391 528q105 0 167 -65.5t62 -198.5q0 -134 -62 -199t-167 -65h-111q-106 0 -167.5 65t-61.5 199t61.5 199t167.5 65h111zM290 426q-69 0 -100.5 -38t-31.5 -124t31.5 -123.5t100.5 -37.5h91q69 0 100.5 37.5t31.5 123.5t-31.5 124t-100.5 38h-91zM565 717v-89
h-459v89h459z" />
    <glyph glyph-name="odieresis" unicode="&#xf6;" horiz-adv-x="671" 
d="M51 0zM391 528q105 0 167 -65.5t62 -198.5q0 -134 -62 -199t-167 -65h-111q-106 0 -167.5 65t-61.5 199t61.5 199t167.5 65h111zM290 426q-69 0 -100.5 -38t-31.5 -124t31.5 -123.5t100.5 -37.5h91q69 0 100.5 37.5t31.5 123.5t-31.5 124t-100.5 38h-91zM269 727v-123
h-107v123h107zM509 727v-123h-107v123h107z" />
    <glyph glyph-name="divide" unicode="&#xf7;" horiz-adv-x="619" 
d="M40 24zM578 373v-73h-538v73h538zM366 160v-136h-114v136h114zM366 652v-136h-114v136h114z" />
    <glyph glyph-name="oslash" unicode="&#xf8;" horiz-adv-x="671" 
d="M391 528q17 0 32.5 -2t30.5 -5l61 93h86l-79 -121q47 -31 72.5 -87.5t25.5 -141.5q0 -134 -62 -199t-167 -65h-111q-40 0 -73 9l-51 -78h-86l71 109q-44 31 -67 86.5t-23 137.5q0 134 61.5 199t167.5 65h111zM513 264q0 103 -49 140l-195 -300q5 -1 10 -1h11h91
q69 0 100.5 37.5t31.5 123.5zM290 426q-69 0 -100.5 -38t-31.5 -124q0 -98 42 -134l192 295q-2 0 -5 0.5t-6 0.5h-91z" />
    <glyph glyph-name="ugrave" unicode="&#xf9;" horiz-adv-x="702" 
d="M73 0zM180 528v-316q0 -47 33.5 -78t96.5 -31h86q63 0 96 31t33 78v316h104v-320q0 -46 -14.5 -84t-43.5 -65.5t-71.5 -43t-99.5 -15.5h-98q-57 0 -99.5 15.5t-71.5 43t-43.5 65.5t-14.5 84v320h107zM342 777l112 -215h-106l-124 215h118z" />
    <glyph glyph-name="uacute" unicode="&#xfa;" horiz-adv-x="702" 
d="M73 0zM180 528v-316q0 -47 33.5 -78t96.5 -31h86q63 0 96 31t33 78v316h104v-320q0 -46 -14.5 -84t-43.5 -65.5t-71.5 -43t-99.5 -15.5h-98q-57 0 -99.5 15.5t-71.5 43t-43.5 65.5t-14.5 84v320h107zM478 777l-125 -215h-105l112 215h118z" />
    <glyph glyph-name="ucircumflex" unicode="&#xfb;" horiz-adv-x="702" 
d="M73 0zM180 528v-316q0 -47 33.5 -78t96.5 -31h86q63 0 96 31t33 78v316h104v-320q0 -46 -14.5 -84t-43.5 -65.5t-71.5 -43t-99.5 -15.5h-98q-57 0 -99.5 15.5t-71.5 43t-43.5 65.5t-14.5 84v320h107zM242 726q14 28 42 39.5t68 11.5q39 0 66.5 -12t41.5 -39l91 -164h-113
l-67 125q-5 9 -20 9t-20 -9l-66 -125h-113z" />
    <glyph glyph-name="udieresis" unicode="&#xfc;" horiz-adv-x="702" 
d="M73 0zM180 528v-316q0 -47 33.5 -78t96.5 -31h86q63 0 96 31t33 78v316h104v-320q0 -46 -14.5 -84t-43.5 -65.5t-71.5 -43t-99.5 -15.5h-98q-57 0 -99.5 15.5t-71.5 43t-43.5 65.5t-14.5 84v320h107zM284 727v-123h-107v123h107zM524 727v-123h-107v123h107z" />
    <glyph glyph-name="yacute" unicode="&#xfd;" horiz-adv-x="647" 
d="M19 0zM628 528l-318 -740h-114l99 231q-45 0 -65.5 15t-33.5 50l-177 444h112l159 -393q5 -14 11 -18t21 -4h14l179 415h113zM448 777l-125 -215h-105l112 215h118z" />
    <glyph glyph-name="thorn" unicode="&#xfe;" horiz-adv-x="695" 
d="M183 757v-199q0 -17 7.5 -23.5t24.5 -6.5h201q105 0 166.5 -65.5t61.5 -199.5q0 -133 -61.5 -198t-166.5 -65h-201q-32 0 -32 -29v-183h-106v230q0 46 23.5 65.5t70.5 19.5h234q69 0 100.5 37.5t31.5 122.5q0 87 -31.5 125t-100.5 38h-234q-47 0 -70.5 19.5t-23.5 65.5
v246h106z" />
    <glyph glyph-name="ydieresis" unicode="&#xff;" horiz-adv-x="647" 
d="M19 0zM628 528l-318 -740h-114l99 231q-45 0 -65.5 15t-33.5 50l-177 444h112l159 -393q5 -14 11 -18t21 -4h14l179 415h113zM253 727v-123h-107v123h107zM493 727v-123h-107v123h107z" />
    <glyph glyph-name="Amacron" unicode="&#x100;" 
d="M19 0zM149 0h-130l237 600q19 48 53.5 67.5t88.5 19.5q53 0 87.5 -19.5t52.5 -67.5l228 -600h-131l-205 543q-9 23 -33 23t-34 -23zM622 864v-89h-459v89h459z" />
    <glyph glyph-name="amacron" unicode="&#x101;" horiz-adv-x="672" 
d="M65 0zM414 528q49 0 84 -13t57.5 -36.5t32.5 -55.5t10 -69v-248q0 -29 -4.5 -49t-16.5 -32.5t-33.5 -18.5t-54.5 -6h-247q-94 0 -135.5 43t-41.5 118q0 36 9.5 64t30.5 47.5t55 30t83 10.5h251v40q0 31 -18.5 52t-62.5 21h-316v102h317zM465 103q29 0 29 27v99h-249
q-42 0 -59 -16.5t-17 -45.5t17 -46.5t57 -17.5h222zM565 717v-89h-459v89h459z" />
    <glyph glyph-name="Abreve" unicode="&#x102;" 
d="M19 0zM149 0h-130l237 600q19 48 53.5 67.5t88.5 19.5q53 0 87.5 -19.5t52.5 -67.5l228 -600h-131l-205 543q-9 23 -33 23t-34 -23zM279 924v-56q0 -24 5 -40t18 -26.5t35 -15t57 -4.5q34 0 56 4.5t34.5 15t17.5 26.5t5 40v56h90v-57q0 -44 -9.5 -74t-33 -48.5t-62.5 -27
t-98 -8.5q-60 0 -99.5 8.5t-62.5 27t-32.5 48.5t-9.5 74v57h89z" />
    <glyph glyph-name="abreve" unicode="&#x103;" horiz-adv-x="672" 
d="M65 0zM414 528q49 0 84 -13t57.5 -36.5t32.5 -55.5t10 -69v-248q0 -29 -4.5 -49t-16.5 -32.5t-33.5 -18.5t-54.5 -6h-247q-94 0 -135.5 43t-41.5 118q0 36 9.5 64t30.5 47.5t55 30t83 10.5h251v40q0 31 -18.5 52t-62.5 21h-316v102h317zM465 103q29 0 29 27v99h-249
q-42 0 -59 -16.5t-17 -45.5t17 -46.5t57 -17.5h222zM228 777v-56q0 -24 5 -40t18 -26.5t35 -15t57 -4.5q34 0 56 4.5t34.5 15t17.5 26.5t5 40v56h90v-57q0 -44 -9.5 -74t-33 -48.5t-62.5 -27t-98 -8.5q-60 0 -99.5 8.5t-62.5 27t-32.5 48.5t-9.5 74v57h89z" />
    <glyph glyph-name="Aogonek" unicode="&#x104;" 
d="M644 -22l-214 565q-9 23 -33 23t-34 -23l-214 -543h-130l237 600q19 48 53.5 67.5t88.5 19.5q53 0 87.5 -19.5t52.5 -67.5l228 -600l-96 -41q-22 -10 -35 -24.5t-13 -38.5q0 -27 18 -43.5t51 -16.5h94v-100h-127q-66 0 -99 33t-33 84q0 45 23 70.5t65 42.5z" />
    <glyph glyph-name="aogonek" unicode="&#x105;" horiz-adv-x="672" 
d="M418 0h-176q-94 0 -135.5 43t-41.5 118q0 36 9.5 64t30.5 47.5t55 30t83 10.5h251v40q0 31 -18.5 52t-62.5 21h-316v102h317q49 0 84 -13t57.5 -36.5t32.5 -55.5t10 -69v-248q0 -29 -4.5 -49t-16.5 -32.5t-33.5 -18.5t-54.5 -6h-9l-96 -41q-22 -10 -35 -24.5t-13 -38.5
q0 -27 18 -43.5t51 -16.5h94v-100h-127q-66 0 -99 33t-33 84q0 45 23 70.5t65 42.5zM465 103q29 0 29 27v99h-249q-42 0 -59 -16.5t-17 -45.5t17 -46.5t57 -17.5h222z" />
    <glyph glyph-name="Cacute" unicode="&#x106;" horiz-adv-x="682" 
d="M57 0zM623 675v-118h-261q-98 0 -142.5 -51.5t-44.5 -168.5q0 -116 44 -167.5t143 -51.5h261v-118h-261q-148 0 -226.5 83.5t-78.5 253.5q0 171 78.5 254.5t226.5 83.5h261zM528 924l-125 -215h-105l112 215h118z" />
    <glyph glyph-name="cacute" unicode="&#x107;" horiz-adv-x="602" 
d="M51 0zM552 528v-102h-262q-69 0 -100.5 -38t-31.5 -124t31.5 -123.5t100.5 -37.5h262v-103h-272q-106 0 -167.5 65t-61.5 199t61.5 199t167.5 65h272zM470 777l-125 -215h-105l112 215h118z" />
    <glyph glyph-name="Cdotaccent" unicode="&#x10a;" horiz-adv-x="682" 
d="M57 0zM623 675v-118h-261q-98 0 -142.5 -51.5t-44.5 -168.5q0 -116 44 -167.5t143 -51.5h261v-118h-261q-148 0 -226.5 83.5t-78.5 253.5q0 171 78.5 254.5t226.5 83.5h261zM453 874v-123h-107v123h107z" />
    <glyph glyph-name="cdotaccent" unicode="&#x10b;" horiz-adv-x="602" 
d="M51 0zM552 528v-102h-262q-69 0 -100.5 -38t-31.5 -124t31.5 -123.5t100.5 -37.5h262v-103h-272q-106 0 -167.5 65t-61.5 199t61.5 199t167.5 65h272zM397 727v-123h-107v123h107z" />
    <glyph glyph-name="Ccaron" unicode="&#x10c;" horiz-adv-x="682" 
d="M57 0zM623 675v-118h-261q-98 0 -142.5 -51.5t-44.5 -168.5q0 -116 44 -167.5t143 -51.5h261v-118h-261q-148 0 -226.5 83.5t-78.5 253.5q0 171 78.5 254.5t226.5 83.5h261zM310 924l66 -124q6 -9 21 -9q6 0 11.5 2t7.5 7l67 124h113l-91 -163q-14 -28 -42 -40t-67 -12
t-67 12.5t-42 39.5l-90 163h113z" />
    <glyph glyph-name="ccaron" unicode="&#x10d;" horiz-adv-x="602" 
d="M51 0zM552 528v-102h-262q-69 0 -100.5 -38t-31.5 -124t31.5 -123.5t100.5 -37.5h262v-103h-272q-106 0 -167.5 65t-61.5 199t61.5 199t167.5 65h272zM253 777l66 -124q6 -9 21 -9q6 0 11.5 2t7.5 7l67 124h113l-91 -163q-14 -28 -42 -40t-67 -12t-67 12.5t-42 39.5
l-90 163h113z" />
    <glyph glyph-name="Dcaron" unicode="&#x10e;" horiz-adv-x="737" 
d="M82 0zM376 675q149 0 226.5 -83t77.5 -255q0 -171 -77.5 -254t-226.5 -83h-238q-56 0 -56 55v565q0 55 56 55h238zM200 130q0 -12 13 -12h163q98 0 142 52t44 168t-43.5 167.5t-142.5 51.5h-163q-13 0 -13 -12v-415zM245 924l66 -124q6 -9 21 -9q6 0 11.5 2t7.5 7l67 124
h113l-91 -163q-14 -28 -42 -40t-67 -12t-67 12.5t-42 39.5l-90 163h113z" />
    <glyph glyph-name="dcaron" unicode="&#x10f;" horiz-adv-x="794" 
d="M51 0zM620 757v-531q0 -115 -49.5 -170.5t-144.5 -55.5h-146q-106 0 -167.5 65t-61.5 199t61.5 199t167.5 65h233v229h107zM395 103q64 0 91 30t27 98v195h-223q-69 0 -100.5 -38t-31.5 -124t31.5 -123.5t100.5 -37.5h105zM820 756v-107q0 -133 -122 -133h-33v80h12
q37 0 37 42v118h106z" />
    <glyph glyph-name="Dcroat" unicode="&#x110;" horiz-adv-x="737" 
d="M11 0zM376 675q149 0 226.5 -83t77.5 -255q0 -171 -77.5 -254t-226.5 -83h-238q-56 0 -56 55v230h-71v107h71v228q0 55 56 55h238zM200 392h180v-107h-180v-155q0 -12 13 -12h163q98 0 142 52t44 168t-43.5 167.5t-142.5 51.5h-163q-13 0 -13 -12v-153z" />
    <glyph glyph-name="dmacron" unicode="&#x111;" horiz-adv-x="695" 
d="M513 717v40h107v-531q0 -115 -49.5 -170.5t-144.5 -55.5h-146q-106 0 -167.5 65t-61.5 199t61.5 199t167.5 65h233v100h-352v89h352zM395 103q64 0 91 30t27 98v195h-223q-69 0 -100.5 -38t-31.5 -124t31.5 -123.5t100.5 -37.5h105z" />
    <glyph glyph-name="Emacron" unicode="&#x112;" horiz-adv-x="693" 
d="M55 0zM621 675v-118h-338q-54 0 -78 -23t-24 -62q0 -80 103 -80h332v-107h-335q-103 0 -103 -82q0 -40 25 -62.5t77 -22.5h342v-118h-342q-60 0 -102.5 14t-70 38.5t-40 58.5t-12.5 73q0 58 25 96.5t72 58.5q-95 39 -95 152q0 40 13 74t40.5 58.5t70 38t102.5 13.5h338z
M615 864v-89h-459v89h459z" />
    <glyph glyph-name="emacron" unicode="&#x113;" horiz-adv-x="652" 
d="M65 0zM420 528q94 0 136 -42.5t42 -119.5q0 -73 -41 -112.5t-138 -39.5h-251v-38q0 -32 18.5 -52.5t62.5 -20.5h323v-103h-323q-50 0 -84.5 13t-57 36.5t-32.5 55t-10 69.5v180q0 37 10 69t32.5 55.5t57 36.5t84.5 13h171zM168 297h248q43 0 60.5 17t17.5 46q0 30 -18 48
t-57 18h-170q-44 0 -62.5 -21t-18.5 -52v-56zM555 717v-89h-459v89h459z" />
    <glyph glyph-name="Ebreve" unicode="&#x114;" horiz-adv-x="693" 
d="M55 0zM621 675v-118h-338q-54 0 -78 -23t-24 -62q0 -80 103 -80h332v-107h-335q-103 0 -103 -82q0 -40 25 -62.5t77 -22.5h342v-118h-342q-60 0 -102.5 14t-70 38.5t-40 58.5t-12.5 73q0 58 25 96.5t72 58.5q-95 39 -95 152q0 40 13 74t40.5 58.5t70 38t102.5 13.5h338z
M267 924v-56q0 -24 5 -40t18 -26.5t35 -15t57 -4.5q34 0 56 4.5t34.5 15t17.5 26.5t5 40v56h90v-57q0 -44 -9.5 -74t-33 -48.5t-62.5 -27t-98 -8.5q-60 0 -99.5 8.5t-62.5 27t-32.5 48.5t-9.5 74v57h89z" />
    <glyph glyph-name="ebreve" unicode="&#x115;" horiz-adv-x="652" 
d="M65 0zM420 528q94 0 136 -42.5t42 -119.5q0 -73 -41 -112.5t-138 -39.5h-251v-38q0 -32 18.5 -52.5t62.5 -20.5h323v-103h-323q-50 0 -84.5 13t-57 36.5t-32.5 55t-10 69.5v180q0 37 10 69t32.5 55.5t57 36.5t84.5 13h171zM168 297h248q43 0 60.5 17t17.5 46q0 30 -18 48
t-57 18h-170q-44 0 -62.5 -21t-18.5 -52v-56zM215 777v-56q0 -24 5 -40t18 -26.5t35 -15t57 -4.5q34 0 56 4.5t34.5 15t17.5 26.5t5 40v56h90v-57q0 -44 -9.5 -74t-33 -48.5t-62.5 -27t-98 -8.5q-60 0 -99.5 8.5t-62.5 27t-32.5 48.5t-9.5 74v57h89z" />
    <glyph glyph-name="Edotaccent" unicode="&#x116;" horiz-adv-x="693" 
d="M55 0zM621 675v-118h-338q-54 0 -78 -23t-24 -62q0 -80 103 -80h332v-107h-335q-103 0 -103 -82q0 -40 25 -62.5t77 -22.5h342v-118h-342q-60 0 -102.5 14t-70 38.5t-40 58.5t-12.5 73q0 58 25 96.5t72 58.5q-95 39 -95 152q0 40 13 74t40.5 58.5t70 38t102.5 13.5h338z
M434 874v-123h-107v123h107z" />
    <glyph glyph-name="edotaccent" unicode="&#x117;" horiz-adv-x="652" 
d="M65 0zM420 528q94 0 136 -42.5t42 -119.5q0 -73 -41 -112.5t-138 -39.5h-251v-38q0 -32 18.5 -52.5t62.5 -20.5h323v-103h-323q-50 0 -84.5 13t-57 36.5t-32.5 55t-10 69.5v180q0 37 10 69t32.5 55.5t57 36.5t84.5 13h171zM168 297h248q43 0 60.5 17t17.5 46q0 30 -18 48
t-57 18h-170q-44 0 -62.5 -21t-18.5 -52v-56zM386 727v-123h-107v123h107z" />
    <glyph glyph-name="Eogonek" unicode="&#x118;" horiz-adv-x="693" 
d="M560 0h-280q-60 0 -102.5 14t-70 38.5t-40 58.5t-12.5 73q0 58 25 96.5t72 58.5q-95 39 -95 152q0 40 13 74t40.5 58.5t70 38t102.5 13.5h338v-118h-338q-54 0 -78 -23t-24 -62q0 -80 103 -80h332v-107h-335q-103 0 -103 -82q0 -40 25 -62.5t77 -22.5h342v-118l-96 -41
q-22 -10 -35 -24.5t-13 -38.5q0 -27 18 -43.5t51 -16.5h94v-100h-127q-66 0 -99 33t-33 84q0 45 23 70.5t65 42.5z" />
    <glyph glyph-name="eogonek" unicode="&#x119;" horiz-adv-x="652" 
d="M510 0h-261q-50 0 -84.5 13t-57 36.5t-32.5 55t-10 69.5v180q0 37 10 69t32.5 55.5t57 36.5t84.5 13h171q94 0 136 -42.5t42 -119.5q0 -73 -41 -112.5t-138 -39.5h-251v-38q0 -32 18.5 -52.5t62.5 -20.5h323v-103l-96 -41q-22 -10 -35 -24.5t-13 -38.5q0 -27 18 -43.5
t51 -16.5h94v-100h-127q-66 0 -99 33t-33 84q0 45 23 70.5t65 42.5zM168 297h248q43 0 60.5 17t17.5 46q0 30 -18 48t-57 18h-170q-44 0 -62.5 -21t-18.5 -52v-56z" />
    <glyph glyph-name="Ecaron" unicode="&#x11a;" horiz-adv-x="693" 
d="M55 0zM621 675v-118h-338q-54 0 -78 -23t-24 -62q0 -80 103 -80h332v-107h-335q-103 0 -103 -82q0 -40 25 -62.5t77 -22.5h342v-118h-342q-60 0 -102.5 14t-70 38.5t-40 58.5t-12.5 73q0 58 25 96.5t72 58.5q-95 39 -95 152q0 40 13 74t40.5 58.5t70 38t102.5 13.5h338z
M299 924l66 -124q6 -9 21 -9q6 0 11.5 2t7.5 7l67 124h113l-91 -163q-14 -28 -42 -40t-67 -12t-67 12.5t-42 39.5l-90 163h113z" />
    <glyph glyph-name="ecaron" unicode="&#x11b;" horiz-adv-x="652" 
d="M65 0zM420 528q94 0 136 -42.5t42 -119.5q0 -73 -41 -112.5t-138 -39.5h-251v-38q0 -32 18.5 -52.5t62.5 -20.5h323v-103h-323q-50 0 -84.5 13t-57 36.5t-32.5 55t-10 69.5v180q0 37 10 69t32.5 55.5t57 36.5t84.5 13h171zM168 297h248q43 0 60.5 17t17.5 46q0 30 -18 48
t-57 18h-170q-44 0 -62.5 -21t-18.5 -52v-56zM239 777l66 -124q6 -9 21 -9q6 0 11.5 2t7.5 7l67 124h113l-91 -163q-14 -28 -42 -40t-67 -12t-67 12.5t-42 39.5l-90 163h113z" />
    <glyph glyph-name="Gbreve" unicode="&#x11e;" horiz-adv-x="729" 
d="M57 0zM640 675v-118h-278q-98 0 -142.5 -51.5t-44.5 -168.5q0 -116 44 -167.5t143 -51.5h112q50 0 72 26.5t22 68.5q0 41 -20.5 63.5t-62.5 22.5h-150v103h162q91 0 135 -51.5t44 -139.5q0 -44 -11.5 -82.5t-37 -67t-65 -45t-96.5 -16.5h-104q-148 0 -226.5 83.5
t-78.5 253.5q0 171 78.5 254.5t226.5 83.5h278zM280 924v-56q0 -24 5 -40t18 -26.5t35 -15t57 -4.5q34 0 56 4.5t34.5 15t17.5 26.5t5 40v56h90v-57q0 -44 -9.5 -74t-33 -48.5t-62.5 -27t-98 -8.5q-60 0 -99.5 8.5t-62.5 27t-32.5 48.5t-9.5 74v57h89z" />
    <glyph glyph-name="gbreve" unicode="&#x11f;" horiz-adv-x="692" 
d="M51 0zM426 528q95 0 144.5 -55.5t49.5 -170.5v-304q0 -56 -10.5 -96t-34 -65t-62 -36.5t-93.5 -11.5h-314v102h302q59 0 82 25t23 82v24h-233q-106 0 -167.5 62.5t-61.5 191.5q0 128 61.5 190t167.5 62h146zM158 272q0 -81 31.5 -117.5t100.5 -36.5h223v185q0 65 -27 94
t-91 29h-105q-69 0 -100.5 -36.5t-31.5 -117.5zM235 777v-56q0 -24 5 -40t18 -26.5t35 -15t57 -4.5q34 0 56 4.5t34.5 15t17.5 26.5t5 40v56h90v-57q0 -44 -9.5 -74t-33 -48.5t-62.5 -27t-98 -8.5q-60 0 -99.5 8.5t-62.5 27t-32.5 48.5t-9.5 74v57h89z" />
    <glyph glyph-name="Gdotaccent" unicode="&#x120;" horiz-adv-x="729" 
d="M57 0zM640 675v-118h-278q-98 0 -142.5 -51.5t-44.5 -168.5q0 -116 44 -167.5t143 -51.5h112q50 0 72 26.5t22 68.5q0 41 -20.5 63.5t-62.5 22.5h-150v103h162q91 0 135 -51.5t44 -139.5q0 -44 -11.5 -82.5t-37 -67t-65 -45t-96.5 -16.5h-104q-148 0 -226.5 83.5
t-78.5 253.5q0 171 78.5 254.5t226.5 83.5h278zM451 874v-123h-107v123h107z" />
    <glyph glyph-name="gdotaccent" unicode="&#x121;" horiz-adv-x="692" 
d="M51 0zM426 528q95 0 144.5 -55.5t49.5 -170.5v-304q0 -56 -10.5 -96t-34 -65t-62 -36.5t-93.5 -11.5h-314v102h302q59 0 82 25t23 82v24h-233q-106 0 -167.5 62.5t-61.5 191.5q0 128 61.5 190t167.5 62h146zM158 272q0 -81 31.5 -117.5t100.5 -36.5h223v185q0 65 -27 94
t-91 29h-105q-69 0 -100.5 -36.5t-31.5 -117.5zM401 727v-123h-107v123h107z" />
    <glyph glyph-name="Gcommaaccent" unicode="&#x122;" horiz-adv-x="729" 
d="M57 0zM640 675v-118h-278q-98 0 -142.5 -51.5t-44.5 -168.5q0 -116 44 -167.5t143 -51.5h112q50 0 72 26.5t22 68.5q0 41 -20.5 63.5t-62.5 22.5h-150v103h162q91 0 135 -51.5t44 -139.5q0 -44 -11.5 -82.5t-37 -67t-65 -45t-96.5 -16.5h-104q-148 0 -226.5 83.5
t-78.5 253.5q0 171 78.5 254.5t226.5 83.5h278zM447 -24v-107q0 -133 -122 -133h-33v80h12q37 0 37 42v118h106z" />
    <glyph glyph-name="gcommaaccent" unicode="&#x123;" horiz-adv-x="692" 
d="M51 0zM426 528q95 0 144.5 -55.5t49.5 -170.5v-304q0 -56 -10.5 -96t-34 -65t-62 -36.5t-93.5 -11.5h-314v102h302q59 0 82 25t23 82v24h-233q-106 0 -167.5 62.5t-61.5 191.5q0 128 61.5 190t167.5 62h146zM158 272q0 -81 31.5 -117.5t100.5 -36.5h223v185q0 65 -27 94
t-91 29h-105q-69 0 -100.5 -36.5t-31.5 -117.5zM456 840v-86h-20q-39 0 -39 -43v-149h-114v137q0 72 31.5 106.5t98.5 34.5h43z" />
    <glyph glyph-name="Hbar" unicode="&#x126;" horiz-adv-x="745" 
d="M200 675v-74h345v74h119v-74h71v-88h-71v-513h-119v282h-345v-282h-118v513h-71v88h71v74h118zM545 400v113h-345v-113h345z" />
    <glyph glyph-name="hbar" unicode="&#x127;" horiz-adv-x="707" 
d="M182 757v-40h353v-89h-353v-100h186q134 0 200 -61t66 -170v-297h-107v297q0 61 -38 95t-121 34h-186v-426h-106v757h106z" />
    <glyph glyph-name="Itilde" unicode="&#x128;" horiz-adv-x="359" 
d="M0 0zM239 675v-675h-118v675h118zM409 864v-89h-459v89h459z" />
    <glyph glyph-name="itilde" unicode="&#x129;" horiz-adv-x="397" 
d="M0 0zM429 717v-89h-459v89h459zM252 528v-528h-106v528h106z" />
    <glyph glyph-name="Imacron" unicode="&#x12a;" horiz-adv-x="359" 
d="M0 0zM239 675v-675h-118v675h118zM409 864v-89h-459v89h459z" />
    <glyph glyph-name="imacron" unicode="&#x12b;" horiz-adv-x="397" 
d="M0 0zM429 717v-89h-459v89h459zM252 528v-528h-106v528h106z" />
    <glyph glyph-name="Ibreve" unicode="&#x12c;" horiz-adv-x="376" 
d="M0 0zM247 675v-675h-118v675h118zM73 924v-56q0 -24 5 -40t18 -26.5t35 -15t57 -4.5q34 0 56 4.5t34.5 15t17.5 26.5t5 40v56h90v-57q0 -44 -9.5 -74t-33 -48.5t-62.5 -27t-98 -8.5q-60 0 -99.5 8.5t-62.5 27t-32.5 48.5t-9.5 74v57h89z" />
    <glyph glyph-name="ibreve" unicode="&#x12d;" horiz-adv-x="375" 
d="M0 0zM73 777v-56q0 -24 5 -40t18 -26.5t35 -15t57 -4.5q34 0 56 4.5t34.5 15t17.5 26.5t5 40v56h90v-57q0 -44 -9.5 -74t-33 -48.5t-62.5 -27t-98 -8.5q-60 0 -99.5 8.5t-62.5 27t-32.5 48.5t-9.5 74v57h89zM240 528v-528h-106v528h106z" />
    <glyph glyph-name="Iogonek" unicode="&#x12e;" horiz-adv-x="287" 
d="M88 -21v696h118v-675l-96 -41q-22 -10 -35 -24.5t-13 -38.5q0 -27 18 -43.5t51 -16.5h94v-100h-127q-66 0 -99 33t-33 84q0 45 23 70.5t65 42.5z" />
    <glyph glyph-name="iogonek" unicode="&#x12f;" horiz-adv-x="278" 
d="M202 528v-528l-96 -41q-22 -10 -35 -24.5t-13 -38.5q0 -27 18 -43.5t51 -16.5h94v-100h-127q-66 0 -99 33t-33 84q0 45 23 70.5t65 42.5l46 18v544h106zM203 727v-123h-107v123h107z" />
    <glyph glyph-name="Idotaccent" unicode="&#x130;" horiz-adv-x="281" 
d="M82 0zM200 675v-675h-118v675h118zM194 874v-123h-107v123h107z" />
    <glyph glyph-name="dotlessi" unicode="&#x131;" horiz-adv-x="258" 
d="M182 528v-528h-106v528h106z" />
    <glyph glyph-name="IJ" unicode="&#x132;" horiz-adv-x="825" 
d="M82 0zM200 675v-675h-118v675h118zM750 675v-442q0 -51 -14 -93.5t-44 -73.5t-77.5 -48.5t-114.5 -17.5h-229v118h222q40 0 66.5 9t42.5 24.5t22.5 37t6.5 45.5v441h119z" />
    <glyph glyph-name="ij" unicode="&#x133;" horiz-adv-x="523" 
d="M76 0zM182 528v-528h-106v528h106zM448 528v-558q0 -52 -9 -87t-28 -56t-48.5 -30t-69.5 -9h-93v102h69q39 0 55.5 17t16.5 62v559h107zM448 727v-123h-107v123h107zM183 727v-123h-107v123h107z" />
    <glyph glyph-name="Kcommaaccent" unicode="&#x136;" horiz-adv-x="708" 
d="M82 0zM200 675v-286h65q43 0 70.5 2.5t45.5 11.5t30.5 25.5t26.5 44.5l103 202h127l-106 -210q-23 -45 -49 -75t-68 -48q24 -6 42 -16.5t33.5 -26t29.5 -37t29 -50.5l109 -212h-132l-103 200q-14 27 -27 43t-33 25t-50 11.5t-78 2.5h-65v-282h-118v675h118zM415 -24v-107
q0 -133 -122 -133h-33v80h12q37 0 37 42v118h106z" />
    <glyph glyph-name="kcommaaccent" unicode="&#x137;" horiz-adv-x="602" 
d="M76 0zM182 757v-448h49q31 0 51.5 1.5t34.5 7.5t24 18t22 33l88 159h115l-92 -166q-20 -35 -41 -57.5t-53 -36.5q38 -11 61 -35.5t47 -66.5l95 -166h-119l-88 156q-12 21 -23 33.5t-26.5 19t-38 9t-57.5 2.5h-49v-220h-106v757h106zM373 -24v-107q0 -133 -122 -133h-33
v80h12q37 0 37 42v118h106z" />
    <glyph glyph-name="Lacute" unicode="&#x139;" horiz-adv-x="622" 
d="M61 0zM193 675v-441q0 -24 6.5 -45.5t22.5 -37t42.5 -24.5t66.5 -9h262v-118h-269q-67 0 -114.5 17.5t-77.5 48.5t-43.5 73.5t-13.5 93.5v442h118zM291 924l-125 -215h-105l112 215h118z" />
    <glyph glyph-name="lacute" unicode="&#x13a;" horiz-adv-x="268" 
d="M182 669v-669h-106v669h106zM277 906l-125 -215h-105l112 215h118z" />
    <glyph glyph-name="Lcommaaccent" unicode="&#x13b;" horiz-adv-x="622" 
d="M75 0zM193 675v-441q0 -24 6.5 -45.5t22.5 -37t42.5 -24.5t66.5 -9h262v-118h-269q-67 0 -114.5 17.5t-77.5 48.5t-43.5 73.5t-13.5 93.5v442h118zM396 -24v-107q0 -133 -122 -133h-33v80h12q37 0 37 42v118h106z" />
    <glyph glyph-name="lcommaaccent" unicode="&#x13c;" horiz-adv-x="258" 
d="M27 0zM182 757v-757h-106v757h106zM182 -24v-107q0 -133 -122 -133h-33v80h12q37 0 37 42v118h106z" />
    <glyph glyph-name="Lcaron" unicode="&#x13d;" horiz-adv-x="622" 
d="M75 0zM193 675v-441q0 -24 6.5 -45.5t22.5 -37t42.5 -24.5t66.5 -9h262v-118h-269q-67 0 -114.5 17.5t-77.5 48.5t-43.5 73.5t-13.5 93.5v442h118zM490 756v-107q0 -133 -122 -133h-33v80h12q37 0 37 42v118h106z" />
    <glyph glyph-name="lcaron" unicode="&#x13e;" horiz-adv-x="357" 
d="M76 0zM182 757v-757h-106v757h106zM383 756v-107q0 -133 -122 -133h-33v80h12q37 0 37 42v118h106z" />
    <glyph glyph-name="Lslash" unicode="&#x141;" horiz-adv-x="622" 
d="M193 675v-166l188 81v-98l-188 -81v-177q0 -24 6.5 -45.5t22.5 -37t42.5 -24.5t66.5 -9h262v-118h-269q-67 0 -114.5 17.5t-77.5 48.5t-43.5 73.5t-13.5 93.5v127l-67 -29v98l67 29v217h118z" />
    <glyph glyph-name="lslash" unicode="&#x142;" horiz-adv-x="373" 
d="M240 757v-158l133 58v-98l-133 -58v-501h-106v456l-134 -58v98l134 58v203h106z" />
    <glyph glyph-name="Nacute" unicode="&#x143;" horiz-adv-x="879" 
d="M81 0zM199 0h-118v540q0 66 38 106.5t117 40.5q70 0 106.5 -33.5t57.5 -91.5l197 -431q6 -12 16 -20t27 -8q19 0 29.5 10.5t10.5 27.5v534h119v-539q0 -67 -38.5 -107.5t-116.5 -40.5q-35 0 -61.5 8.5t-46 25t-33.5 39.5t-24 52l-197 431q-13 29 -42 29
q-20 0 -30.5 -10.5t-10.5 -28.5v-534zM572 924l-125 -215h-105l112 215h118z" />
    <glyph glyph-name="nacute" unicode="&#x144;" horiz-adv-x="707" 
d="M76 0zM368 528q135 0 200.5 -60.5t65.5 -170.5v-297h-107v297q0 63 -37.5 96t-121.5 33h-173q-13 0 -13 -15v-411h-106v446q0 47 17 64.5t57 17.5h218zM475 777l-125 -215h-105l112 215h118z" />
    <glyph glyph-name="Ncommaaccent" unicode="&#x145;" horiz-adv-x="879" 
d="M81 0zM199 0h-118v540q0 66 38 106.5t117 40.5q70 0 106.5 -33.5t57.5 -91.5l197 -431q6 -12 16 -20t27 -8q19 0 29.5 10.5t10.5 27.5v534h119v-539q0 -67 -38.5 -107.5t-116.5 -40.5q-35 0 -61.5 8.5t-46 25t-33.5 39.5t-24 52l-197 431q-13 29 -42 29
q-20 0 -30.5 -10.5t-10.5 -28.5v-534zM467 -24v-107q0 -133 -122 -133h-33v80h12q37 0 37 42v118h106z" />
    <glyph glyph-name="ncommaaccent" unicode="&#x146;" horiz-adv-x="707" 
d="M76 0zM368 528q135 0 200.5 -60.5t65.5 -170.5v-297h-107v297q0 63 -37.5 96t-121.5 33h-173q-13 0 -13 -15v-411h-106v446q0 47 17 64.5t57 17.5h218zM412 -24v-107q0 -133 -122 -133h-33v80h12q37 0 37 42v118h106z" />
    <glyph glyph-name="Ncaron" unicode="&#x147;" horiz-adv-x="879" 
d="M81 0zM199 0h-118v540q0 66 38 106.5t117 40.5q70 0 106.5 -33.5t57.5 -91.5l197 -431q6 -12 16 -20t27 -8q19 0 29.5 10.5t10.5 27.5v534h119v-539q0 -67 -38.5 -107.5t-116.5 -40.5q-35 0 -61.5 8.5t-46 25t-33.5 39.5t-24 52l-197 431q-13 29 -42 29
q-20 0 -30.5 -10.5t-10.5 -28.5v-534zM360 924l66 -124q6 -9 21 -9q6 0 11.5 2t7.5 7l67 124h113l-91 -163q-14 -28 -42 -40t-67 -12t-67 12.5t-42 39.5l-90 163h113z" />
    <glyph glyph-name="ncaron" unicode="&#x148;" horiz-adv-x="707" 
d="M76 0zM368 528q135 0 200.5 -60.5t65.5 -170.5v-297h-107v297q0 63 -37.5 96t-121.5 33h-173q-13 0 -13 -15v-411h-106v446q0 47 17 64.5t57 17.5h218zM262 777l66 -124q6 -9 21 -9q6 0 11.5 2t7.5 7l67 124h113l-91 -163q-14 -28 -42 -40t-67 -12t-67 12.5t-42 39.5
l-90 163h113z" />
    <glyph glyph-name="Eng" unicode="&#x14a;" horiz-adv-x="788" 
d="M408 675q75 0 130.5 -19t93 -54.5t56 -86t18.5 -113.5v-385q0 -65 -11 -109t-34.5 -70.5t-59 -38t-84.5 -11.5h-146v113h119q52 0 74.5 25t22.5 90v386q0 73 -42.5 114t-136.5 41h-196q-12 0 -12 -13v-544h-118v620q0 29 15 42t38 13h273z" />
    <glyph glyph-name="eng" unicode="&#x14b;" horiz-adv-x="707" 
d="M527 297q0 63 -37.5 96t-121.5 33h-173q-13 0 -13 -15v-411h-106v446q0 47 17 64.5t57 17.5h218q135 0 200.5 -60.5t65.5 -170.5v-327q0 -52 -9 -87t-28 -56t-48.5 -30t-69.5 -9h-93v102h69q39 0 55.5 17t16.5 62v328z" />
    <glyph glyph-name="Omacron" unicode="&#x14c;" horiz-adv-x="816" 
d="M57 0zM454 675q148 0 226.5 -84t78.5 -255q0 -170 -78.5 -253t-226.5 -83h-92q-148 0 -226.5 83t-78.5 253q0 171 78.5 255t226.5 84h92zM362 557q-98 0 -142.5 -52t-44.5 -169q0 -116 44 -167t143 -51h92q97 0 141.5 51.5t44.5 167.5t-44 168t-142 52h-92zM637 846v-89
h-459v89h459z" />
    <glyph glyph-name="omacron" unicode="&#x14d;" horiz-adv-x="671" 
d="M51 0zM391 528q105 0 167 -65.5t62 -198.5q0 -134 -62 -199t-167 -65h-111q-106 0 -167.5 65t-61.5 199t61.5 199t167.5 65h111zM290 426q-69 0 -100.5 -38t-31.5 -124t31.5 -123.5t100.5 -37.5h91q69 0 100.5 37.5t31.5 123.5t-31.5 124t-100.5 38h-91zM565 717v-89
h-459v89h459z" />
    <glyph glyph-name="Obreve" unicode="&#x14e;" horiz-adv-x="816" 
d="M57 0zM454 675q148 0 226.5 -84t78.5 -255q0 -170 -78.5 -253t-226.5 -83h-92q-148 0 -226.5 83t-78.5 253q0 171 78.5 255t226.5 84h92zM362 557q-98 0 -142.5 -52t-44.5 -169q0 -116 44 -167t143 -51h92q97 0 141.5 51.5t44.5 167.5t-44 168t-142 52h-92zM294 924v-56
q0 -24 5 -40t18 -26.5t35 -15t57 -4.5q34 0 56 4.5t34.5 15t17.5 26.5t5 40v56h90v-57q0 -44 -9.5 -74t-33 -48.5t-62.5 -27t-98 -8.5q-60 0 -99.5 8.5t-62.5 27t-32.5 48.5t-9.5 74v57h89z" />
    <glyph glyph-name="obreve" unicode="&#x14f;" horiz-adv-x="671" 
d="M51 0zM391 528q105 0 167 -65.5t62 -198.5q0 -134 -62 -199t-167 -65h-111q-106 0 -167.5 65t-61.5 199t61.5 199t167.5 65h111zM290 426q-69 0 -100.5 -38t-31.5 -124t31.5 -123.5t100.5 -37.5h91q69 0 100.5 37.5t31.5 123.5t-31.5 124t-100.5 38h-91zM221 777v-56
q0 -24 5 -40t18 -26.5t35 -15t57 -4.5q34 0 56 4.5t34.5 15t17.5 26.5t5 40v56h90v-57q0 -44 -9.5 -74t-33 -48.5t-62.5 -27t-98 -8.5q-60 0 -99.5 8.5t-62.5 27t-32.5 48.5t-9.5 74v57h89z" />
    <glyph glyph-name="Ohungarumlaut" unicode="&#x150;" horiz-adv-x="816" 
d="M57 0zM454 675q148 0 226.5 -84t78.5 -255q0 -170 -78.5 -253t-226.5 -83h-92q-148 0 -226.5 83t-78.5 253q0 171 78.5 255t226.5 84h92zM362 557q-98 0 -142.5 -52t-44.5 -169q0 -116 44 -167t143 -51h92q97 0 141.5 51.5t44.5 167.5t-44 168t-142 52h-92zM645 924
l-125 -215h-105l112 215h118zM426 924l-125 -215h-105l112 215h118z" />
    <glyph glyph-name="ohungarumlaut" unicode="&#x151;" horiz-adv-x="671" 
d="M51 0zM391 528q105 0 167 -65.5t62 -198.5q0 -134 -62 -199t-167 -65h-111q-106 0 -167.5 65t-61.5 199t61.5 199t167.5 65h111zM290 426q-69 0 -100.5 -38t-31.5 -124t31.5 -123.5t100.5 -37.5h91q69 0 100.5 37.5t31.5 123.5t-31.5 124t-100.5 38h-91zM571 777
l-125 -215h-105l112 215h118zM352 777l-125 -215h-105l112 215h118z" />
    <glyph glyph-name="OE" unicode="&#x152;" horiz-adv-x="1184" 
d="M1112 675v-118h-407q42 -65 51 -165h351v-107h-350q-9 -102 -50 -167h406v-118h-751q-148 0 -226.5 83t-78.5 253q0 171 78.5 255t226.5 84h750zM362 557q-98 0 -142.5 -52t-44.5 -168t44.5 -167.5t142.5 -51.5h92q97 0 141.5 51.5t44.5 167.5t-44 168t-142 52h-92z" />
    <glyph glyph-name="oe" unicode="&#x153;" horiz-adv-x="1103" 
d="M391 528q101 0 160 -58q22 27 58.5 42.5t90.5 15.5h171q94 0 136 -42.5t42 -119.5q0 -73 -41 -112.5t-138 -39.5h-251v-38q0 -32 18.5 -52.5t62.5 -20.5h323v-103h-323q-54 0 -90.5 15.5t-58.5 42.5q-59 -58 -160 -58h-111q-106 0 -167.5 65t-61.5 199t61.5 199t167.5 65
h111zM290 426q-69 0 -100.5 -38t-31.5 -124t31.5 -123.5t100.5 -37.5h91q69 0 100.5 37.5t31.5 123.5t-31.5 124t-100.5 38h-91zM619 297h248q43 0 60.5 17t17.5 46q0 30 -18 48t-57 18h-170q-44 0 -62.5 -21t-18.5 -52v-56z" />
    <glyph glyph-name="Racute" unicode="&#x154;" horiz-adv-x="714" 
d="M80 0zM446 675q57 0 98 -16.5t67.5 -44t39 -64.5t12.5 -77q0 -32 -8 -63.5t-25 -59t-44 -48.5t-66 -32l157 -270h-131l-154 261h-176q-17 0 -17 -17v-244h-118v267q0 57 25 82t81 25h263q25 0 43 8t29 21t16.5 30t5.5 35q0 36 -22.5 62.5t-71.5 26.5h-370v118h366z
M481 924l-125 -215h-105l112 215h118z" />
    <glyph glyph-name="racute" unicode="&#x155;" horiz-adv-x="463" 
d="M75 0zM435 528v-102h-186q-68 0 -68 -68v-358h-106v374q0 80 32.5 117t110.5 37h217zM392 777l-125 -215h-105l112 215h118z" />
    <glyph glyph-name="Rcommaaccent" unicode="&#x156;" horiz-adv-x="714" 
d="M80 0zM446 675q57 0 98 -16.5t67.5 -44t39 -64.5t12.5 -77q0 -32 -8 -63.5t-25 -59t-44 -48.5t-66 -32l157 -270h-131l-154 261h-176q-17 0 -17 -17v-244h-118v267q0 57 25 82t81 25h263q25 0 43 8t29 21t16.5 30t5.5 35q0 36 -22.5 62.5t-71.5 26.5h-370v118h366z
M413 -24v-107q0 -133 -122 -133h-33v80h12q37 0 37 42v118h106z" />
    <glyph glyph-name="rcommaaccent" unicode="&#x157;" horiz-adv-x="463" 
d="M25 0zM435 528v-102h-186q-68 0 -68 -68v-358h-106v374q0 80 32.5 117t110.5 37h217zM180 -24v-107q0 -133 -122 -133h-33v80h12q37 0 37 42v118h106z" />
    <glyph glyph-name="Rcaron" unicode="&#x158;" horiz-adv-x="714" 
d="M80 0zM446 675q57 0 98 -16.5t67.5 -44t39 -64.5t12.5 -77q0 -32 -8 -63.5t-25 -59t-44 -48.5t-66 -32l157 -270h-131l-154 261h-176q-17 0 -17 -17v-244h-118v267q0 57 25 82t81 25h263q25 0 43 8t29 21t16.5 30t5.5 35q0 36 -22.5 62.5t-71.5 26.5h-370v118h366z
M266 924l66 -124q6 -9 21 -9q6 0 11.5 2t7.5 7l67 124h113l-91 -163q-14 -28 -42 -40t-67 -12t-67 12.5t-42 39.5l-90 163h113z" />
    <glyph glyph-name="rcaron" unicode="&#x159;" horiz-adv-x="488" 
d="M71 0zM435 528v-102h-186q-68 0 -68 -68v-358h-106v374q0 80 32.5 117t110.5 37h217zM184 777l66 -124q6 -9 21 -9q6 0 11.5 2t7.5 7l67 124h113l-91 -163q-14 -28 -42 -40t-67 -12t-67 12.5t-42 39.5l-90 163h113z" />
    <glyph glyph-name="Sacute" unicode="&#x15a;" horiz-adv-x="703" 
d="M51 0zM603 675v-118h-346q-46 0 -67 -22.5t-21 -57.5q0 -15 4.5 -29.5t16 -26t30.5 -18t49 -6.5h158q69 0 113 -17.5t69.5 -45.5t35 -64t9.5 -72q0 -43 -12 -79t-38 -62.5t-66.5 -41.5t-98.5 -15h-376v118h380q48 0 70.5 23.5t22.5 60.5q0 16 -5 31.5t-17 27t-32.5 18.5
t-51.5 7h-157q-68 0 -111 17t-67.5 45t-34 63t-9.5 70q0 42 11.5 77.5t37 61.5t65.5 40.5t96 14.5h342zM482 924l-125 -215h-105l112 215h118z" />
    <glyph glyph-name="sacute" unicode="&#x15b;" horiz-adv-x="586" 
d="M51 0zM516 528v-102h-292q-37 0 -53 -15t-16 -45q0 -28 15.5 -42.5t59.5 -14.5h124q55 0 90.5 -12t56 -32t28.5 -47t8 -58q0 -35 -9.5 -64.5t-30.5 -50.5t-54 -33t-79 -12h-307v103h307q37 0 53 13.5t16 44.5q0 32 -17.5 45.5t-57.5 13.5h-125q-55 0 -90 12.5t-55.5 34
t-28.5 49.5t-8 58q0 71 40 112.5t132 41.5h293zM426 777l-125 -215h-105l112 215h118z" />
    <glyph glyph-name="Scedilla" unicode="&#x15e;" horiz-adv-x="703" 
d="M51 0zM603 675v-118h-346q-46 0 -67 -22.5t-21 -57.5q0 -15 4.5 -29.5t16 -26t30.5 -18t49 -6.5h158q69 0 113 -17.5t69.5 -45.5t35 -64t9.5 -72q0 -43 -12 -79t-38 -62.5t-66.5 -41.5t-98.5 -15h-376v118h380q48 0 70.5 23.5t22.5 60.5q0 16 -5 31.5t-17 27t-32.5 18.5
t-51.5 7h-157q-68 0 -111 17t-67.5 45t-34 63t-9.5 70q0 42 11.5 77.5t37 61.5t65.5 40.5t96 14.5h342zM406 -24v-107q0 -133 -122 -133h-33v80h12q37 0 37 42v118h106z" />
    <glyph glyph-name="scedilla" unicode="&#x15f;" horiz-adv-x="586" 
d="M51 0zM516 528v-102h-292q-37 0 -53 -15t-16 -45q0 -28 15.5 -42.5t59.5 -14.5h124q55 0 90.5 -12t56 -32t28.5 -47t8 -58q0 -35 -9.5 -64.5t-30.5 -50.5t-54 -33t-79 -12h-307v103h307q37 0 53 13.5t16 44.5q0 32 -17.5 45.5t-57.5 13.5h-125q-55 0 -90 12.5t-55.5 34
t-28.5 49.5t-8 58q0 71 40 112.5t132 41.5h293zM347 -24v-107q0 -133 -122 -133h-33v80h12q37 0 37 42v118h106z" />
    <glyph glyph-name="Scaron" unicode="&#x160;" horiz-adv-x="703" 
d="M51 0zM603 675v-118h-346q-46 0 -67 -22.5t-21 -57.5q0 -15 4.5 -29.5t16 -26t30.5 -18t49 -6.5h158q69 0 113 -17.5t69.5 -45.5t35 -64t9.5 -72q0 -43 -12 -79t-38 -62.5t-66.5 -41.5t-98.5 -15h-376v118h380q48 0 70.5 23.5t22.5 60.5q0 16 -5 31.5t-17 27t-32.5 18.5
t-51.5 7h-157q-68 0 -111 17t-67.5 45t-34 63t-9.5 70q0 42 11.5 77.5t37 61.5t65.5 40.5t96 14.5h342zM270 924l66 -124q6 -9 21 -9q6 0 11.5 2t7.5 7l67 124h113l-91 -163q-14 -28 -42 -40t-67 -12t-67 12.5t-42 39.5l-90 163h113z" />
    <glyph glyph-name="scaron" unicode="&#x161;" horiz-adv-x="586" 
d="M51 0zM516 528v-102h-292q-37 0 -53 -15t-16 -45q0 -28 15.5 -42.5t59.5 -14.5h124q55 0 90.5 -12t56 -32t28.5 -47t8 -58q0 -35 -9.5 -64.5t-30.5 -50.5t-54 -33t-79 -12h-307v103h307q37 0 53 13.5t16 44.5q0 32 -17.5 45.5t-57.5 13.5h-125q-55 0 -90 12.5t-55.5 34
t-28.5 49.5t-8 58q0 71 40 112.5t132 41.5h293zM216 777l66 -124q6 -9 21 -9q6 0 11.5 2t7.5 7l67 124h113l-91 -163q-14 -28 -42 -40t-67 -12t-67 12.5t-42 39.5l-90 163h113z" />
    <glyph glyph-name="Tcedilla" unicode="&#x162;" horiz-adv-x="571" 
d="M29 0zM542 675v-118h-197v-557h-119v557h-197v118h513zM339 -24v-107q0 -133 -122 -133h-33v80h12q37 0 37 42v118h106z" />
    <glyph glyph-name="tcedilla" unicode="&#x163;" horiz-adv-x="375" 
d="M23 0zM95 528v125h107v-125h146v-102h-146v-250q0 -45 16.5 -62t54.5 -17h73v-97h-95q-41 0 -70.5 9t-48.5 30t-28 56t-9 87v244h-72v102h72zM260 -24v-107q0 -133 -122 -133h-33v80h12q37 0 37 42v118h106z" />
    <glyph glyph-name="Tcaron" unicode="&#x164;" horiz-adv-x="571" 
d="M29 0zM542 675v-118h-197v-557h-119v557h-197v118h513zM199 924l66 -124q6 -9 21 -9q6 0 11.5 2t7.5 7l67 124h113l-91 -163q-14 -28 -42 -40t-67 -12t-67 12.5t-42 39.5l-90 163h113z" />
    <glyph glyph-name="tcaron" unicode="&#x165;" horiz-adv-x="491" 
d="M23 0zM95 528v125h107v-125h146v-102h-146v-250q0 -45 16.5 -62t54.5 -17h73v-97h-95q-41 0 -70.5 9t-48.5 30t-28 56t-9 87v244h-72v102h72zM517 756v-107q0 -133 -122 -133h-33v80h12q37 0 37 42v118h106z" />
    <glyph glyph-name="Tbar" unicode="&#x166;" horiz-adv-x="571" 
d="M226 356v201h-197v118h513v-118h-197v-201h170v-89h-170v-267h-119v267h-170v89h170z" />
    <glyph glyph-name="tbar" unicode="&#x167;" horiz-adv-x="386" 
d="M202 653v-125h146v-102h-146v-112h157v-88h-157v-50q0 -45 16.5 -62t54.5 -17h73v-97h-95q-41 0 -70.5 9t-48.5 30t-28 56t-9 87v44h-72v88h72v112h-72v102h72v125h107z" />
    <glyph glyph-name="Utilde" unicode="&#x168;" horiz-adv-x="732" 
d="M77 0zM197 675v-451q0 -51 26.5 -78.5t85.5 -27.5h120q57 0 84 27.5t27 78.5v451h116v-460q0 -107 -55 -161t-164 -54h-142q-218 0 -218 215v460h120zM595 864v-89h-459v89h459z" />
    <glyph glyph-name="utilde" unicode="&#x169;" horiz-adv-x="702" 
d="M73 0zM180 528v-316q0 -47 33.5 -78t96.5 -31h86q63 0 96 31t33 78v316h104v-320q0 -46 -14.5 -84t-43.5 -65.5t-71.5 -43t-99.5 -15.5h-98q-57 0 -99.5 15.5t-71.5 43t-43.5 65.5t-14.5 84v320h107zM581 717v-89h-459v89h459z" />
    <glyph glyph-name="Umacron" unicode="&#x16a;" horiz-adv-x="732" 
d="M77 0zM197 675v-451q0 -51 26.5 -78.5t85.5 -27.5h120q57 0 84 27.5t27 78.5v451h116v-460q0 -107 -55 -161t-164 -54h-142q-218 0 -218 215v460h120zM595 864v-89h-459v89h459z" />
    <glyph glyph-name="umacron" unicode="&#x16b;" horiz-adv-x="702" 
d="M73 0zM180 528v-316q0 -47 33.5 -78t96.5 -31h86q63 0 96 31t33 78v316h104v-320q0 -46 -14.5 -84t-43.5 -65.5t-71.5 -43t-99.5 -15.5h-98q-57 0 -99.5 15.5t-71.5 43t-43.5 65.5t-14.5 84v320h107zM581 717v-89h-459v89h459z" />
    <glyph glyph-name="Uring" unicode="&#x16e;" horiz-adv-x="732" 
d="M77 0zM197 675v-451q0 -51 26.5 -78.5t85.5 -27.5h120q57 0 84 27.5t27 78.5v451h116v-460q0 -107 -55 -161t-164 -54h-142q-218 0 -218 215v460h120zM400 924q46 0 73 -28t27 -87q0 -58 -27 -86.5t-73 -28.5h-69q-47 0 -73.5 28.5t-26.5 86.5q0 59 26.5 87t73.5 28h69z
M337 873q-27 0 -39 -15t-12 -49q0 -33 12 -48t39 -15h56q26 0 38.5 15t12.5 48q0 34 -12.5 49t-38.5 15h-56z" />
    <glyph glyph-name="uring" unicode="&#x16f;" horiz-adv-x="702" 
d="M73 0zM180 528v-316q0 -47 33.5 -78t96.5 -31h86q63 0 96 31t33 78v316h104v-320q0 -46 -14.5 -84t-43.5 -65.5t-71.5 -43t-99.5 -15.5h-98q-57 0 -99.5 15.5t-71.5 43t-43.5 65.5t-14.5 84v320h107zM386 806q46 0 73 -28t27 -87q0 -58 -27 -86.5t-73 -28.5h-69
q-47 0 -73.5 28.5t-26.5 86.5q0 59 26.5 87t73.5 28h69zM323 755q-27 0 -39 -15t-12 -49q0 -33 12 -48t39 -15h56q26 0 38.5 15t12.5 48q0 34 -12.5 49t-38.5 15h-56z" />
    <glyph glyph-name="Uhungarumlaut" unicode="&#x170;" horiz-adv-x="732" 
d="M77 0zM197 675v-451q0 -51 26.5 -78.5t85.5 -27.5h120q57 0 84 27.5t27 78.5v451h116v-460q0 -107 -55 -161t-164 -54h-142q-218 0 -218 215v460h120zM603 924l-125 -215h-105l112 215h118zM384 924l-125 -215h-105l112 215h118z" />
    <glyph glyph-name="uhungarumlaut" unicode="&#x171;" horiz-adv-x="702" 
d="M73 0zM180 528v-316q0 -47 33.5 -78t96.5 -31h86q63 0 96 31t33 78v316h104v-320q0 -46 -14.5 -84t-43.5 -65.5t-71.5 -43t-99.5 -15.5h-98q-57 0 -99.5 15.5t-71.5 43t-43.5 65.5t-14.5 84v320h107zM589 777l-125 -215h-105l112 215h118zM370 777l-125 -215h-105
l112 215h118z" />
    <glyph glyph-name="Uogonek" unicode="&#x172;" horiz-adv-x="732" 
d="M378 0h-83q-218 0 -218 215v460h120v-451q0 -51 26.5 -78.5t85.5 -27.5h120q57 0 84 27.5t27 78.5v451h116v-460q0 -106 -54.5 -160t-161.5 -55l-96 -41q-22 -10 -35 -24.5t-13 -38.5q0 -27 18 -43.5t51 -16.5h94v-100h-127q-66 0 -99 33t-33 84q0 45 23 70.5t65 42.5z
" />
    <glyph glyph-name="uogonek" unicode="&#x173;" horiz-adv-x="702" 
d="M357 0h-55q-57 0 -99.5 15.5t-71.5 43t-43.5 65.5t-14.5 84v320h107v-316q0 -47 33.5 -78t96.5 -31h86q63 0 96 31t33 78v316h104v-320q0 -45 -14 -82.5t-40.5 -65t-65.5 -43.5t-90 -17l-96 -41q-22 -10 -35 -24.5t-13 -38.5q0 -27 18 -43.5t51 -16.5h94v-100h-127
q-66 0 -99 33t-33 84q0 45 23 71t65 42z" />
    <glyph glyph-name="Wcircumflex" unicode="&#x174;" horiz-adv-x="1046" 
d="M33 0zM157 675l50 -527q2 -22 11.5 -33.5t29.5 -11.5q35 0 42 37l80 414q13 66 51 99.5t104 33.5t102.5 -33.5t48.5 -99.5l75 -414q6 -37 43 -37q20 0 29.5 11.5t11.5 33.5l57 527h123l-63 -534q-4 -33 -14 -61.5t-29 -48.5t-47 -31.5t-68 -11.5q-64 0 -103 32.5
t-52 104.5l-74 412q-6 36 -41 36q-34 0 -41 -36l-79 -412q-14 -69 -52.5 -103t-106.5 -34q-39 0 -66.5 11t-45.5 31.5t-28 48.5t-14 62l-58 534h124zM414 873q14 28 42 39.5t68 11.5q39 0 66.5 -12t41.5 -39l91 -164h-113l-67 125q-5 9 -20 9t-20 -9l-66 -125h-113z" />
    <glyph glyph-name="wcircumflex" unicode="&#x175;" horiz-adv-x="977" 
d="M30 0zM145 528l47 -412q2 -17 10.5 -25.5t27.5 -8.5q18 0 26.5 7.5t12.5 21.5l75 320q12 53 47 80t98 27t96 -27t45 -80l71 -320q6 -29 40 -29q18 0 26 8.5t10 25.5l55 412h115l-59 -418q-8 -55 -42 -88.5t-106 -33.5q-62 0 -96 27t-46 82l-71 321q-3 14 -13.5 20
t-25.5 6q-33 0 -39 -26l-75 -321q-13 -55 -48 -82t-98 -27q-37 0 -62.5 9t-42 25t-25.5 38.5t-13 49.5l-55 418h115zM379 726q14 28 42 39.5t68 11.5q39 0 66.5 -12t41.5 -39l91 -164h-113l-67 125q-5 9 -20 9t-20 -9l-66 -125h-113z" />
    <glyph glyph-name="Ycircumflex" unicode="&#x176;" horiz-adv-x="689" 
d="M13 0zM156 675l189 -289l191 289h140l-272 -384v-291h-119v291l-272 384h143zM235 873q14 28 42 39.5t68 11.5q39 0 66.5 -12t41.5 -39l91 -164h-113l-67 125q-5 9 -20 9t-20 -9l-66 -125h-113z" />
    <glyph glyph-name="ycircumflex" unicode="&#x177;" horiz-adv-x="647" 
d="M19 0zM628 528l-318 -740h-114l99 231q-45 0 -65.5 15t-33.5 50l-177 444h112l159 -393q5 -14 11 -18t21 -4h14l179 415h113zM208 726q14 28 42 39.5t68 11.5q39 0 66.5 -12t41.5 -39l91 -164h-113l-67 125q-5 9 -20 9t-20 -9l-66 -125h-113z" />
    <glyph glyph-name="Ydieresis" unicode="&#x178;" horiz-adv-x="689" 
d="M13 0zM156 675l189 -289l191 289h140l-272 -384v-291h-119v291l-272 384h143zM277 874v-123h-107v123h107zM517 874v-123h-107v123h107z" />
    <glyph glyph-name="Zacute" unicode="&#x179;" horiz-adv-x="743" 
d="M57 0zM524 675q81 0 122.5 -38.5t41.5 -109.5q0 -58 -27 -96.5t-81 -61.5l-368 -157q-16 -7 -25 -20t-9 -30q0 -20 12.5 -32t37.5 -12h445v-118h-453q-81 0 -122 38.5t-41 109.5q0 58 27 96.5t82 61.5l366 157q35 14 35 50q0 20 -12.5 32t-38.5 12h-435v118h443zM503 924
l-125 -215h-105l112 215h118z" />
    <glyph glyph-name="zacute" unicode="&#x17a;" horiz-adv-x="624" 
d="M51 0zM438 528q69 0 102.5 -33t33.5 -88q0 -49 -24 -80.5t-66 -46.5l-303 -110q-28 -11 -28 -36q0 -32 40 -32h370v-102h-376q-69 0 -102.5 33t-33.5 88q0 45 22 78t68 50l304 109q17 6 22.5 16t5.5 21q0 31 -41 31h-362v102h368zM438 777l-125 -215h-105l112 215h118z
" />
    <glyph glyph-name="Zdotaccent" unicode="&#x17b;" horiz-adv-x="743" 
d="M57 0zM524 675q81 0 122.5 -38.5t41.5 -109.5q0 -58 -27 -96.5t-81 -61.5l-368 -157q-16 -7 -25 -20t-9 -30q0 -20 12.5 -32t37.5 -12h445v-118h-453q-81 0 -122 38.5t-41 109.5q0 58 27 96.5t82 61.5l366 157q35 14 35 50q0 20 -12.5 32t-38.5 12h-435v118h443zM428 874
v-123h-107v123h107z" />
    <glyph glyph-name="zdotaccent" unicode="&#x17c;" horiz-adv-x="624" 
d="M51 0zM438 528q69 0 102.5 -33t33.5 -88q0 -49 -24 -80.5t-66 -46.5l-303 -110q-28 -11 -28 -36q0 -32 40 -32h370v-102h-376q-69 0 -102.5 33t-33.5 88q0 45 22 78t68 50l304 109q17 6 22.5 16t5.5 21q0 31 -41 31h-362v102h368zM371 727v-123h-107v123h107z" />
    <glyph glyph-name="Zcaron" unicode="&#x17d;" horiz-adv-x="743" 
d="M57 0zM524 675q81 0 122.5 -38.5t41.5 -109.5q0 -58 -27 -96.5t-81 -61.5l-368 -157q-16 -7 -25 -20t-9 -30q0 -20 12.5 -32t37.5 -12h445v-118h-453q-81 0 -122 38.5t-41 109.5q0 58 27 96.5t82 61.5l366 157q35 14 35 50q0 20 -12.5 32t-38.5 12h-435v118h443zM289 924
l66 -124q6 -9 21 -9q6 0 11.5 2t7.5 7l67 124h113l-91 -163q-14 -28 -42 -40t-67 -12t-67 12.5t-42 39.5l-90 163h113z" />
    <glyph glyph-name="zcaron" unicode="&#x17e;" horiz-adv-x="624" 
d="M51 0zM438 528q69 0 102.5 -33t33.5 -88q0 -49 -24 -80.5t-66 -46.5l-303 -110q-28 -11 -28 -36q0 -32 40 -32h370v-102h-376q-69 0 -102.5 33t-33.5 88q0 45 22 78t68 50l304 109q17 6 22.5 16t5.5 21q0 31 -41 31h-362v102h368zM225 777l66 -124q6 -9 21 -9q6 0 11.5 2
t7.5 7l67 124h113l-91 -163q-14 -28 -42 -40t-67 -12t-67 12.5t-42 39.5l-90 163h113z" />
    <glyph glyph-name="uni0180" unicode="&#x180;" horiz-adv-x="695" 
d="M182 757v-40h353v-89h-353v-100h234q105 0 166.5 -65.5t61.5 -198.5q0 -134 -61.5 -199t-166.5 -65h-146q-96 0 -145 55.5t-49 170.5v531h106zM182 426v-195q0 -68 27 -98t92 -30h104q69 0 100.5 37.5t31.5 123.5t-31.5 124t-100.5 38h-223z" />
    <glyph glyph-name="uni0181" unicode="&#x181;" horiz-adv-x="899" 
d="M616 675q60 0 102.5 -13.5t70 -38t40.5 -58.5t13 -75q0 -59 -24.5 -95t-72.5 -55q48 -20 74 -57.5t26 -96.5q0 -41 -13 -75t-40.5 -58.5t-70 -38.5t-102.5 -14h-300q-56 0 -56 55v529h-82q-32 0 -50 -19.5t-18 -61.5v-84h-106v72q0 100 38.5 142t112.5 42h458zM379 128
q0 -11 13 -11h230q54 0 79 23t25 65q0 87 -104 87h-243v-164zM379 390h240q104 0 104 81q0 40 -24.5 64t-78.5 24h-241v-169z" />
    <glyph glyph-name="uni0187" unicode="&#x187;" horiz-adv-x="752" 
d="M501 675q14 58 51.5 82.5t99.5 24.5h100v-97h-77q-38 0 -56.5 -20.5t-18.5 -68.5v-74h-107v35h-131q-98 0 -142.5 -51.5t-44.5 -168.5q0 -116 44 -167.5t143 -51.5h261v-118h-261q-148 0 -226.5 83.5t-78.5 253.5q0 171 78.5 254.5t226.5 83.5h139z" />
    <glyph glyph-name="uni0188" unicode="&#x188;" horiz-adv-x="682" 
d="M431 528q14 57 51 81t99 24h100v-97h-77q-38 0 -56.5 -20.5t-18.5 -68.5v-74h-107v53h-132q-69 0 -100.5 -38t-31.5 -124t31.5 -123.5t100.5 -37.5h262v-103h-272q-106 0 -167.5 65t-61.5 199t61.5 199t167.5 65h151z" />
    <glyph glyph-name="uni018A" unicode="&#x18a;" horiz-adv-x="915" 
d="M553 675q149 0 226.5 -83t77.5 -255q0 -171 -77.5 -254t-226.5 -83h-238q-56 0 -56 55v529h-78q-32 0 -50 -19.5t-18 -61.5v-84h-106v72q0 100 38.5 142t112.5 42h395zM377 130q0 -12 13 -12h163q98 0 142 52t44 168t-43.5 167.5t-142.5 51.5h-176v-427z" />
    <glyph glyph-name="uni018E" unicode="&#x18e;" horiz-adv-x="693" 
d="M410 675q60 0 102.5 -13.5t70 -38t40.5 -57.5t13 -72q0 -60 -24 -97.5t-71 -57.5q48 -20 72.5 -58.5t24.5 -99.5q0 -38 -13 -71t-40 -57.5t-69.5 -38.5t-102.5 -14h-341v118h341q52 0 77 22.5t25 63.5q0 81 -103 81h-334v107h331q52 0 77.5 19.5t25.5 61.5q0 38 -24 61
t-78 23h-337v118h337z" />
    <glyph glyph-name="uni018F" unicode="&#x18f;" horiz-adv-x="729" 
d="M267 0q-57 0 -96.5 16.5t-65 45t-37 67t-11.5 82.5q0 88 44 139t135 51h318q-11 82 -55 119t-128 37h-278v118h278q148 0 226.5 -83.5t78.5 -254.5q0 -170 -78.5 -253.5t-226.5 -83.5h-104zM371 118q91 0 135 42.5t51 138.5h-309q-42 0 -62.5 -22.5t-20.5 -63.5
q0 -42 22 -68.5t72 -26.5h112z" />
    <glyph glyph-name="florin" unicode="&#x192;" horiz-adv-x="375" 
d="M95 528v47q0 52 9 87t28 56t48.5 30t70.5 9h95v-97h-73q-38 0 -54.5 -17t-16.5 -62v-53h146v-102h-146v-456q0 -52 -9 -87t-28 -56t-48.5 -30t-69.5 -9h-93v102h69q39 0 55.5 17t16.5 62v457h-72v102h72z" />
    <glyph glyph-name="uni0194" unicode="&#x194;" 
d="M151 675l241 -399l243 399h132l-312 -502l72 -118q58 -101 58 -180q0 -63 -40.5 -101t-122.5 -38h-59q-82 0 -122.5 38t-40.5 101q0 79 58 180l72 118l-311 502h132zM392 73l-45 -73q-26 -43 -42 -81t-16 -65q0 -28 19 -44t62 -16h46q42 0 61 16t19 44q0 27 -15.5 65
t-42.5 81z" />
    <glyph glyph-name="uni0198" unicode="&#x198;" horiz-adv-x="767" 
d="M493 580q20 39 39 63t38.5 37.5t41 18t46.5 4.5h110v-97h-87q-12 0 -22 -2.5t-20 -10t-20 -21.5t-22 -38l-35 -69q-23 -45 -49 -75t-68 -48q24 -6 42 -16.5t33.5 -26t29.5 -37t29 -50.5l109 -212h-132l-103 200q-14 27 -27 43t-33 25t-50 11.5t-78 2.5h-65v-282h-118v675
h118v-286h65q43 0 70.5 2.5t45.5 11.5t30.5 25.5t26.5 44.5z" />
    <glyph glyph-name="uni0199" unicode="&#x199;" horiz-adv-x="602" 
d="M76 564q0 53 10 90t29.5 59.5t49.5 32.5t70 10h100v-97h-77q-38 0 -57 -20.5t-19 -68.5v-261h49q31 0 51.5 1.5t34.5 7.5t24 18t22 33l88 159h115l-92 -166q-20 -35 -41 -57.5t-53 -36.5q38 -11 61 -35.5t47 -66.5l95 -166h-119l-88 156q-12 21 -23 33.5t-26.5 19t-38 9
t-57.5 2.5h-49v-220h-106v564z" />
    <glyph glyph-name="uni019D" unicode="&#x19d;" horiz-adv-x="879" 
d="M81 540q0 66 38 106.5t117 40.5q70 0 106.5 -33.5t57.5 -91.5l197 -431q6 -12 16 -20t27 -8q19 0 29.5 10.5t10.5 27.5v534h119v-539q0 -67 -38.5 -107.5t-116.5 -40.5q-35 0 -61.5 8.5t-46 25t-33.5 39.5t-24 52l-197 431q-13 29 -42 29q-20 0 -30.5 -10.5t-10.5 -28.5
v-564q0 -52 -11 -87t-32 -56t-52 -30t-71 -9h-93v102h69q39 0 55.5 17t16.5 62v571z" />
    <glyph glyph-name="uni01A0" unicode="&#x1a0;" horiz-adv-x="816" 
d="M650 675q32 0 45.5 15t13.5 54v106h107v-105q0 -45 -7 -77t-22 -52t-38 -30.5t-55 -12.5q65 -85 65 -237q0 -170 -78.5 -253t-226.5 -83h-92q-148 0 -226.5 83t-78.5 253q0 171 78.5 255t226.5 84h288zM362 557q-98 0 -142.5 -52t-44.5 -168t44.5 -167.5t142.5 -51.5h92
q97 0 141.5 51.5t44.5 167.5t-44 168t-142 52h-92z" />
    <glyph glyph-name="uni01A1" unicode="&#x1a1;" horiz-adv-x="723" 
d="M546 528q32 0 45.5 15t13.5 54v106h107v-105q0 -93 -31 -131t-97 -41q17 -31 26.5 -71.5t9.5 -91.5q0 -133 -62 -198t-167 -65h-111q-106 0 -167.5 65t-61.5 198q0 135 61.5 200t167.5 65h266zM290 426q-69 0 -100.5 -38t-31.5 -125q0 -85 31.5 -122.5t100.5 -37.5h91
q69 0 100.5 37.5t31.5 122.5q0 87 -31.5 125t-100.5 38h-91z" />
    <glyph glyph-name="uni01AF" unicode="&#x1af;" horiz-adv-x="865" 
d="M197 675v-451q0 -51 26.5 -78.5t85.5 -27.5h120q57 0 84 27.5t27 78.5v451h159q32 0 45.5 15t13.5 54v106h107v-105q0 -49 -8.5 -82t-26 -53t-44.5 -28.5t-64 -8.5h-66v-358q0 -107 -55 -161t-164 -54h-142q-218 0 -218 215v460h120z" />
    <glyph glyph-name="uni01B0" unicode="&#x1b0;" horiz-adv-x="838" 
d="M180 528v-316q0 -47 33.5 -78t96.5 -31h86q63 0 96 31t33 78v316h147q32 0 45.5 15t13.5 54v106h107v-105q0 -49 -8.5 -82t-26 -53t-44.5 -28.5t-64 -8.5h-66v-218q0 -46 -14.5 -84t-43.5 -65.5t-71.5 -43t-99.5 -15.5h-98q-57 0 -99.5 15.5t-71.5 43t-43.5 65.5
t-14.5 84v320h107z" />
    <glyph glyph-name="uni01B3" unicode="&#x1b3;" horiz-adv-x="752" 
d="M404 291v-291h-119v291l-272 384h143l189 -289l140 211q22 33 41 53.5t38 32.5t39 16t44 4h105v-97h-82q-9 0 -17.5 -1.5t-18.5 -7t-21 -16.5t-24 -30z" />
    <glyph glyph-name="uni01B4" unicode="&#x1b4;" horiz-adv-x="765" 
d="M310 -212h-114l99 231q-45 0 -65.5 15t-33.5 50l-177 444h112l159 -393q5 -14 11 -18t21 -4h14l165 389q18 41 35.5 67t37.5 40.5t42.5 20t49.5 5.5h100v-97h-77q-22 0 -42.5 -9.5t-37.5 -48.5z" />
    <glyph glyph-name="uni01C4" unicode="&#x1c4;" horiz-adv-x="1480" 
d="M82 0zM376 675q149 0 226.5 -83t77.5 -255q0 -171 -77.5 -254t-226.5 -83h-238q-56 0 -56 55v565q0 55 56 55h238zM200 130q0 -12 13 -12h163q98 0 142 52t44 168t-43.5 167.5t-142.5 51.5h-163q-13 0 -13 -12v-415zM1261 675q81 0 122.5 -38.5t41.5 -109.5
q0 -58 -27 -96.5t-81 -61.5l-368 -157q-16 -7 -25 -20t-9 -30q0 -20 12.5 -32t37.5 -12h445v-118h-453q-81 0 -122 38.5t-41 109.5q0 58 27 96.5t82 61.5l366 157q35 14 35 50q0 20 -12.5 32t-38.5 12h-435v118h443zM1026 924l66 -124q6 -9 21 -9q6 0 11.5 2t7.5 7l67 124
h113l-91 -163q-14 -28 -42 -40t-67 -12t-67 12.5t-42 39.5l-90 163h113z" />
    <glyph glyph-name="uni01C5" unicode="&#x1c5;" horiz-adv-x="1360" 
d="M82 0zM376 675q149 0 226.5 -83t77.5 -255q0 -171 -77.5 -254t-226.5 -83h-238q-56 0 -56 55v565q0 55 56 55h238zM200 130q0 -12 13 -12h163q98 0 142 52t44 168t-43.5 167.5t-142.5 51.5h-163q-13 0 -13 -12v-415zM1175 528q69 0 102.5 -33t33.5 -88q0 -49 -24 -80.5
t-66 -46.5l-303 -110q-28 -11 -28 -36q0 -32 40 -32h370v-102h-376q-69 0 -102.5 33t-33.5 88q0 45 22 78t68 50l304 109q17 6 22.5 16t5.5 21q0 31 -41 31h-362v102h368zM962 777l66 -124q6 -9 21 -9q6 0 11.5 2t7.5 7l67 124h113l-91 -163q-14 -28 -42 -40t-67 -12
t-67 12.5t-42 39.5l-90 163h113z" />
    <glyph glyph-name="uni01C6" unicode="&#x1c6;" horiz-adv-x="1318" 
d="M51 0zM620 757v-531q0 -115 -49.5 -170.5t-144.5 -55.5h-146q-106 0 -167.5 65t-61.5 199t61.5 199t167.5 65h233v229h107zM395 103q64 0 91 30t27 98v195h-223q-69 0 -100.5 -38t-31.5 -124t31.5 -123.5t100.5 -37.5h105zM1133 528q69 0 102.5 -33t33.5 -88
q0 -49 -24 -80.5t-66 -46.5l-303 -110q-28 -11 -28 -36q0 -32 40 -32h370v-102h-376q-69 0 -102.5 33t-33.5 88q0 45 22 78t68 50l304 109q17 6 22.5 16t5.5 21q0 31 -41 31h-362v102h368zM920 777l66 -124q6 -9 21 -9q6 0 11.5 2t7.5 7l67 124h113l-91 -163
q-14 -28 -42 -40t-67 -12t-67 12.5t-42 39.5l-90 163h113z" />
    <glyph glyph-name="uni01DD" unicode="&#x1dd;" horiz-adv-x="652" 
d="M243 0q-94 0 -136 42.5t-42 119.5q0 36 9.5 64.5t31 48t55.5 29.5t83 10h251v38q0 32 -18.5 52.5t-62.5 20.5h-323v103h323q49 0 84 -13t57.5 -36.5t32.5 -55.5t10 -69v-180q0 -38 -10 -69.5t-32.5 -55t-57.5 -36.5t-84 -13h-171zM495 231h-248q-43 0 -60.5 -17
t-17.5 -46q0 -30 18 -48t57 -18h170q44 0 62.5 21t18.5 52v56z" />
    <glyph glyph-name="uni01E6" unicode="&#x1e6;" horiz-adv-x="729" 
d="M57 0zM640 675v-118h-278q-98 0 -142.5 -51.5t-44.5 -168.5q0 -116 44 -167.5t143 -51.5h112q50 0 72 26.5t22 68.5q0 41 -20.5 63.5t-62.5 22.5h-150v103h162q91 0 135 -51.5t44 -139.5q0 -44 -11.5 -82.5t-37 -67t-65 -45t-96.5 -16.5h-104q-148 0 -226.5 83.5
t-78.5 253.5q0 171 78.5 254.5t226.5 83.5h278zM316 924l66 -124q6 -9 21 -9q6 0 11.5 2t7.5 7l67 124h113l-91 -163q-14 -28 -42 -40t-67 -12t-67 12.5t-42 39.5l-90 163h113z" />
    <glyph glyph-name="uni01E7" unicode="&#x1e7;" horiz-adv-x="692" 
d="M51 0zM426 528q95 0 144.5 -55.5t49.5 -170.5v-304q0 -56 -10.5 -96t-34 -65t-62 -36.5t-93.5 -11.5h-314v102h302q59 0 82 25t23 82v24h-233q-106 0 -167.5 62.5t-61.5 191.5q0 128 61.5 190t167.5 62h146zM158 272q0 -81 31.5 -117.5t100.5 -36.5h223v185q0 65 -27 94
t-91 29h-105q-69 0 -100.5 -36.5t-31.5 -117.5zM260 777l66 -124q6 -9 21 -9q6 0 11.5 2t7.5 7l67 124h113l-91 -163q-14 -28 -42 -40t-67 -12t-67 12.5t-42 39.5l-90 163h113z" />
    <glyph glyph-name="uni01F0" unicode="&#x1f0;" horiz-adv-x="344" 
d="M0 0zM90 777l66 -124q6 -9 21 -9q6 0 11.5 2t7.5 7l67 124h113l-91 -163q-14 -28 -42 -40t-67 -12t-67 12.5t-42 39.5l-90 163h113zM233 528v-558q0 -52 -9 -87t-28 -56t-48.5 -30t-69.5 -9h-93v102h69q39 0 55.5 17t16.5 62v559h107z" />
    <glyph glyph-name="uni01F1" unicode="&#x1f1;" horiz-adv-x="1480" 
d="M82 0zM376 675q149 0 226.5 -83t77.5 -255q0 -171 -77.5 -254t-226.5 -83h-238q-56 0 -56 55v565q0 55 56 55h238zM200 130q0 -12 13 -12h163q98 0 142 52t44 168t-43.5 167.5t-142.5 51.5h-163q-13 0 -13 -12v-415zM1261 675q81 0 122.5 -38.5t41.5 -109.5
q0 -58 -27 -96.5t-81 -61.5l-368 -157q-16 -7 -25 -20t-9 -30q0 -20 12.5 -32t37.5 -12h445v-118h-453q-81 0 -122 38.5t-41 109.5q0 58 27 96.5t82 61.5l366 157q35 14 35 50q0 20 -12.5 32t-38.5 12h-435v118h443z" />
    <glyph glyph-name="uni01F2" unicode="&#x1f2;" horiz-adv-x="1360" 
d="M82 0zM376 675q149 0 226.5 -83t77.5 -255q0 -171 -77.5 -254t-226.5 -83h-238q-56 0 -56 55v565q0 55 56 55h238zM200 130q0 -12 13 -12h163q98 0 142 52t44 168t-43.5 167.5t-142.5 51.5h-163q-13 0 -13 -12v-415zM1175 528q69 0 102.5 -33t33.5 -88q0 -49 -24 -80.5
t-66 -46.5l-303 -110q-28 -11 -28 -36q0 -32 40 -32h370v-102h-376q-69 0 -102.5 33t-33.5 88q0 45 22 78t68 50l304 109q17 6 22.5 16t5.5 21q0 31 -41 31h-362v102h368z" />
    <glyph glyph-name="uni01F3" unicode="&#x1f3;" horiz-adv-x="1318" 
d="M51 0zM620 757v-531q0 -115 -49.5 -170.5t-144.5 -55.5h-146q-106 0 -167.5 65t-61.5 199t61.5 199t167.5 65h233v229h107zM395 103q64 0 91 30t27 98v195h-223q-69 0 -100.5 -38t-31.5 -124t31.5 -123.5t100.5 -37.5h105zM1133 528q69 0 102.5 -33t33.5 -88
q0 -49 -24 -80.5t-66 -46.5l-303 -110q-28 -11 -28 -36q0 -32 40 -32h370v-102h-376q-69 0 -102.5 33t-33.5 88q0 45 22 78t68 50l304 109q17 6 22.5 16t5.5 21q0 31 -41 31h-362v102h368z" />
    <glyph glyph-name="uni01F4" unicode="&#x1f4;" horiz-adv-x="729" 
d="M57 0zM640 675v-118h-278q-98 0 -142.5 -51.5t-44.5 -168.5q0 -116 44 -167.5t143 -51.5h112q50 0 72 26.5t22 68.5q0 41 -20.5 63.5t-62.5 22.5h-150v103h162q91 0 135 -51.5t44 -139.5q0 -44 -11.5 -82.5t-37 -67t-65 -45t-96.5 -16.5h-104q-148 0 -226.5 83.5
t-78.5 253.5q0 171 78.5 254.5t226.5 83.5h278zM529 924l-125 -215h-105l112 215h118z" />
    <glyph glyph-name="uni01F5" unicode="&#x1f5;" horiz-adv-x="692" 
d="M51 0zM426 528q95 0 144.5 -55.5t49.5 -170.5v-304q0 -56 -10.5 -96t-34 -65t-62 -36.5t-93.5 -11.5h-314v102h302q59 0 82 25t23 82v24h-233q-106 0 -167.5 62.5t-61.5 191.5q0 128 61.5 190t167.5 62h146zM158 272q0 -81 31.5 -117.5t100.5 -36.5h223v185q0 65 -27 94
t-91 29h-105q-69 0 -100.5 -36.5t-31.5 -117.5zM472 777l-125 -215h-105l112 215h118z" />
    <glyph glyph-name="uni01F8" unicode="&#x1f8;" horiz-adv-x="879" 
d="M81 0zM199 0h-118v540q0 66 38 106.5t117 40.5q70 0 106.5 -33.5t57.5 -91.5l197 -431q6 -12 16 -20t27 -8q19 0 29.5 10.5t10.5 27.5v534h119v-539q0 -67 -38.5 -107.5t-116.5 -40.5q-35 0 -61.5 8.5t-46 25t-33.5 39.5t-24 52l-197 431q-13 29 -42 29
q-20 0 -30.5 -10.5t-10.5 -28.5v-534zM431 924l112 -215h-106l-124 215h118z" />
    <glyph glyph-name="uni01F9" unicode="&#x1f9;" horiz-adv-x="707" 
d="M76 0zM368 528q135 0 200.5 -60.5t65.5 -170.5v-297h-107v297q0 63 -37.5 96t-121.5 33h-173q-13 0 -13 -15v-411h-106v446q0 47 17 64.5t57 17.5h218zM343 777l112 -215h-106l-124 215h118z" />
    <glyph glyph-name="Scommaaccent" unicode="&#x218;" horiz-adv-x="703" 
d="M51 0zM603 675v-118h-346q-46 0 -67 -22.5t-21 -57.5q0 -15 4.5 -29.5t16 -26t30.5 -18t49 -6.5h158q69 0 113 -17.5t69.5 -45.5t35 -64t9.5 -72q0 -43 -12 -79t-38 -62.5t-66.5 -41.5t-98.5 -15h-376v118h380q48 0 70.5 23.5t22.5 60.5q0 16 -5 31.5t-17 27t-32.5 18.5
t-51.5 7h-157q-68 0 -111 17t-67.5 45t-34 63t-9.5 70q0 42 11.5 77.5t37 61.5t65.5 40.5t96 14.5h342zM410 -24v-107q0 -133 -122 -133h-33v80h12q37 0 37 42v118h106z" />
    <glyph glyph-name="scommaaccent" unicode="&#x219;" horiz-adv-x="586" 
d="M51 0zM516 528v-102h-292q-37 0 -53 -15t-16 -45q0 -28 15.5 -42.5t59.5 -14.5h124q55 0 90.5 -12t56 -32t28.5 -47t8 -58q0 -35 -9.5 -64.5t-30.5 -50.5t-54 -33t-79 -12h-307v103h307q37 0 53 13.5t16 44.5q0 32 -17.5 45.5t-57.5 13.5h-125q-55 0 -90 12.5t-55.5 34
t-28.5 49.5t-8 58q0 71 40 112.5t132 41.5h293zM355 -24v-107q0 -133 -122 -133h-33v80h12q37 0 37 42v118h106z" />
    <glyph glyph-name="uni021A" unicode="&#x21a;" horiz-adv-x="571" 
d="M29 0zM542 675v-118h-197v-557h-119v557h-197v118h513zM339 -24v-107q0 -133 -122 -133h-33v80h12q37 0 37 42v118h106z" />
    <glyph glyph-name="uni021B" unicode="&#x21b;" horiz-adv-x="375" 
d="M23 0zM95 528v125h107v-125h146v-102h-146v-250q0 -45 16.5 -62t54.5 -17h73v-97h-95q-41 0 -70.5 9t-48.5 30t-28 56t-9 87v244h-72v102h72zM260 -24v-107q0 -133 -122 -133h-33v80h12q37 0 37 42v118h106z" />
    <glyph glyph-name="dotlessj" unicode="&#x237;" horiz-adv-x="270" 
d="M194 528v-558q0 -52 -9 -87t-28 -56t-48.5 -30t-69.5 -9h-93v102h69q39 0 55.5 17t16.5 62v559h107z" />
    <glyph glyph-name="uni0241" unicode="&#x241;" horiz-adv-x="505" 
d="M275 757q51 0 87 -12.5t59 -35t33.5 -54.5t10.5 -70q0 -35 -9.5 -66.5t-29 -55t-49.5 -37.5t-72 -14h-22q-33 0 -45 -15.5t-12 -41.5v-355h-107v377q0 61 26.5 94t94.5 33h45q38 0 56 22.5t18 54.5q0 34 -20 54t-65 20h-240v102h241z" />
    <glyph glyph-name="uni0242" unicode="&#x242;" horiz-adv-x="505" 
d="M275 528q51 0 87 -12.5t59 -35t33.5 -54t10.5 -69.5q0 -35 -9.5 -66.5t-29 -55t-49.5 -37.5t-72 -14h-22q-33 0 -45 -16t-12 -42v-126h-107v149q0 61 26.5 94t94.5 33h45q38 0 56 22t18 55t-20 53t-65 20h-240v102h241z" />
    <glyph glyph-name="uni024C" unicode="&#x24c;" horiz-adv-x="767" 
d="M499 675q57 0 98 -16.5t67.5 -44t39 -64.5t12.5 -77q0 -32 -8 -63.5t-25 -59t-44 -48.5t-66 -32l157 -270h-131l-154 261h-193v-261h-118v261h-126v113h495q25 0 43 8t29 21t16.5 30t5.5 35q0 36 -22.5 62.5t-71.5 26.5h-370v118h366z" />
    <glyph glyph-name="uni024D" unicode="&#x24d;" horiz-adv-x="508" 
d="M120 288v86q0 80 32.5 117t110.5 37h217v-102h-186q-68 0 -68 -68v-70h255v-89h-255v-199h-106v199h-98v89h98z" />
    <glyph glyph-name="uni0253" unicode="&#x253;" horiz-adv-x="695" 
d="M76 564q0 53 10 90t29.5 59.5t49.5 32.5t70 10h100v-97h-77q-38 0 -57 -20.5t-19 -68.5v-42h234q105 0 166.5 -65.5t61.5 -198.5q0 -134 -61.5 -199t-166.5 -65h-146q-96 0 -145 55.5t-49 170.5v338zM182 426v-195q0 -68 27 -98t92 -30h104q69 0 100.5 37.5t31.5 123.5
t-31.5 124t-100.5 38h-223z" />
    <glyph glyph-name="uni0257" unicode="&#x257;" horiz-adv-x="772" 
d="M513 565q0 53 10 90t29.5 59.5t49.5 32.5t70 10h100v-97h-77q-38 0 -56.5 -20.5t-18.5 -68.5v-345q0 -115 -49.5 -170.5t-144.5 -55.5h-146q-106 0 -167.5 65t-61.5 199t61.5 199t167.5 65h233v37zM395 103q64 0 91 30t27 98v195h-223q-69 0 -100.5 -38t-31.5 -124
t31.5 -123.5t100.5 -37.5h105z" />
    <glyph glyph-name="uni0263" unicode="&#x263;" horiz-adv-x="677" 
d="M143 528l195 -322l195 322h125l-268 -409q37 -63 59 -106t34 -73t15.5 -49t3.5 -32q0 -60 -34.5 -91.5t-104.5 -31.5h-51q-69 0 -104 31t-35 91q0 14 3.5 32.5t15 48t33.5 73t60 106.5l-267 410h125zM337 37q-26 -40 -42.5 -68.5t-26.5 -49t-14 -34.5t-4 -26
q0 -23 15.5 -35.5t52.5 -12.5h39q37 0 52 12.5t15 35.5q0 11 -4 25.5t-13.5 35t-26.5 49t-43 68.5z" />
    <glyph glyph-name="uni0272" unicode="&#x272;" horiz-adv-x="707" 
d="M76 446q0 47 17 64.5t57 17.5h218q135 0 200.5 -60.5t65.5 -170.5v-297h-107v297q0 63 -37.5 96t-121.5 33h-173q-13 0 -13 -15v-441q0 -52 -9 -87t-28 -56t-48.5 -30t-69.5 -9h-93v102h69q39 0 56 17t17 62v477z" />
    <glyph glyph-name="circumflex" unicode="&#x2c6;" horiz-adv-x="510" 
d="M144 726q14 28 42 39.5t68 11.5q39 0 66.5 -12t41.5 -39l91 -164h-113l-67 125q-5 9 -20 9t-20 -9l-66 -125h-113z" />
    <glyph glyph-name="caron" unicode="&#x2c7;" horiz-adv-x="510" 
d="M167 777l66 -124q6 -9 21 -9q6 0 11.5 2t7.5 7l67 124h113l-91 -163q-14 -28 -42 -40t-67 -12t-67 12.5t-42 39.5l-90 163h113z" />
    <glyph glyph-name="breve" unicode="&#x2d8;" horiz-adv-x="518" 
d="M143 777v-56q0 -24 5 -40t18 -26.5t35 -15t57 -4.5q34 0 56 4.5t34.5 15t17.5 26.5t5 40v56h90v-57q0 -44 -9.5 -74t-33 -48.5t-62.5 -27t-98 -8.5q-60 0 -99.5 8.5t-62.5 27t-32.5 48.5t-9.5 74v57h89z" />
    <glyph glyph-name="dotaccent" unicode="&#x2d9;" horiz-adv-x="218" 
d="M161 727v-123h-107v123h107z" />
    <glyph glyph-name="ring" unicode="&#x2da;" horiz-adv-x="383" 
d="M223 777q46 0 73 -28t27 -87q0 -58 -27 -86.5t-73 -28.5h-69q-47 0 -73.5 28.5t-26.5 86.5q0 59 26.5 87t73.5 28h69zM160 726q-27 0 -39 -15t-12 -49q0 -33 12 -48t39 -15h56q26 0 38.5 15t12.5 48q0 34 -12.5 49t-38.5 15h-56z" />
    <glyph glyph-name="ogonek" unicode="&#x2db;" horiz-adv-x="373" 
d="M232 0h62l-96 -41q-22 -10 -35 -24.5t-13 -38.5q0 -27 18 -43.5t51 -16.5h94v-100h-127q-66 0 -99 33t-33 84q0 45 23 70.5t65 42.5z" />
    <glyph glyph-name="tilde" unicode="&#x2dc;" horiz-adv-x="573" 
d="M54 628zM513 717v-89h-459v89h459z" />
    <glyph glyph-name="hungarumlaut" unicode="&#x2dd;" horiz-adv-x="563" 
d="M474 777l-125 -215h-105l112 215h118zM255 777l-125 -215h-105l112 215h118z" />
    <glyph glyph-name="gravecomb" unicode="&#x300;" horiz-adv-x="22" 
d="M-256 562zM-368 777l112 -215h-106l-124 215h118z" />
    <glyph glyph-name="acutecomb" unicode="&#x301;" horiz-adv-x="22" 
d="M-235 562zM-235 777l-125 -215h-105l112 215h118z" />
    <glyph glyph-name="uni0302" unicode="&#x302;" horiz-adv-x="22" 
d="M-155 562zM-464 726q14 28 42 39.5t68 11.5q39 0 66.5 -12t41.5 -39l91 -164h-113l-67 125q-5 9 -20 9t-20 -9l-66 -125h-113z" />
    <glyph glyph-name="tildecomb" unicode="&#x303;" horiz-adv-x="22" 
d="M-128 628zM-128 717v-89h-459v89h459z" />
    <glyph glyph-name="uni0304" unicode="&#x304;" horiz-adv-x="22" 
d="M-123 628zM-123 717v-89h-459v89h459z" />
    <glyph glyph-name="uni0306" unicode="&#x306;" horiz-adv-x="22" 
d="M-150 562zM-468 777v-56q0 -24 5 -40t18 -26.5t35 -15t57 -4.5q34 0 56 4.5t34.5 15t17.5 26.5t5 40v56h90v-57q0 -44 -9.5 -74t-33 -48.5t-62.5 -27t-98 -8.5q-60 0 -99.5 8.5t-62.5 27t-32.5 48.5t-9.5 74v57h89z" />
    <glyph glyph-name="uni0307" unicode="&#x307;" horiz-adv-x="22" 
d="M-307 604zM-307 727v-123h-107v123h107z" />
    <glyph glyph-name="uni0308" unicode="&#x308;" horiz-adv-x="22" 
d="M-183 604zM-423 727v-123h-107v123h107zM-183 727v-123h-107v123h107z" />
    <glyph glyph-name="hookabovecomb" unicode="&#x309;" horiz-adv-x="22" 
d="M-304 906q80 0 114.5 -36.5t34.5 -96.5q0 -28 -7.5 -52.5t-22.5 -43t-38.5 -29t-56.5 -10.5h-21q-29 0 -39 -12t-10 -37v-27h-74v44q0 55 21.5 81t80.5 26h26q29 0 42 16.5t13 40.5q0 25 -15 39.5t-49 14.5h-167v82h168z" />
    <glyph glyph-name="uni030A" unicode="&#x30a;" horiz-adv-x="22" 
d="M-222 547zM-322 777q46 0 73 -28t27 -87q0 -58 -27 -86.5t-73 -28.5h-69q-47 0 -73.5 28.5t-26.5 86.5q0 59 26.5 87t73.5 28h69zM-385 726q-27 0 -39 -15t-12 -49q0 -33 12 -48t39 -15h56q26 0 38.5 15t12.5 48q0 34 -12.5 49t-38.5 15h-56z" />
    <glyph glyph-name="uni030B" unicode="&#x30b;" horiz-adv-x="22" 
d="M-113 562zM-113 777l-125 -215h-105l112 215h118zM-332 777l-125 -215h-105l112 215h118z" />
    <glyph glyph-name="uni030C" unicode="&#x30c;" horiz-adv-x="22" 
d="M-155 562zM-441 777l66 -124q6 -9 21 -9q6 0 11.5 2t7.5 7l67 124h113l-91 -163q-14 -28 -42 -40t-67 -12t-67 12.5t-42 39.5l-90 163h113z" />
    <glyph glyph-name="uni0313" unicode="&#x313;" horiz-adv-x="22" 
d="M-245 840v-86h-20q-39 0 -39 -43v-149h-114v137q0 72 31.5 106.5t98.5 34.5h43z" />
    <glyph glyph-name="uni031B" unicode="&#x31b;" horiz-adv-x="153" 
d="M153 703v-105q0 -49 -8.5 -82t-26 -53t-44.5 -28.5t-64 -8.5h-170v102h147q32 0 45.5 15t13.5 54v106h107z" />
    <glyph glyph-name="dotbelowcomb" unicode="&#x323;" horiz-adv-x="22" 
d="M-304 -76zM-304 -76v-123h-107v123h107z" />
    <glyph glyph-name="uni0326" unicode="&#x326;" horiz-adv-x="22" 
d="M-294 -24zM-294 -24v-107q0 -133 -122 -133h-33v80h12q37 0 37 42v118h106z" />
    <glyph glyph-name="uni0328" unicode="&#x328;" horiz-adv-x="22" 
d="M-271 0zM-352 0h62l-96 -41q-22 -10 -35 -24.5t-13 -38.5q0 -27 18 -43.5t51 -16.5h94v-100h-127q-66 0 -99 33t-33 84q0 45 23 70.5t65 42.5z" />
    <glyph glyph-name="uni032D" unicode="&#x32d;" horiz-adv-x="22" 
d="M-160 -49zM-469 -100q14 28 42 39.5t68 11.5q39 0 66.5 -12t41.5 -39l91 -164h-113l-67 125q-5 9 -20 9t-20 -9l-66 -125h-113z" />
    <glyph glyph-name="tonos" unicode="&#x384;" horiz-adv-x="240" 
d="M180 777l-60 -215h-95l49 215h106z" />
    <glyph glyph-name="dieresistonos" unicode="&#x385;" horiz-adv-x="533" 
d="M44 562zM344 777l-60 -215h-95l49 215h106zM489 727v-123h-107v123h107zM151 727v-123h-107v123h107z" />
    <glyph glyph-name="Alphatonos" unicode="&#x386;" horiz-adv-x="827" 
d="M60 0zM625 139h-378l-55 -139h-130l237 600q17 48 52.5 67.5t89.5 19.5q53 0 88 -19.5t52 -67.5l228 -600h-131zM291 251h292l-110 292q-9 23 -33 23t-34 -23zM215 777l-60 -215h-95l49 215h106z" />
    <glyph glyph-name="anoteleia" unicode="&#x387;" horiz-adv-x="242" 
d="M64 252zM178 388v-136h-114v136h114z" />
    <glyph glyph-name="Epsilontonos" unicode="&#x388;" horiz-adv-x="797" 
d="M25 0zM724 675v-118h-338q-54 0 -78 -23t-24 -62q0 -80 103 -80h332v-107h-335q-103 0 -103 -82q0 -40 25 -62.5t77 -22.5h342v-118h-342q-60 0 -102.5 14t-70 38.5t-40 58.5t-12.5 73q0 58 25 96.5t72 58.5q-95 39 -95 152q0 40 13 74t40.5 58.5t70 38t102.5 13.5h338z
M180 777l-60 -215h-95l49 215h106z" />
    <glyph glyph-name="Etatonos" unicode="&#x389;" horiz-adv-x="872" 
d="M25 0zM327 675v-275h345v275h119v-675h-119v282h-345v-282h-118v675h118zM180 777l-60 -215h-95l49 215h106z" />
    <glyph glyph-name="Iotatonos" unicode="&#x38a;" horiz-adv-x="407" 
d="M25 0zM326 675v-675h-118v675h118zM180 777l-60 -215h-95l49 215h106z" />
    <glyph glyph-name="Omicrontonos" unicode="&#x38c;" horiz-adv-x="883" 
d="M25 0zM521 675q148 0 226.5 -84t78.5 -255q0 -170 -78.5 -253t-226.5 -83h-92q-148 0 -226.5 83t-78.5 253q0 171 78.5 255t226.5 84h92zM429 557q-98 0 -142.5 -52t-44.5 -169q0 -116 44 -167t143 -51h92q97 0 141.5 51.5t44.5 167.5t-44 168t-142 52h-92zM180 777
l-60 -215h-95l49 215h106z" />
    <glyph glyph-name="Upsilontonos" unicode="&#x38e;" horiz-adv-x="876" 
d="M25 0zM343 675l189 -289l191 289h140l-272 -384v-291h-119v291l-272 384h143zM180 777l-60 -215h-95l49 215h106z" />
    <glyph glyph-name="Omegatonos" unicode="&#x38f;" horiz-adv-x="884" 
d="M25 0zM574 675q120 0 189.5 -59.5t69.5 -177.5q0 -72 -26.5 -121t-77.5 -83l-88 -67q-20 -15 -20 -29q0 -9 6 -14.5t21 -5.5h208v-118h-191q-38 0 -63.5 8.5t-41.5 24t-22.5 37.5t-6.5 49q0 38 12.5 67.5t41.5 48.5l72 59q29 23 43 50.5t14 71.5q0 69 -35.5 105
t-113.5 36h-157q-78 0 -113.5 -36t-35.5 -105q0 -44 14.5 -71.5t43.5 -50.5l71 -59q29 -19 41.5 -48.5t12.5 -67.5q0 -27 -6.5 -49t-22.5 -37.5t-41.5 -24t-63.5 -8.5h-190v118h208q26 0 26 20q0 14 -20 29l-88 67q-51 34 -77.5 83t-26.5 121q0 118 69.5 177.5t189.5 59.5
h175zM180 777l-60 -215h-95l49 215h106z" />
    <glyph glyph-name="iotadieresistonos" unicode="&#x390;" horiz-adv-x="451" 
d="M0 0zM236 528v-352q0 -44 16.5 -61.5t54.5 -17.5h74v-97h-97q-40 0 -69 9t-48 30t-28 56t-9 87v346h106zM288 777l-60 -215h-95l49 215h106zM433 727v-123h-107v123h107zM95 727v-123h-107v123h107z" />
    <glyph glyph-name="Alpha" unicode="&#x391;" 
d="M582 139h-378l-55 -139h-130l237 600q17 48 52.5 67.5t89.5 19.5q53 0 88 -19.5t52 -67.5l228 -600h-131zM248 251h292l-110 292q-9 23 -33 23t-34 -23z" />
    <glyph glyph-name="Beta" unicode="&#x392;" horiz-adv-x="719" 
d="M82 0zM435 675q60 0 102.5 -13.5t70 -38t40.5 -58.5t13 -75q0 -59 -24.5 -95t-72.5 -55q48 -20 74 -57.5t26 -96.5q0 -41 -13 -75t-40.5 -58.5t-70 -38.5t-102.5 -14h-300q-56 0 -56 55v565q0 55 56 55h297zM198 128q0 -11 13 -11h230q54 0 79 23t25 65q0 87 -104 87
h-243v-164zM198 390h240q104 0 104 81q0 40 -24.5 64t-78.5 24h-228q-13 0 -13 -12v-157z" />
    <glyph glyph-name="Gamma" unicode="&#x393;" horiz-adv-x="622" 
d="M75 0zM593 675v-118h-262q-40 0 -66.5 -9t-42.5 -24.5t-22.5 -37t-6.5 -45.5v-441h-118v442q0 51 13.5 93.5t43.5 73.5t77.5 48.5t114.5 17.5h269z" />
    <glyph glyph-name="Delta" unicode="&#x394;" 
d="M191 134q-3 -16 11 -16h384q17 0 11 16l-168 409q-10 23 -35 23q-24 0 -34 -23zM252 600q18 48 53.5 67.5t88.5 19.5q54 0 89.5 -19.5t52.5 -67.5l216 -545q9 -23 -0.5 -39t-38.5 -16h-637q-29 0 -38.5 16t-1.5 39z" />
    <glyph glyph-name="Epsilon" unicode="&#x395;" horiz-adv-x="693" 
d="M55 0zM621 675v-118h-338q-54 0 -78 -23t-24 -62q0 -80 103 -80h332v-107h-335q-103 0 -103 -82q0 -40 25 -62.5t77 -22.5h342v-118h-342q-60 0 -102.5 14t-70 38.5t-40 58.5t-12.5 73q0 58 25 96.5t72 58.5q-95 39 -95 152q0 40 13 74t40.5 58.5t70 38t102.5 13.5h338z
" />
    <glyph glyph-name="Zeta" unicode="&#x396;" horiz-adv-x="743" 
d="M57 0zM524 675q81 0 122.5 -38.5t41.5 -109.5q0 -58 -27 -96.5t-81 -61.5l-368 -157q-16 -7 -25 -20t-9 -30q0 -20 12.5 -32t37.5 -12h445v-118h-453q-81 0 -122 38.5t-41 109.5q0 58 27 96.5t82 61.5l366 157q35 14 35 50q0 20 -12.5 32t-38.5 12h-435v118h443z" />
    <glyph glyph-name="Eta" unicode="&#x397;" horiz-adv-x="745" 
d="M82 0zM200 675v-275h345v275h119v-675h-119v282h-345v-282h-118v675h118z" />
    <glyph glyph-name="Theta" unicode="&#x398;" horiz-adv-x="816" 
d="M550 392v-107h-285v107h285zM454 675q148 0 226.5 -84t78.5 -255q0 -170 -78.5 -253t-226.5 -83h-92q-148 0 -226.5 83t-78.5 253q0 171 78.5 255t226.5 84h92zM362 557q-98 0 -142.5 -52t-44.5 -168t44.5 -167.5t142.5 -51.5h92q97 0 141.5 51.5t44.5 167.5t-44 168
t-142 52h-92z" />
    <glyph glyph-name="Iota" unicode="&#x399;" horiz-adv-x="281" 
d="M82 0zM200 675v-675h-118v675h118z" />
    <glyph glyph-name="Kappa" unicode="&#x39a;" horiz-adv-x="708" 
d="M82 0zM200 675v-286h65q43 0 70.5 2.5t45.5 11.5t30.5 25.5t26.5 44.5l103 202h127l-106 -210q-23 -45 -49 -75t-68 -48q24 -6 42 -16.5t33.5 -26t29.5 -37t29 -50.5l109 -212h-132l-103 200q-14 27 -27 43t-33 25t-50 11.5t-78 2.5h-65v-282h-118v675h118z" />
    <glyph glyph-name="Lambda" unicode="&#x39b;" 
d="M19 0zM149 0h-130l237 600q19 48 53.5 67.5t88.5 19.5q53 0 87.5 -19.5t52.5 -67.5l228 -600h-131l-205 543q-9 23 -33 23t-34 -23z" />
    <glyph glyph-name="Mu" unicode="&#x39c;" horiz-adv-x="1102" 
d="M81 0zM198 0h-117v536q0 68 40 109.5t122 41.5q72 0 114 -34.5t56 -98.5l95 -413q9 -38 45 -38q35 0 45 38l95 413q14 64 53.5 98.5t112.5 34.5q82 0 122 -41.5t40 -109.5v-536h-117v530q0 20 -12.5 31.5t-35.5 11.5q-21 0 -32 -9.5t-15 -26.5l-97 -413
q-16 -67 -53 -101.5t-107 -34.5q-71 0 -109.5 35t-53.5 101l-96 413q-4 17 -15.5 26.5t-31.5 9.5q-23 0 -35.5 -11.5t-12.5 -31.5v-530z" />
    <glyph glyph-name="Nu" unicode="&#x39d;" horiz-adv-x="879" 
d="M81 0zM199 0h-118v540q0 66 38 106.5t117 40.5q70 0 106.5 -33.5t57.5 -91.5l197 -431q6 -12 16 -20t27 -8q19 0 29.5 10.5t10.5 27.5v534h119v-539q0 -67 -38.5 -107.5t-116.5 -40.5q-35 0 -61.5 8.5t-46 25t-33.5 39.5t-24 52l-197 431q-13 29 -42 29
q-20 0 -30.5 -10.5t-10.5 -28.5v-534z" />
    <glyph glyph-name="Xi" unicode="&#x39e;" horiz-adv-x="677" 
d="M605 118v-118h-533v118h533zM604 675v-118h-531v118h531zM599 392v-107h-521v107h521z" />
    <glyph glyph-name="Omicron" unicode="&#x39f;" horiz-adv-x="816" 
d="M57 0zM454 675q148 0 226.5 -84t78.5 -255q0 -170 -78.5 -253t-226.5 -83h-92q-148 0 -226.5 83t-78.5 253q0 171 78.5 255t226.5 84h92zM362 557q-98 0 -142.5 -52t-44.5 -169q0 -116 44 -167t143 -51h92q97 0 141.5 51.5t44.5 167.5t-44 168t-142 52h-92z" />
    <glyph glyph-name="Pi" unicode="&#x3a0;" horiz-adv-x="745" 
d="M82 0zM607 675q57 0 57 -55v-620h-119v545q0 12 -12 12h-320q-13 0 -13 -12v-545h-118v620q0 55 56 55h469z" />
    <glyph glyph-name="Rho" unicode="&#x3a1;" horiz-adv-x="679" 
d="M80 0zM426 675q57 0 98 -16.5t67.5 -44t39 -64.5t12.5 -77q0 -38 -11.5 -76t-37.5 -68t-67.5 -49t-100.5 -19h-210q-17 0 -17 -17v-244h-118v267q0 57 25 82t81 25h243q25 0 43 8t29 21t16.5 29.5t5.5 34.5q0 37 -22.5 63.5t-70.5 26.5h-351v118h346z" />
    <glyph glyph-name="Sigma" unicode="&#x3a3;" horiz-adv-x="678" 
d="M618 675v-118h-400q-21 0 -30 -9.5t-9 -26.5q0 -24 32 -37l240 -87q32 -9 43 -24t11 -35q0 -21 -11 -36t-43 -24l-240 -87q-32 -13 -32 -37q0 -17 9 -26.5t30 -9.5h400v-118h-418q-79 0 -112 36t-33 102q0 22 4.5 42t17 37t34 31t55.5 25l172 64l-172 65q-34 11 -55.5 25
t-34 31t-17 36.5t-4.5 42.5q0 66 33 102t112 36h418z" />
    <glyph glyph-name="Tau" unicode="&#x3a4;" horiz-adv-x="571" 
d="M29 0zM542 675v-118h-197v-557h-119v557h-197v118h513z" />
    <glyph glyph-name="Upsilon" unicode="&#x3a5;" horiz-adv-x="689" 
d="M13 0zM156 675l189 -289l191 289h140l-272 -384v-291h-119v291l-272 384h143z" />
    <glyph glyph-name="Phi" unicode="&#x3a6;" horiz-adv-x="850" 
d="M57 0zM366 599v76h118v-76h38q130 0 200.5 -63.5t70.5 -199.5q0 -135 -70 -197t-201 -62h-38v-77h-118v77h-37q-132 0 -202 62t-70 197q0 136 70.5 199.5t201.5 63.5h37zM484 473v-270h38q80 0 116.5 30.5t36.5 103.5t-37 104.5t-116 31.5h-38zM366 203v270h-37
q-80 0 -117 -31.5t-37 -104.5t36.5 -103.5t117.5 -30.5h37z" />
    <glyph glyph-name="Chi" unicode="&#x3a7;" horiz-adv-x="781" 
d="M19 0zM191 675l207 -249l217 249h146l-289 -332l291 -343h-144l-224 268l-230 -268h-146l302 352l-274 323h144z" />
    <glyph glyph-name="Psi" unicode="&#x3a8;" horiz-adv-x="857" 
d="M487 675v-406h58q63 0 92.5 30t29.5 87v289h116v-293q0 -112 -58 -168.5t-171 -56.5h-67v-157h-118v157h-66q-114 0 -171.5 56.5t-57.5 168.5v293h120v-289q0 -57 29.5 -87t92.5 -30h53v406h118z" />
    <glyph glyph-name="Omega" unicode="&#x3a9;" horiz-adv-x="795" 
d="M485 675q120 0 189.5 -59.5t69.5 -177.5q0 -72 -26.5 -121t-77.5 -83l-88 -67q-20 -15 -20 -29q0 -9 6 -14.5t21 -5.5h208v-118h-191q-38 0 -63.5 8.5t-41.5 24t-22.5 37.5t-6.5 49q0 38 12.5 67.5t41.5 48.5l72 59q29 23 43 50.5t14 71.5q0 69 -35.5 105t-113.5 36h-157
q-78 0 -113.5 -36t-35.5 -105q0 -44 14.5 -71.5t43.5 -50.5l71 -59q29 -19 41.5 -48.5t12.5 -67.5q0 -27 -6.5 -49t-22.5 -37.5t-41.5 -24t-63.5 -8.5h-190v118h208q26 0 26 20q0 14 -20 29l-88 67q-51 34 -77.5 83t-26.5 121q0 118 69.5 177.5t189.5 59.5h175z" />
    <glyph glyph-name="Iotadieresis" unicode="&#x3aa;" horiz-adv-x="294" 
d="M0 0zM210 675v-675h-118v675h118zM81 874v-123h-107v123h107zM321 874v-123h-107v123h107z" />
    <glyph glyph-name="Upsilondieresis" unicode="&#x3ab;" horiz-adv-x="689" 
d="M13 0zM156 675l189 -289l191 289h140l-272 -384v-291h-119v291l-272 384h143zM277 874v-123h-107v123h107zM517 874v-123h-107v123h107z" />
    <glyph glyph-name="alphatonos" unicode="&#x3ac;" horiz-adv-x="737" 
d="M51 0zM342 528q81 0 129.5 -28.5t79.5 -85.5l41 114h111l-93 -264l93 -264h-111l-41 114q-31 -57 -79.5 -85.5t-129.5 -28.5h-62q-106 0 -167.5 65t-61.5 199t61.5 199t167.5 65h62zM332 103q34 0 57.5 6t40 20t29 38t24.5 59l13 38l-13 38q-12 35 -24.5 59t-29 38.5
t-40 20.5t-57.5 6h-42q-69 0 -100.5 -38t-31.5 -124t31.5 -123.5t100.5 -37.5h42zM421 777l-60 -215h-95l49 215h106z" />
    <glyph glyph-name="epsilontonos" unicode="&#x3ad;" horiz-adv-x="632" 
d="M58 0zM423 777l-60 -215h-95l49 215h106zM567 528v-101h-317q-47 0 -64 -16.5t-17 -45.5q0 -31 17.5 -46t63.5 -15h195v-79h-197q-46 0 -63.5 -15t-17.5 -46q0 -30 17 -46t63 -16h320v-102h-327q-50 0 -85 11t-56.5 30t-31 45t-9.5 55q0 48 18.5 77.5t55.5 45.5
q-72 32 -72 124q0 30 9.5 55.5t31.5 44t57 29.5t85 11h324z" />
    <glyph glyph-name="etatonos" unicode="&#x3ae;" horiz-adv-x="707" 
d="M76 0zM368 528q135 0 200.5 -60.5t65.5 -170.5v-509h-107v509q0 63 -37.5 96t-121.5 33h-173q-13 0 -13 -15v-411h-106v446q0 47 17 64.5t57 17.5h218zM425 777l-60 -215h-95l49 215h106z" />
    <glyph glyph-name="iotatonos" unicode="&#x3af;" horiz-adv-x="353" 
d="M73 0zM179 528v-352q0 -44 16.5 -61.5t54.5 -17.5h74v-97h-97q-40 0 -69 9t-48 30t-28 56t-9 87v346h106zM239 777l-60 -215h-95l49 215h106z" />
    <glyph glyph-name="upsilondieresistonos" unicode="&#x3b0;" horiz-adv-x="702" 
d="M73 0zM180 528v-316q0 -47 33.5 -78t96.5 -31h86q63 0 96 31t33 78v316h104v-320q0 -46 -14.5 -84t-43.5 -65.5t-71.5 -43t-99.5 -15.5h-98q-57 0 -99.5 15.5t-71.5 43t-43.5 65.5t-14.5 84v320h107zM428 777l-60 -215h-95l49 215h106zM573 727v-123h-107v123h107z
M235 727v-123h-107v123h107z" />
    <glyph glyph-name="alpha" unicode="&#x3b1;" horiz-adv-x="737" 
d="M342 528q81 0 129.5 -28.5t79.5 -85.5l41 114h111l-93 -264l93 -264h-111l-41 114q-31 -57 -79.5 -85.5t-129.5 -28.5h-62q-106 0 -167.5 65t-61.5 199t61.5 199t167.5 65h62zM332 103q34 0 57.5 6t40 20t29 38t24.5 59l13 38l-13 38q-12 35 -24.5 59t-29 38.5t-40 20.5
t-57.5 6h-42q-69 0 -100.5 -38t-31.5 -124t31.5 -123.5t100.5 -37.5h42z" />
    <glyph glyph-name="beta" unicode="&#x3b2;" horiz-adv-x="664" 
d="M399 757q48 0 82.5 -13t56 -37.5t31.5 -59t10 -77.5q0 -57 -19.5 -98.5t-63.5 -64.5q51 -18 76 -59.5t25 -116.5q0 -120 -61.5 -175.5t-166.5 -55.5h-187v-212h-106v770q0 57 10 95t31 61t53 33t76 10h153zM182 103h169q72 0 105.5 34t33.5 110q0 60 -24.5 85t-83.5 25
h-92v94h94q48 0 68 23t20 74q0 58 -19.5 85t-64.5 27h-119q-47 0 -67 -21t-20 -75v-461z" />
    <glyph glyph-name="gamma" unicode="&#x3b3;" horiz-adv-x="677" 
d="M19 0zM132 528l206 -441l206 441h114l-266 -546v-194h-107v194l-266 546h113z" />
    <glyph glyph-name="delta" unicode="&#x3b4;" horiz-adv-x="639" 
d="M547 757v-102h-276q-32 0 -46.5 -19.5t-14.5 -44.5t14.5 -44t52.5 -19h116q104 0 149.5 -63t45.5 -187q0 -145 -57 -211.5t-171 -66.5h-80q-53 0 -95.5 17t-72 49.5t-45.5 78.5t-16 105q0 87 33 139t86 80q-36 21 -50 56t-14 75q0 34 9 62.5t29 49.5t51 33t75 12h277z
M281 445h-16t-16 1q-44 -29 -67.5 -71.5t-23.5 -110.5q0 -70 32 -115.5t100 -45.5h59q36 0 61 9.5t41 31t23 56t7 84.5q0 85 -23 123t-83 38h-94z" />
    <glyph glyph-name="epsilon" unicode="&#x3b5;" horiz-adv-x="632" 
d="M567 528v-101h-317q-47 0 -64 -16.5t-17 -45.5q0 -31 17.5 -46t63.5 -15h195v-79h-197q-46 0 -63.5 -15t-17.5 -46q0 -30 17 -46t63 -16h320v-102h-327q-50 0 -85 11t-56.5 30t-31 45t-9.5 55q0 48 18.5 77.5t55.5 45.5q-72 32 -72 124q0 30 9.5 55.5t31.5 44t57 29.5
t85 11h324z" />
    <glyph glyph-name="zeta" unicode="&#x3b6;" horiz-adv-x="601" 
d="M438 757q63 0 94 -31.5t31 -85.5q0 -38 -16 -65.5t-50 -51.5l-259 -183q-24 -17 -39.5 -31.5t-24.5 -29t-12.5 -30.5t-3.5 -35q0 -57 31 -84t97 -27h139q61 0 92 -28t31 -89v-198h-107v168q0 23 -9 33.5t-35 10.5h-117q-106 0 -167.5 52t-61.5 166q0 29 5 54t19.5 48.5
t39.5 47t65 50.5l262 179q20 14 20 32q0 26 -30 26h-374v102h380z" />
    <glyph glyph-name="eta" unicode="&#x3b7;" horiz-adv-x="707" 
d="M368 528q135 0 200.5 -60.5t65.5 -170.5v-509h-107v509q0 63 -37.5 96t-121.5 33h-173q-13 0 -13 -15v-411h-106v446q0 47 17 64.5t57 17.5h218z" />
    <glyph glyph-name="theta" unicode="&#x3b8;" horiz-adv-x="714" 
d="M413 757q105 0 166.5 -65.5t61.5 -198.5v-230q0 -133 -61.5 -198t-166.5 -65h-112q-105 0 -166.5 65t-61.5 198v230q0 133 61.5 198.5t166.5 65.5h112zM179 263q0 -85 32 -122.5t101 -37.5h90q69 0 100.5 37.5t31.5 122.5v71h-355v-71zM179 430h355v63q0 85 -31.5 123
t-100.5 38h-90q-69 0 -101 -38t-32 -123v-63z" />
    <glyph glyph-name="iota" unicode="&#x3b9;" horiz-adv-x="353" 
d="M179 528v-352q0 -44 16.5 -61.5t54.5 -17.5h74v-97h-97q-40 0 -69 9t-48 30t-28 56t-9 87v346h106z" />
    <glyph glyph-name="kappa" unicode="&#x3ba;" horiz-adv-x="602" 
d="M76 0zM182 528v-219h49q31 0 50.5 2t33 8t24 18t24.5 32l88 159h115l-92 -166q-20 -34 -41 -57t-53 -37q37 -11 59.5 -35t48.5 -67l95 -166h-119l-88 156q-13 20 -24.5 32.5t-26.5 19.5t-37 9.5t-57 2.5h-49v-220h-106v528h106z" />
    <glyph glyph-name="lambda" unicode="&#x3bb;" horiz-adv-x="647" 
d="M302 757l326 -757h-113l-180 416h-13q-14 0 -20.5 -5t-11.5 -17l-159 -394h-112l177 446q13 35 33 49.5t62 14.5h3l-106 247h114z" />
    <glyph glyph-name="mu" unicode="&#x3bc;" horiz-adv-x="765" 
d="M182 528v-425h172q63 0 93 11.5t41 41.5q-1 6 -1 12.5v13.5v346h107v-352q0 -44 16 -61.5t54 -17.5h74v-97h-97q-45 0 -75 10.5t-49 36.5q-25 -23 -64.5 -35t-99.5 -12h-171v-212h-106v740h106z" />
    <glyph glyph-name="nu" unicode="&#x3bd;" horiz-adv-x="677" 
d="M19 0zM131 528l176 -424q6 -16 26 -16q21 0 28 16l183 424h114l-204 -471q-17 -38 -46.5 -53.5t-74.5 -15.5q-46 0 -75.5 16t-44.5 53l-194 471h112z" />
    <glyph glyph-name="xi" unicode="&#x3be;" horiz-adv-x="586" 
d="M503 757v-102h-220q-58 0 -79.5 -23.5t-21.5 -71.5t20.5 -72t74.5 -24h223v-87h-214q-66 0 -97 -29t-31 -103q0 -142 132 -142h135q61 0 92 -28t31 -89v-198h-107v168q0 23 -9 33.5t-35 10.5h-117q-115 0 -172 61.5t-57 170.5q0 81 28.5 126.5t79.5 65.5q-43 19 -64 57
t-21 100q0 85 44.5 130.5t148.5 45.5h236z" />
    <glyph glyph-name="omicron" unicode="&#x3bf;" horiz-adv-x="671" 
d="M51 0zM391 528q105 0 167 -65.5t62 -198.5q0 -134 -62 -199t-167 -65h-111q-106 0 -167.5 65t-61.5 199t61.5 199t167.5 65h111zM290 426q-69 0 -100.5 -38t-31.5 -124t31.5 -123.5t100.5 -37.5h91q69 0 100.5 37.5t31.5 123.5t-31.5 124t-100.5 38h-91z" />
    <glyph glyph-name="pi" unicode="&#x3c0;" horiz-adv-x="757" 
d="M730 528v-102h-142v-250q0 -44 16.5 -61.5t53.5 -17.5h74v-97h-97q-40 0 -69 9t-48 30t-28 56t-9 87v244h-239v-426h-107v426h-112v102h707z" />
    <glyph glyph-name="rho" unicode="&#x3c1;" horiz-adv-x="693" 
d="M74 0zM414 528q105 0 166.5 -65.5t61.5 -198.5q0 -134 -61.5 -199t-166.5 -65h-234v-212h-106v514q0 115 49 170.5t145 55.5h146zM180 103h223q69 0 100.5 37.5t31.5 123.5t-31.5 124t-100.5 38h-104q-65 0 -92 -30t-27 -99v-194z" />
    <glyph glyph-name="sigma1" unicode="&#x3c2;" horiz-adv-x="590" 
d="M529 528v-102h-239q-69 0 -100.5 -38t-31.5 -122q0 -85 32.5 -124t99.5 -39h135q61 0 92 -28t31 -89v-198h-107v168q0 23 -9 33.5t-35 10.5h-117q-106 0 -167.5 65.5t-61.5 198.5t61.5 198.5t167.5 65.5h249z" />
    <glyph glyph-name="sigma" unicode="&#x3c3;" horiz-adv-x="720" 
d="M682 528v-102h-118q19 -26 31.5 -65t12.5 -99q0 -132 -61.5 -197t-167.5 -65h-99q-106 0 -167.5 65t-61.5 199t61.5 199t167.5 65h402zM501 261q0 61 -12.5 100t-31.5 65h-167q-69 0 -100.5 -38t-31.5 -124t31.5 -123.5t100.5 -37.5h79q69 0 100.5 37.5t31.5 120.5z" />
    <glyph glyph-name="tau" unicode="&#x3c4;" horiz-adv-x="595" 
d="M558 528v-102h-214v-250q0 -44 16 -61.5t54 -17.5h74v-97h-97q-40 0 -69 9t-48 30t-28 56t-9 87v244h-208v102h529z" />
    <glyph glyph-name="upsilon" unicode="&#x3c5;" horiz-adv-x="702" 
d="M73 0zM180 528v-316q0 -47 33.5 -78t96.5 -31h86q63 0 96 31t33 78v316h104v-320q0 -46 -14.5 -84t-43.5 -65.5t-71.5 -43t-99.5 -15.5h-98q-57 0 -99.5 15.5t-71.5 43t-43.5 65.5t-14.5 84v320h107z" />
    <glyph glyph-name="phi" unicode="&#x3c6;" horiz-adv-x="803" 
d="M51 0zM455 733v-205h69q105 0 166.5 -65.5t61.5 -199.5q0 -133 -61.5 -198t-166.5 -65h-69v-205h-107v205h-68q-106 0 -167.5 65t-61.5 198q0 135 61.5 200t167.5 65h68v205h107zM455 426v-323h58q69 0 100.5 37.5t31.5 122.5q0 87 -31.5 125t-100.5 38h-58zM348 103v323
h-58q-69 0 -100.5 -38t-31.5 -125q0 -85 31.5 -122.5t100.5 -37.5h58z" />
    <glyph glyph-name="chi" unicode="&#x3c7;" horiz-adv-x="666" 
d="M161 528l177 -270l183 270h123l-242 -368l245 -372h-125l-189 287l-192 -287h-122l250 385l-233 355h125z" />
    <glyph glyph-name="psi" unicode="&#x3c8;" horiz-adv-x="796" 
d="M446 633v-530h44q63 0 95.5 31t32.5 78v316h105v-320q0 -46 -14.5 -84t-43.5 -65.5t-71.5 -43t-99.5 -15.5h-48v-212h-106v212h-38q-57 0 -99.5 15.5t-71.5 43t-43.5 65.5t-14.5 84v320h107v-316q0 -47 33.5 -78t96.5 -31h30v530h106z" />
    <glyph glyph-name="omega" unicode="&#x3c9;" horiz-adv-x="941" 
d="M180 528v-325q0 -43 22.5 -71.5t73.5 -28.5h48q51 0 71.5 28.5t20.5 71.5v200h108v-200q0 -43 21 -71.5t71 -28.5h49q50 0 72.5 28.5t22.5 71.5v325h108v-320q0 -46 -13.5 -84t-38 -65.5t-60.5 -43t-81 -15.5h-55q-57 0 -93.5 21.5t-56.5 60.5q-20 -39 -56.5 -60.5
t-92.5 -21.5h-56q-45 0 -80.5 15.5t-60.5 43t-38 65.5t-13 84v320h107z" />
    <glyph glyph-name="iotadieresis" unicode="&#x3ca;" horiz-adv-x="384" 
d="M0 0zM211 528v-352q0 -44 16.5 -61.5t54.5 -17.5h74v-97h-97q-40 0 -69 9t-48 30t-28 56t-9 87v346h106zM95 727v-123h-107v123h107zM335 727v-123h-107v123h107z" />
    <glyph glyph-name="upsilondieresis" unicode="&#x3cb;" horiz-adv-x="702" 
d="M73 0zM180 528v-316q0 -47 33.5 -78t96.5 -31h86q63 0 96 31t33 78v316h104v-320q0 -46 -14.5 -84t-43.5 -65.5t-71.5 -43t-99.5 -15.5h-98q-57 0 -99.5 15.5t-71.5 43t-43.5 65.5t-14.5 84v320h107zM284 727v-123h-107v123h107zM524 727v-123h-107v123h107z" />
    <glyph glyph-name="omicrontonos" unicode="&#x3cc;" horiz-adv-x="671" 
d="M51 0zM391 528q105 0 167 -65.5t62 -198.5q0 -134 -62 -199t-167 -65h-111q-106 0 -167.5 65t-61.5 199t61.5 199t167.5 65h111zM290 426q-69 0 -100.5 -38t-31.5 -124t31.5 -123.5t100.5 -37.5h91q69 0 100.5 37.5t31.5 123.5t-31.5 124t-100.5 38h-91zM424 777
l-60 -215h-95l49 215h106z" />
    <glyph glyph-name="upsilontonos" unicode="&#x3cd;" horiz-adv-x="702" 
d="M73 0zM180 528v-316q0 -47 33.5 -78t96.5 -31h86q63 0 96 31t33 78v316h104v-320q0 -46 -14.5 -84t-43.5 -65.5t-71.5 -43t-99.5 -15.5h-98q-57 0 -99.5 15.5t-71.5 43t-43.5 65.5t-14.5 84v320h107zM449 777l-60 -215h-95l49 215h106z" />
    <glyph glyph-name="omegatonos" unicode="&#x3ce;" horiz-adv-x="941" 
d="M73 0zM180 528v-325q0 -43 22.5 -71.5t73.5 -28.5h48q51 0 71.5 28.5t20.5 71.5v200h108v-200q0 -43 21 -71.5t71 -28.5h49q50 0 72.5 28.5t22.5 71.5v325h108v-320q0 -46 -13.5 -84t-38 -65.5t-60.5 -43t-81 -15.5h-55q-57 0 -93.5 21.5t-56.5 60.5q-20 -39 -56.5 -60.5
t-92.5 -21.5h-56q-45 0 -80.5 15.5t-60.5 43t-38 65.5t-13 84v320h107zM563 777l-60 -215h-95l49 215h106z" />
    <glyph glyph-name="uni0400" unicode="&#x400;" horiz-adv-x="693" 
d="M55 0zM621 675v-118h-338q-54 0 -78 -23t-24 -62q0 -80 103 -80h332v-107h-335q-103 0 -103 -82q0 -40 25 -62.5t77 -22.5h342v-118h-342q-60 0 -102.5 14t-70 38.5t-40 58.5t-12.5 73q0 58 25 96.5t72 58.5q-95 39 -95 152q0 40 13 74t40.5 58.5t70 38t102.5 13.5h338z
M373 924l112 -215h-106l-124 215h118z" />
    <glyph glyph-name="uni0401" unicode="&#x401;" horiz-adv-x="693" 
d="M55 0zM621 675v-118h-338q-54 0 -78 -23t-24 -62q0 -80 103 -80h332v-107h-335q-103 0 -103 -82q0 -40 25 -62.5t77 -22.5h342v-118h-342q-60 0 -102.5 14t-70 38.5t-40 58.5t-12.5 73q0 58 25 96.5t72 58.5q-95 39 -95 152q0 40 13 74t40.5 58.5t70 38t102.5 13.5h338z
M314 874v-123h-107v123h107zM554 874v-123h-107v123h107z" />
    <glyph glyph-name="uni0402" unicode="&#x402;" horiz-adv-x="816" 
d="M601 675v-118h-273v-134h183q114 0 171.5 -57t57.5 -169v-135q0 -139 -61.5 -206.5t-166.5 -67.5h-110v103h86q69 0 100.5 40t31.5 131v126q0 56 -29.5 86.5t-92.5 30.5h-170v-305h-118v557h-181v118h572z" />
    <glyph glyph-name="uni0403" unicode="&#x403;" horiz-adv-x="622" 
d="M75 0zM503 924l-125 -215h-105l112 215h118zM593 675v-118h-262q-40 0 -66.5 -9t-42.5 -24.5t-22.5 -37t-6.5 -45.5v-441h-118v442q0 51 13.5 93.5t43.5 73.5t77.5 48.5t114.5 17.5h269z" />
    <glyph glyph-name="uni0404" unicode="&#x404;" horiz-adv-x="682" 
d="M622 675v-118h-261q-86 0 -130 -39t-54 -126h348v-107h-348q10 -88 54 -127.5t130 -39.5h261v-118h-261q-148 0 -226 83.5t-78 253.5q0 171 78 254.5t226 83.5h261z" />
    <glyph glyph-name="uni0405" unicode="&#x405;" horiz-adv-x="703" 
d="M51 0zM603 675v-118h-346q-46 0 -67 -22.5t-21 -57.5q0 -15 4.5 -29.5t16 -26t30.5 -18t49 -6.5h158q69 0 113 -17.5t69.5 -45.5t35 -64t9.5 -72q0 -43 -12 -79t-38 -62.5t-66.5 -41.5t-98.5 -15h-376v118h380q48 0 70.5 23.5t22.5 60.5q0 16 -5 31.5t-17 27t-32.5 18.5
t-51.5 7h-157q-68 0 -111 17t-67.5 45t-34 63t-9.5 70q0 42 11.5 77.5t37 61.5t65.5 40.5t96 14.5h342z" />
    <glyph glyph-name="uni0406" unicode="&#x406;" horiz-adv-x="281" 
d="M82 0zM200 675v-675h-118v675h118z" />
    <glyph glyph-name="uni0407" unicode="&#x407;" horiz-adv-x="318" 
d="M0 0zM222 675v-675h-118v675h118zM92 874v-123h-107v123h107zM332 874v-123h-107v123h107z" />
    <glyph glyph-name="uni0408" unicode="&#x408;" horiz-adv-x="583" 
d="M29 0zM508 675v-442q0 -51 -14 -93.5t-44 -73.5t-77.5 -48.5t-114.5 -17.5h-229v118h222q40 0 66.5 9t42.5 24.5t22.5 37t6.5 45.5v441h119z" />
    <glyph glyph-name="uni0409" unicode="&#x409;" horiz-adv-x="1102" 
d="M493 537q0 17 -9.5 26.5t-26.5 9.5q-12 0 -20.5 -6t-15.5 -20l-153 -346q-24 -55 -44 -93.5t-43.5 -62.5t-54 -34.5t-75.5 -10.5h-22v118h24q17 0 29.5 4t24.5 16.5t25 36.5t31 63l148 327q13 28 25 51t28.5 38.5t39 24t56.5 8.5q77 0 114 -39.5t37 -104.5v-112
q0 -17 17 -17h210q59 0 100.5 -18.5t67.5 -48.5t37.5 -68t11.5 -77q0 -41 -12.5 -77.5t-39 -64t-67.5 -44t-98 -16.5h-346v118h351q48 0 70.5 26.5t22.5 63.5q0 18 -5.5 34.5t-16.5 29.5t-29 21t-43 8h-243q-56 0 -81 25t-25 82v129z" />
    <glyph glyph-name="uni040A" unicode="&#x40a;" horiz-adv-x="1109" 
d="M200 675v-260h323v260h119v-260h215q59 0 100.5 -19t67 -49t37 -68t11.5 -77q0 -41 -12.5 -77.5t-38.5 -64t-67 -44t-98 -16.5h-335v118h339q49 0 71.5 26.5t22.5 63.5q0 18 -5.5 34.5t-17 29.5t-29.5 21t-43 8h-660v-301h-118v675h118z" />
    <glyph glyph-name="uni040B" unicode="&#x40b;" horiz-adv-x="816" 
d="M601 675v-118h-273v-134h183q114 0 171.5 -57t57.5 -169v-197h-120v188q0 57 -29.5 87t-92.5 30h-170v-305h-118v557h-181v118h572z" />
    <glyph glyph-name="uni040C" unicode="&#x40c;" horiz-adv-x="708" 
d="M82 0zM200 675v-286h65q43 0 70.5 2.5t45.5 11.5t30.5 25.5t26.5 44.5l103 202h127l-106 -210q-23 -45 -49 -75t-68 -48q24 -6 42 -16.5t33.5 -26t29.5 -37t29 -50.5l109 -212h-132l-103 200q-14 27 -27 43t-33 25t-50 11.5t-78 2.5h-65v-282h-118v675h118zM452 924
l-125 -215h-105l112 215h118z" />
    <glyph glyph-name="uni040D" unicode="&#x40d;" horiz-adv-x="879" 
d="M81 0zM414 924l112 -215h-106l-124 215h118zM199 675v-534q0 -17 10.5 -27.5t29.5 -10.5q17 0 27 8t16 20l197 431q10 29 24 52t33.5 39.5t45.5 25t61 8.5q79 0 117.5 -40.5t38.5 -106.5v-540h-119v534q0 18 -10.5 28.5t-28.5 10.5q-17 0 -27.5 -8t-16.5 -21l-197 -431
q-11 -29 -24.5 -52t-33 -39.5t-45.5 -25t-61 -8.5q-79 0 -117 40.5t-38 107.5v539h118z" />
    <glyph glyph-name="uni040E" unicode="&#x40e;" horiz-adv-x="730" 
d="M13 0zM230 924v-56q0 -24 5 -40t18 -26.5t35 -15t57 -4.5q34 0 56 4.5t34.5 15t17.5 26.5t5 40v56h90v-57q0 -44 -9.5 -74t-33 -48.5t-62.5 -27t-98 -8.5q-60 0 -99.5 8.5t-62.5 27t-32.5 48.5t-9.5 74v57h89zM146 675l213 -376l224 376h134l-318 -541q-22 -39 -43 -64.5
t-47 -41t-59.5 -22t-80.5 -6.5h-95v118h115q18 0 31 2t23.5 8t20 16.5t19.5 26.5l11 18l-281 486h133z" />
    <glyph glyph-name="uni040F" unicode="&#x40f;" horiz-adv-x="745" 
d="M425 0v-212h-106v212h-181q-57 0 -57 55v620h119v-545q0 -12 12 -12h320q13 0 13 12v545h118v-620q0 -55 -56 -55h-182z" />
    <glyph glyph-name="uni0410" unicode="&#x410;" 
d="M19 0zM582 139h-378l-55 -139h-130l237 600q17 48 52.5 67.5t89.5 19.5q53 0 88 -19.5t52 -67.5l228 -600h-131zM248 251h292l-110 292q-9 23 -33 23t-34 -23z" />
    <glyph glyph-name="uni0411" unicode="&#x411;" horiz-adv-x="679" 
d="M506 675v-118h-276q-19 0 -25 -9.5t-6 -20.5v-96q0 -17 17 -17h210q59 0 100.5 -18.5t67.5 -48.5t37.5 -68t11.5 -77q0 -41 -12.5 -77.5t-39 -64t-67.5 -44t-98 -16.5h-346v118h351q48 0 70.5 26.5t22.5 63.5q0 18 -5.5 34.5t-16.5 29.5t-29 21t-43 8h-243q-56 0 -81 25
t-25 82v206q0 27 17 44t52 17h356z" />
    <glyph glyph-name="uni0412" unicode="&#x412;" horiz-adv-x="719" 
d="M82 0zM435 675q60 0 102.5 -13.5t70 -38t40.5 -58.5t13 -75q0 -59 -24.5 -95t-72.5 -55q48 -20 74 -57.5t26 -96.5q0 -41 -13 -75t-40.5 -58.5t-70 -38.5t-102.5 -14h-300q-56 0 -56 55v565q0 55 56 55h297zM198 128q0 -11 13 -11h230q54 0 79 23t25 65q0 87 -104 87
h-243v-164zM198 390h240q104 0 104 81q0 40 -24.5 64t-78.5 24h-228q-13 0 -13 -12v-157z" />
    <glyph glyph-name="uni0413" unicode="&#x413;" horiz-adv-x="622" 
d="M593 675v-118h-262q-40 0 -66.5 -9t-42.5 -24.5t-22.5 -37t-6.5 -45.5v-441h-118v442q0 51 13.5 93.5t43.5 73.5t77.5 48.5t114.5 17.5h269z" />
    <glyph glyph-name="uni0414" unicode="&#x414;" horiz-adv-x="827" 
d="M360 565q13 28 25 51t28.5 38.5t39 24t56.5 8.5q77 0 114 -39.5t37 -104.5v-425h138v-330h-106v212h-557v-212h-106v330h73q17 0 29.5 4t24.5 16.5t25 36.5t31 63zM541 118v419q0 17 -9 26.5t-26 9.5q-12 0 -20.5 -6t-15.5 -20l-153 -346q-11 -24 -20.5 -45t-18.5 -38
h263z" />
    <glyph glyph-name="uni0415" unicode="&#x415;" horiz-adv-x="693" 
d="M55 0zM621 675v-118h-338q-54 0 -78 -23t-24 -62q0 -80 103 -80h332v-107h-335q-103 0 -103 -82q0 -40 25 -62.5t77 -22.5h342v-118h-342q-60 0 -102.5 14t-70 38.5t-40 58.5t-12.5 73q0 58 25 96.5t72 58.5q-95 39 -95 152q0 40 13 74t40.5 58.5t70 38t102.5 13.5h338z
" />
    <glyph glyph-name="uni0416" unicode="&#x416;" horiz-adv-x="1134" 
d="M626 675v-286h65q43 0 70.5 2.5t45.5 11.5t30.5 25.5t26.5 44.5l103 202h127l-106 -210q-23 -45 -49 -75t-68 -48q24 -6 42 -16.5t33.5 -26t29.5 -37t29 -50.5l109 -212h-132l-103 200q-14 27 -27 43t-33 25t-50 11.5t-78 2.5h-65v-282h-118v282h-66q-48 0 -77 -3
t-48.5 -12t-33 -25t-28.5 -42l-103 -200h-132l109 212q15 29 29 50.5t29.5 37t33.5 26t42 16.5q-42 18 -67.5 48t-49.5 75l-107 210h128l103 -202q16 -27 28.5 -43.5t30 -25.5t43.5 -12t70 -3h66v286h118z" />
    <glyph glyph-name="uni0417" unicode="&#x417;" horiz-adv-x="681" 
d="M59 0zM397 675q60 0 102.5 -13.5t70 -38t40.5 -57.5t13 -72q0 -60 -24.5 -97.5t-71.5 -57.5q48 -20 73 -58.5t25 -99.5q0 -38 -13 -71t-40 -57.5t-69.5 -38.5t-102.5 -14h-341v118h341q52 0 77 22.5t25 63.5q0 81 -103 81h-208v107h205q52 0 77.5 19.5t25.5 61.5
q0 38 -24 61t-78 23h-337v118h337z" />
    <glyph glyph-name="uni0418" unicode="&#x418;" horiz-adv-x="879" 
d="M199 675v-534q0 -17 10.5 -27.5t29.5 -10.5q17 0 27 8t16 20l197 431q10 29 24 52t33.5 39.5t45.5 25t61 8.5q79 0 117.5 -40.5t38.5 -106.5v-540h-119v534q0 18 -10.5 28.5t-28.5 10.5q-17 0 -27.5 -8t-16.5 -21l-197 -431q-11 -29 -24.5 -52t-33 -39.5t-45.5 -25
t-61 -8.5q-79 0 -117 40.5t-38 107.5v539h118z" />
    <glyph glyph-name="uni0419" unicode="&#x419;" horiz-adv-x="879" 
d="M81 0zM321 924v-56q0 -24 5 -40t18 -26.5t35 -15t57 -4.5q34 0 56 4.5t34.5 15t17.5 26.5t5 40v56h90v-57q0 -44 -9.5 -74t-33 -48.5t-62.5 -27t-98 -8.5q-60 0 -99.5 8.5t-62.5 27t-32.5 48.5t-9.5 74v57h89zM199 675v-534q0 -17 10.5 -27.5t29.5 -10.5q17 0 27 8t16 20
l197 431q10 29 24 52t33.5 39.5t45.5 25t61 8.5q79 0 117.5 -40.5t38.5 -106.5v-540h-119v534q0 18 -10.5 28.5t-28.5 10.5q-17 0 -27.5 -8t-16.5 -21l-197 -431q-11 -29 -24.5 -52t-33 -39.5t-45.5 -25t-61 -8.5q-79 0 -117 40.5t-38 107.5v539h118z" />
    <glyph glyph-name="uni041A" unicode="&#x41a;" horiz-adv-x="708" 
d="M82 0zM200 675v-286h65q43 0 70.5 2.5t45.5 11.5t30.5 25.5t26.5 44.5l103 202h127l-106 -210q-23 -45 -49 -75t-68 -48q24 -6 42 -16.5t33.5 -26t29.5 -37t29 -50.5l109 -212h-132l-103 200q-14 27 -27 43t-33 25t-50 11.5t-78 2.5h-65v-282h-118v675h118z" />
    <glyph glyph-name="uni041B" unicode="&#x41b;" horiz-adv-x="692" 
d="M311 565q13 28 25 51t28.5 38.5t39 24t56.5 8.5q77 0 114 -39.5t37 -104.5v-543h-119v537q0 17 -9 26.5t-26 9.5q-12 0 -20.5 -6t-15.5 -20l-153 -346q-24 -55 -44 -93.5t-43.5 -62.5t-54 -34.5t-75.5 -10.5h-22v118h24q17 0 29.5 4t24.5 16.5t25 36.5t31 63z" />
    <glyph glyph-name="uni041C" unicode="&#x41c;" horiz-adv-x="1102" 
d="M81 0zM198 0h-117v536q0 68 40 109.5t122 41.5q72 0 114 -34.5t56 -98.5l95 -413q9 -38 45 -38q35 0 45 38l95 413q14 64 53.5 98.5t112.5 34.5q82 0 122 -41.5t40 -109.5v-536h-117v530q0 20 -12.5 31.5t-35.5 11.5q-21 0 -32 -9.5t-15 -26.5l-97 -413
q-16 -67 -53 -101.5t-107 -34.5q-71 0 -109.5 35t-53.5 101l-96 413q-4 17 -15.5 26.5t-31.5 9.5q-23 0 -35.5 -11.5t-12.5 -31.5v-530z" />
    <glyph glyph-name="uni041D" unicode="&#x41d;" horiz-adv-x="745" 
d="M82 0zM200 675v-275h345v275h119v-675h-119v282h-345v-282h-118v675h118z" />
    <glyph glyph-name="uni041E" unicode="&#x41e;" horiz-adv-x="816" 
d="M57 0zM454 675q148 0 226.5 -84t78.5 -255q0 -170 -78.5 -253t-226.5 -83h-92q-148 0 -226.5 83t-78.5 253q0 171 78.5 255t226.5 84h92zM362 557q-98 0 -142.5 -52t-44.5 -169q0 -116 44 -167t143 -51h92q97 0 141.5 51.5t44.5 167.5t-44 168t-142 52h-92z" />
    <glyph glyph-name="uni041F" unicode="&#x41f;" horiz-adv-x="745" 
d="M607 675q57 0 57 -55v-620h-119v545q0 12 -12 12h-320q-13 0 -13 -12v-545h-118v620q0 55 56 55h469z" />
    <glyph glyph-name="uni0420" unicode="&#x420;" horiz-adv-x="679" 
d="M80 0zM426 675q57 0 98 -16.5t67.5 -44t39 -64.5t12.5 -77q0 -38 -11.5 -76t-37.5 -68t-67.5 -49t-100.5 -19h-210q-17 0 -17 -17v-244h-118v267q0 57 25 82t81 25h243q25 0 43 8t29 21t16.5 29.5t5.5 34.5q0 37 -22.5 63.5t-70.5 26.5h-351v118h346z" />
    <glyph glyph-name="uni0421" unicode="&#x421;" horiz-adv-x="682" 
d="M57 0zM623 675v-118h-261q-98 0 -142.5 -51.5t-44.5 -168.5q0 -116 44 -167.5t143 -51.5h261v-118h-261q-148 0 -226.5 83.5t-78.5 253.5q0 171 78.5 254.5t226.5 83.5h261z" />
    <glyph glyph-name="uni0422" unicode="&#x422;" horiz-adv-x="571" 
d="M29 0zM542 675v-118h-197v-557h-119v557h-197v118h513z" />
    <glyph glyph-name="uni0423" unicode="&#x423;" horiz-adv-x="730" 
d="M146 675l213 -376l224 376h134l-318 -541q-22 -39 -43 -64.5t-47 -41t-59.5 -22t-80.5 -6.5h-95v118h115q18 0 31 2t23.5 8t20 16.5t19.5 26.5l11 18l-281 486h133z" />
    <glyph glyph-name="uni0424" unicode="&#x424;" horiz-adv-x="850" 
d="M366 599v76h118v-76h38q130 0 200.5 -63.5t70.5 -199.5q0 -135 -70 -197t-201 -62h-38v-77h-118v77h-37q-132 0 -202 62t-70 197q0 136 70.5 199.5t201.5 63.5h37zM484 473v-270h38q80 0 116.5 30.5t36.5 103.5t-37 104.5t-116 31.5h-38zM366 203v270h-37
q-80 0 -117 -31.5t-37 -104.5t36.5 -103.5t117.5 -30.5h37z" />
    <glyph glyph-name="uni0425" unicode="&#x425;" horiz-adv-x="781" 
d="M19 0zM191 675l207 -249l217 249h146l-289 -332l291 -343h-144l-224 268l-230 -268h-146l302 352l-274 323h144z" />
    <glyph glyph-name="uni0426" unicode="&#x426;" horiz-adv-x="831" 
d="M138 0q-57 0 -57 55v620h119v-545q0 -12 12 -12h333v557h118v-557h139v-330h-106v212h-558v0z" />
    <glyph glyph-name="uni0427" unicode="&#x427;" horiz-adv-x="722" 
d="M196 675v-237q0 -56 29.5 -86t92.5 -30h203v353h119v-675h-119v203h-216q-114 0 -171.5 57t-57.5 169v246h120z" />
    <glyph glyph-name="uni0428" unicode="&#x428;" horiz-adv-x="998" 
d="M200 675v-545q0 -12 13 -12h227v557h118v-557h228q12 0 12 12v545h119v-620q0 -55 -57 -55h-722q-56 0 -56 55v620h118z" />
    <glyph glyph-name="uni0429" unicode="&#x429;" horiz-adv-x="1084" 
d="M200 675v-545q0 -12 13 -12h227v557h118v-557h240v557h119v-557h138v-330h-106v212h-811q-56 0 -56 55v620h118z" />
    <glyph glyph-name="uni042A" unicode="&#x42a;" horiz-adv-x="791" 
d="M228 675q47 0 65.5 -23.5t18.5 -63.5v-157q0 -17 17 -17h210q59 0 100.5 -18.5t67.5 -48.5t37.5 -68t11.5 -77q0 -41 -12.5 -77.5t-39 -64t-67.5 -44t-98 -16.5h-346v118h351q48 0 70.5 26.5t22.5 63.5q0 18 -5.5 34.5t-16.5 29.5t-29 21t-43 8h-243q-56 0 -81 25t-25 82
v113q0 21 -6 28.5t-23 7.5h-136v118h199z" />
    <glyph glyph-name="uni042B" unicode="&#x42b;" horiz-adv-x="923" 
d="M80 0zM841 675v-675h-118v675h118zM199 675v-244q0 -17 17 -17h210q59 0 100.5 -18.5t67.5 -48.5t37.5 -68t11.5 -77q0 -41 -12.5 -77.5t-39 -64t-67.5 -44t-98 -16.5h-346v118h351q48 0 70.5 26.5t22.5 63.5q0 18 -5.5 34.5t-16.5 29.5t-29 21t-43 8h-243q-56 0 -81 25
t-25 82v267h118z" />
    <glyph glyph-name="uni042C" unicode="&#x42c;" horiz-adv-x="679" 
d="M199 675v-244q0 -17 17 -17h210q59 0 100.5 -18.5t67.5 -48.5t37.5 -68t11.5 -77q0 -41 -12.5 -77.5t-39 -64t-67.5 -44t-98 -16.5h-346v118h351q48 0 70.5 26.5t22.5 63.5q0 18 -5.5 34.5t-16.5 29.5t-29 21t-43 8h-243q-56 0 -81 25t-25 82v267h118z" />
    <glyph glyph-name="uni042D" unicode="&#x42d;" horiz-adv-x="682" 
d="M503 392q-9 87 -53.5 126t-129.5 39h-261v118h261q148 0 226 -83.5t78 -254.5q0 -170 -78 -253.5t-226 -83.5h-261v118h261q86 0 130 39.5t53 127.5h-347v107h347z" />
    <glyph glyph-name="uni042E" unicode="&#x42e;" horiz-adv-x="1068" 
d="M706 675q148 0 226.5 -84t78.5 -255q0 -170 -78.5 -253t-226.5 -83h-92q-137 0 -214.5 70t-88.5 215h-111v-285h-118v675h118v-283h111q13 143 90.5 213t212.5 70h92zM614 557q-98 0 -142.5 -52t-44.5 -168t44.5 -167.5t142.5 -51.5h92q97 0 141.5 51.5t44.5 167.5
t-44 168t-142 52h-92z" />
    <glyph glyph-name="uni042F" unicode="&#x42f;" horiz-adv-x="714" 
d="M634 675v-118h-371q-49 0 -71.5 -26.5t-22.5 -62.5q0 -18 5.5 -35t17 -30t29.5 -21t43 -8h263q56 0 81 -25t25 -82v-267h-119v244q0 17 -17 17h-177l-152 -261h-132l158 270q-39 11 -66 32t-44.5 48.5t-25 59t-7.5 63.5q0 40 12.5 77t38.5 64.5t67.5 44t98.5 16.5h366z
" />
    <glyph glyph-name="uni0430" unicode="&#x430;" horiz-adv-x="672" 
d="M65 0zM414 528q49 0 84 -13t57.5 -36.5t32.5 -55.5t10 -69v-248q0 -29 -4.5 -49t-16.5 -32.5t-33.5 -18.5t-54.5 -6h-247q-94 0 -135.5 43t-41.5 118q0 36 9.5 64t30.5 47.5t55 30t83 10.5h251v40q0 31 -18.5 52t-62.5 21h-316v102h317zM465 103q29 0 29 27v99h-249
q-42 0 -59 -16.5t-17 -45.5t17 -46.5t57 -17.5h222z" />
    <glyph glyph-name="uni0431" unicode="&#x431;" horiz-adv-x="695" 
d="M477 745q16 0 24 6.5t8 23.5v37h96v-66q0 -103 -100 -103h-218q-59 0 -82 -25t-23 -82v-41h234q105 0 166.5 -61.5t61.5 -185.5q0 -125 -61.5 -186.5t-166.5 -61.5h-146q-96 0 -145 55.5t-49 170.5v310q0 56 10.5 96t34 65t61.5 36.5t94 11.5h201zM182 400v-175
q0 -65 27 -93.5t92 -28.5h104q69 0 100.5 34t31.5 114t-31.5 114.5t-100.5 34.5h-223z" />
    <glyph glyph-name="uni0432" unicode="&#x432;" horiz-adv-x="632" 
d="M383 528q52 0 88 -10.5t58.5 -29.5t32.5 -45.5t10 -58.5q0 -88 -77 -118q79 -33 79 -121q0 -31 -10 -57.5t-32.5 -46t-58.5 -30.5t-88 -11h-253q-56 0 -56 55v418q0 55 56 55h251zM182 108q0 -12 13 -12h187q47 0 65 16.5t18 48.5t-18.5 48.5t-64.5 16.5h-200v-118z
M182 307h197q47 0 65.5 15.5t18.5 46.5q0 30 -17.5 47t-65.5 17h-185q-13 0 -13 -12v-114z" />
    <glyph glyph-name="uni0433" unicode="&#x433;" horiz-adv-x="460" 
d="M432 528v-102h-174q-41 0 -58.5 -17t-17.5 -54v-355h-107v379q0 33 8.5 60t26.5 47t46.5 31t68.5 11h207z" />
    <glyph glyph-name="uni0434" unicode="&#x434;" horiz-adv-x="668" 
d="M52 102q15 0 26 2.5t21 11.5t21 27t28 50l131 251q12 24 23.5 42.5t26.5 31.5t36 20t51 7q67 0 100.5 -31.5t33.5 -84.5v-327h89v-314h-106v212h-398v-212h-106v314h23zM443 102v322q0 26 -32 26q-10 0 -17.5 -4t-14.5 -18l-137 -266q-9 -17 -16.5 -32t-15.5 -28h233z
" />
    <glyph glyph-name="uni0435" unicode="&#x435;" horiz-adv-x="652" 
d="M65 0zM420 528q94 0 136 -42.5t42 -119.5q0 -73 -41 -112.5t-138 -39.5h-251v-38q0 -32 18.5 -52.5t62.5 -20.5h323v-103h-323q-50 0 -84.5 13t-57 36.5t-32.5 55t-10 69.5v180q0 37 10 69t32.5 55.5t57 36.5t84.5 13h171zM168 297h248q43 0 60.5 17t17.5 46q0 30 -18 48
t-57 18h-170q-44 0 -62.5 -21t-18.5 -52v-56z" />
    <glyph glyph-name="uni0436" unicode="&#x436;" horiz-adv-x="945" 
d="M151 528l87 -159q13 -20 24 -32t24.5 -18t33 -8t50.5 -2h49v219h107v-219h49q31 0 50.5 2t33 8t24 18t24.5 32l88 159h115l-92 -166q-20 -34 -41 -57t-53 -37q37 -11 59.5 -35t48.5 -67l95 -166h-119l-88 156q-13 20 -24.5 32.5t-26.5 19.5t-37 9.5t-57 2.5h-49v-220
h-107v220h-49q-35 0 -57 -2.5t-37 -9.5t-26 -19.5t-24 -32.5l-89 -156h-118l94 166q25 44 48 67.5t60 34.5q-33 14 -53.5 37t-40.5 57l-91 166h115z" />
    <glyph glyph-name="uni0437" unicode="&#x437;" horiz-adv-x="632" 
d="M389 528q50 0 85 -11t56.5 -29.5t31.5 -44t10 -55.5q0 -91 -73 -124q38 -16 56.5 -45.5t18.5 -77.5q0 -29 -9.5 -55t-31.5 -45t-56.5 -30t-85.5 -11h-326v102h319q46 0 63.5 16t17.5 46q0 31 -18 46t-64 15h-197v79h196q45 0 63 15t18 46q0 29 -17 45.5t-64 16.5h-317
v101h324z" />
    <glyph glyph-name="uni0438" unicode="&#x438;" horiz-adv-x="733" 
d="M182 528v-416q0 -27 30 -27q14 0 22.5 5t13.5 16l150 333q15 47 45.5 72.5t88.5 25.5q64 0 95 -31.5t31 -84.5v-421h-107v416q0 28 -30 28q-14 0 -22.5 -6t-13.5 -16l-159 -333q-9 -23 -18.5 -41.5t-24 -31t-34.5 -19.5t-48 -7q-63 0 -94 32t-31 86v420h106z" />
    <glyph glyph-name="uni0439" unicode="&#x439;" horiz-adv-x="733" 
d="M76 0zM252 777v-56q0 -24 5 -40t18 -26.5t35 -15t57 -4.5q34 0 56 4.5t34.5 15t17.5 26.5t5 40v56h90v-57q0 -44 -9.5 -74t-33 -48.5t-62.5 -27t-98 -8.5q-60 0 -99.5 8.5t-62.5 27t-32.5 48.5t-9.5 74v57h89zM182 528v-416q0 -27 30 -27q14 0 22.5 5t13.5 16l150 333
q15 47 45.5 72.5t88.5 25.5q64 0 95 -31.5t31 -84.5v-421h-107v416q0 28 -30 28q-14 0 -22.5 -6t-13.5 -16l-159 -333q-9 -23 -18.5 -41.5t-24 -31t-34.5 -19.5t-48 -7q-63 0 -94 32t-31 86v420h106z" />
    <glyph glyph-name="uni043A" unicode="&#x43a;" horiz-adv-x="602" 
d="M182 528v-219h49q31 0 50.5 2t33 8t24 18t24.5 32l88 159h115l-92 -166q-20 -34 -41 -57t-53 -37q37 -11 59.5 -35t48.5 -67l95 -166h-119l-88 156q-13 20 -24.5 32.5t-26.5 19.5t-37 9.5t-57 2.5h-49v-220h-106v528h106z" />
    <glyph glyph-name="uni043B" unicode="&#x43b;" horiz-adv-x="626" 
d="M52 102q15 0 26 2.5t21 11.5t21 27t28 50l131 251q12 24 23.5 42.5t26.5 31.5t36 20t51 7q67 0 100.5 -31.5t33.5 -84.5v-429h-107v424q0 26 -32 26q-10 0 -17.5 -4t-14.5 -18l-137 -266q-23 -44 -40.5 -74.5t-38 -50t-47.5 -28.5t-67 -9h-20v102h23z" />
    <glyph glyph-name="uni043C" unicode="&#x43c;" horiz-adv-x="926" 
d="M177 0h-101v418q0 54 33.5 86.5t96.5 32.5q56 0 86 -27t43 -78l92 -321q8 -28 36 -28t36 28l91 321q13 49 43 77t87 28q63 0 96.5 -32.5t33.5 -86.5v-418h-102v413q0 31 -38 31q-29 0 -37 -26l-96 -322q-16 -55 -41.5 -79t-72.5 -24q-46 0 -72 24t-43 79l-96 322
q-8 26 -37 26q-38 0 -38 -31v-413z" />
    <glyph glyph-name="uni043D" unicode="&#x43d;" horiz-adv-x="704" 
d="M182 528v-207h339v207h107v-528h-107v219h-339v-219h-106v528h106z" />
    <glyph glyph-name="uni043E" unicode="&#x43e;" horiz-adv-x="671" 
d="M51 0zM391 528q105 0 167 -65.5t62 -198.5q0 -134 -62 -199t-167 -65h-111q-106 0 -167.5 65t-61.5 199t61.5 199t167.5 65h111zM290 426q-69 0 -100.5 -38t-31.5 -124t31.5 -123.5t100.5 -37.5h91q69 0 100.5 37.5t31.5 123.5t-31.5 124t-100.5 38h-91z" />
    <glyph glyph-name="uni043F" unicode="&#x43f;" horiz-adv-x="704" 
d="M571 528q57 0 57 -55v-473h-107v414q0 12 -12 12h-314q-13 0 -13 -12v-414h-106v473q0 55 56 55h439z" />
    <glyph glyph-name="uni0440" unicode="&#x440;" horiz-adv-x="693" 
d="M74 0zM414 528q105 0 166.5 -65.5t61.5 -198.5q0 -134 -61.5 -199t-166.5 -65h-234v-212h-106v514q0 115 49 170.5t145 55.5h146zM180 103h223q69 0 100.5 37.5t31.5 123.5t-31.5 124t-100.5 38h-104q-65 0 -92 -30t-27 -99v-194z" />
    <glyph glyph-name="uni0441" unicode="&#x441;" horiz-adv-x="602" 
d="M51 0zM552 528v-102h-262q-69 0 -100.5 -38t-31.5 -124t31.5 -123.5t100.5 -37.5h262v-103h-272q-106 0 -167.5 65t-61.5 199t61.5 199t167.5 65h272z" />
    <glyph glyph-name="uni0442" unicode="&#x442;" horiz-adv-x="573" 
d="M540 528v-102h-202v-426h-107v426h-202v102h511z" />
    <glyph glyph-name="uni0443" unicode="&#x443;" horiz-adv-x="647" 
d="M19 0zM628 528l-318 -740h-114l99 231q-45 0 -65.5 15t-33.5 50l-177 444h112l159 -393q5 -14 11 -18t21 -4h14l179 415h113z" />
    <glyph glyph-name="uni0444" unicode="&#x444;" horiz-adv-x="803" 
d="M455 733v-205h69q105 0 166.5 -65.5t61.5 -199.5q0 -133 -61.5 -198t-166.5 -65h-69v-205h-107v205h-68q-106 0 -167.5 65t-61.5 198q0 135 61.5 200t167.5 65h68v205h107zM455 426v-323h58q69 0 100.5 37.5t31.5 122.5q0 87 -31.5 125t-100.5 38h-58zM348 103v323h-58
q-69 0 -100.5 -38t-31.5 -125q0 -85 31.5 -122.5t100.5 -37.5h58z" />
    <glyph glyph-name="uni0445" unicode="&#x445;" horiz-adv-x="681" 
d="M19 0zM170 528l175 -191l182 191h132l-248 -263l251 -265h-135l-186 203l-190 -203h-132l257 275l-240 253h134z" />
    <glyph glyph-name="uni0446" unicode="&#x446;" horiz-adv-x="796" 
d="M133 0q-57 0 -57 55v473h107v-414q0 -12 12 -12h327v426h106v-426h139v-314h-106v212h-528z" />
    <glyph glyph-name="uni0447" unicode="&#x447;" horiz-adv-x="677" 
d="M176 528v-154q0 -41 26 -65t82 -24h210v243h107v-528h-107v183h-221q-102 0 -152.5 50t-50.5 134v161h106z" />
    <glyph glyph-name="uni0448" unicode="&#x448;" horiz-adv-x="904" 
d="M182 528v-414q0 -12 13 -12h204v426h106v-426h204q13 0 13 12v414h106v-473q0 -55 -56 -55h-640q-56 0 -56 55v473h106z" />
    <glyph glyph-name="uni0449" unicode="&#x449;" horiz-adv-x="996" 
d="M182 528v-414q0 -12 13 -12h204v426h106v-426h217v426h106v-426h139v-314h-106v212h-729q-56 0 -56 55v473h106z" />
    <glyph glyph-name="uni044A" unicode="&#x44a;" horiz-adv-x="738" 
d="M254 528q35 0 49.5 -15.5t14.5 -38.5v-122q0 -14 15 -14h178q46 0 79 -14.5t53 -38.5t29.5 -55t9.5 -63q0 -34 -10 -64t-30.5 -53t-53 -36.5t-77.5 -13.5h-300v102h298q36 0 53 19t17 47q0 27 -16 49t-54 22h-209q-46 0 -67 20.5t-21 68.5v76q0 11 -4.5 16.5t-17.5 5.5
h-161v102h225z" />
    <glyph glyph-name="uni044B" unicode="&#x44b;" horiz-adv-x="806" 
d="M76 0zM183 528v-176q0 -14 15 -14h178q46 0 79 -14.5t53 -38.5t29.5 -55t9.5 -63q0 -34 -10 -64t-30.5 -53t-53 -36.5t-77.5 -13.5h-300v102h298q36 0 53 19t17 47q0 27 -16 49t-54 22h-209q-46 0 -67 20.5t-21 68.5v200h106zM730 528v-528h-106v528h106z" />
    <glyph glyph-name="uni044C" unicode="&#x44c;" horiz-adv-x="603" 
d="M183 528v-176q0 -14 15 -14h178q46 0 79 -14.5t53 -38.5t29.5 -55t9.5 -63q0 -34 -10 -64t-30.5 -53t-53 -36.5t-77.5 -13.5h-300v102h298q36 0 53 19t17 47q0 27 -16 49t-54 22h-209q-46 0 -67 20.5t-21 68.5v200h106z" />
    <glyph glyph-name="uni044D" unicode="&#x44d;" horiz-adv-x="602" 
d="M442 304q-7 65 -38.5 96.5t-91.5 31.5h-262v96h272q106 0 167.5 -65t61.5 -200q0 -133 -61.5 -198t-167.5 -65h-272v97h262q63 0 94 32.5t37 101.5h-271v73h270z" />
    <glyph glyph-name="uni044E" unicode="&#x44e;" horiz-adv-x="907" 
d="M628 528q105 0 167 -65.5t62 -199.5q0 -133 -62 -198t-167 -65h-111q-99 0 -159 55t-69 169h-107v-224h-106v528h106v-220h108q11 112 70.5 166t156.5 54h111zM527 426q-69 0 -100.5 -38t-31.5 -125q0 -85 31.5 -122.5t100.5 -37.5h91q69 0 100.5 37.5t31.5 122.5
q0 87 -31.5 125t-100.5 38h-91z" />
    <glyph glyph-name="uni044F" unicode="&#x44f;" horiz-adv-x="616" 
d="M547 528v-102h-311q-42 0 -60.5 -19t-18.5 -47q0 -27 18 -48t61 -21h217q49 0 71 -20t22 -68v-203h-107v183q0 15 -15 15h-142l-126 -198h-118l131 205q-32 8 -55 24t-37 37.5t-20.5 46.5t-6.5 52q0 34 10.5 64t33 52t57.5 34.5t84 12.5h312z" />
    <glyph glyph-name="uni0450" unicode="&#x450;" horiz-adv-x="652" 
d="M65 0zM420 528q94 0 136 -42.5t42 -119.5q0 -73 -41 -112.5t-138 -39.5h-251v-38q0 -32 18.5 -52.5t62.5 -20.5h323v-103h-323q-50 0 -84.5 13t-57 36.5t-32.5 55t-10 69.5v180q0 37 10 69t32.5 55.5t57 36.5t84.5 13h171zM168 297h248q43 0 60.5 17t17.5 46q0 30 -18 48
t-57 18h-170q-44 0 -62.5 -21t-18.5 -52v-56zM320 777l112 -215h-106l-124 215h118z" />
    <glyph glyph-name="uni0451" unicode="&#x451;" horiz-adv-x="652" 
d="M65 0zM420 528q94 0 136 -42.5t42 -119.5q0 -73 -41 -112.5t-138 -39.5h-251v-38q0 -32 18.5 -52.5t62.5 -20.5h323v-103h-323q-50 0 -84.5 13t-57 36.5t-32.5 55t-10 69.5v180q0 37 10 69t32.5 55.5t57 36.5t84.5 13h171zM168 297h248q43 0 60.5 17t17.5 46q0 30 -18 48
t-57 18h-170q-44 0 -62.5 -21t-18.5 -52v-56zM263 727v-123h-107v123h107zM503 727v-123h-107v123h107z" />
    <glyph glyph-name="uni0452" unicode="&#x452;" horiz-adv-x="707" 
d="M527 297q0 61 -38 95t-121 34h-186v-426h-106v757h106v-40h353v-89h-353v-100h186q134 0 200 -61t66 -170v-327q0 -52 -9 -87t-28 -56t-48.5 -30t-69.5 -9h-93v102h69q39 0 55.5 17t16.5 62v328z" />
    <glyph glyph-name="uni0453" unicode="&#x453;" horiz-adv-x="460" 
d="M75 0zM406 777l-125 -215h-105l112 215h118zM432 528v-102h-174q-41 0 -58.5 -17t-17.5 -54v-355h-107v379q0 33 8.5 60t26.5 47t46.5 31t68.5 11h207z" />
    <glyph glyph-name="uni0454" unicode="&#x454;" horiz-adv-x="602" 
d="M552 528v-96h-262q-60 0 -91.5 -31.5t-38.5 -96.5h270v-73h-271q5 -69 36.5 -101.5t94.5 -32.5h262v-97h-272q-106 0 -167.5 65t-61.5 198q0 135 61.5 200t167.5 65h272z" />
    <glyph glyph-name="uni0455" unicode="&#x455;" horiz-adv-x="586" 
d="M51 0zM516 528v-102h-292q-37 0 -53 -15t-16 -45q0 -28 15.5 -42.5t59.5 -14.5h124q55 0 90.5 -12t56 -32t28.5 -47t8 -58q0 -35 -9.5 -64.5t-30.5 -50.5t-54 -33t-79 -12h-307v103h307q37 0 53 13.5t16 44.5q0 32 -17.5 45.5t-57.5 13.5h-125q-55 0 -90 12.5t-55.5 34
t-28.5 49.5t-8 58q0 71 40 112.5t132 41.5h293z" />
    <glyph glyph-name="uni0456" unicode="&#x456;" horiz-adv-x="258" 
d="M76 0zM182 528v-528h-106v528h106zM183 727v-123h-107v123h107z" />
    <glyph glyph-name="uni0457" unicode="&#x457;" horiz-adv-x="346" 
d="M0 0zM106 727v-123h-107v123h107zM346 727v-123h-107v123h107zM225 528v-528h-106v528h106z" />
    <glyph glyph-name="uni0458" unicode="&#x458;" horiz-adv-x="270" 
d="M0 0zM194 528v-558q0 -52 -9 -87t-28 -56t-48.5 -30t-69.5 -9h-93v102h69q39 0 55.5 17t16.5 62v559h107zM194 727v-123h-107v123h107z" />
    <glyph glyph-name="uni0459" unicode="&#x459;" horiz-adv-x="969" 
d="M550 352q0 -14 15 -14h178q46 0 79 -14.5t53 -38.5t29.5 -55t9.5 -63q0 -34 -10 -64t-30.5 -53t-53 -36.5t-77.5 -13.5h-300v102h298q36 0 53 19t17 47q0 27 -16 49t-54 22h-209q-46 0 -67 20.5t-21 68.5v96q0 13 -9 19.5t-24 6.5q-10 0 -17.5 -4t-14.5 -18l-137 -266
q-23 -44 -40.5 -74.5t-38 -50t-47.5 -28.5t-67 -9h-20v102h23q15 0 26 2.5t21 11.5t21 27t28 50l131 251q12 24 23.5 42.5t26.5 31.5t36 20t51 7q67 0 100.5 -31.5t33.5 -84.5v-77z" />
    <glyph glyph-name="uni045A" unicode="&#x45a;" horiz-adv-x="1013" 
d="M182 528v-190h315v190h107v-190h182q46 0 79 -14.5t53 -38.5t29.5 -55t9.5 -63q0 -34 -10 -64t-30.5 -53t-53 -36.5t-77.5 -13.5h-290v102h288q37 0 53.5 19t16.5 47q0 27 -16 49t-54 22h-602v-239h-106v528h106z" />
    <glyph glyph-name="uni045B" unicode="&#x45b;" horiz-adv-x="707" 
d="M76 0zM182 757v-40h353v-89h-353v-100h186q134 0 200 -61t66 -170v-297h-107v297q0 61 -38 95t-121 34h-186v-426h-106v757h106z" />
    <glyph glyph-name="uni045C" unicode="&#x45c;" horiz-adv-x="602" 
d="M76 0zM426 777l-125 -215h-105l112 215h118zM182 528v-219h49q31 0 50.5 2t33 8t24 18t24.5 32l88 159h115l-92 -166q-20 -34 -41 -57t-53 -37q37 -11 59.5 -35t48.5 -67l95 -166h-119l-88 156q-13 20 -24.5 32.5t-26.5 19.5t-37 9.5t-57 2.5h-49v-220h-106v528h106z" />
    <glyph glyph-name="uni045D" unicode="&#x45d;" horiz-adv-x="733" 
d="M76 0zM360 777l112 -215h-106l-124 215h118zM182 528v-416q0 -27 30 -27q14 0 22.5 5t13.5 16l150 333q15 47 45.5 72.5t88.5 25.5q64 0 95 -31.5t31 -84.5v-421h-107v416q0 28 -30 28q-14 0 -22.5 -6t-13.5 -16l-159 -333q-9 -23 -18.5 -41.5t-24 -31t-34.5 -19.5
t-48 -7q-63 0 -94 32t-31 86v420h106z" />
    <glyph glyph-name="uni045E" unicode="&#x45e;" horiz-adv-x="647" 
d="M19 0zM628 528l-318 -740h-114l99 231q-45 0 -65.5 15t-33.5 50l-177 444h112l159 -393q5 -14 11 -18t21 -4h14l179 415h113zM203 777v-56q0 -24 5 -40t18 -26.5t35 -15t57 -4.5q34 0 56 4.5t34.5 15t17.5 26.5t5 40v56h90v-57q0 -44 -9.5 -74t-33 -48.5t-62.5 -27
t-98 -8.5q-60 0 -99.5 8.5t-62.5 27t-32.5 48.5t-9.5 74v57h89z" />
    <glyph glyph-name="uni045F" unicode="&#x45f;" horiz-adv-x="704" 
d="M404 0v-212h-106v212h-165q-57 0 -57 55v473h107v-414q0 -12 12 -12h314q13 0 13 12v414h106v-473q0 -55 -56 -55h-168z" />
    <glyph glyph-name="uni0490" unicode="&#x490;" horiz-adv-x="622" 
d="M487 675v212h106v-330h-262q-40 0 -66.5 -9t-42.5 -24.5t-22.5 -37t-6.5 -45.5v-441h-118v442q0 51 13.5 93.5t43.5 73.5t77.5 48.5t114.5 17.5h163z" />
    <glyph glyph-name="uni0491" unicode="&#x491;" horiz-adv-x="460" 
d="M326 528v212h106v-314h-174q-41 0 -58.5 -17t-17.5 -54v-355h-107v379q0 33 8.5 60t26.5 47t46.5 31t68.5 11h101z" />
    <glyph glyph-name="uni0492" unicode="&#x492;" horiz-adv-x="632" 
d="M603 675v-118h-262q-40 0 -66.5 -9t-42.5 -24.5t-22.5 -37t-6.5 -45.5v-69h263v-89h-263v-283h-118v283h-78v89h78v70q0 51 13.5 93.5t43.5 73.5t77.5 48.5t114.5 17.5h269z" />
    <glyph glyph-name="uni0493" unicode="&#x493;" horiz-adv-x="491" 
d="M445 528v-102h-174q-41 0 -58.5 -17t-17.5 -54v-79h271v-89h-271v-187h-107v187h-81v89h81v103q0 33 8.5 60t26.5 47t46.5 31t68.5 11h207z" />
    <glyph glyph-name="uni0496" unicode="&#x496;" horiz-adv-x="1232" 
d="M167 675l103 -202q14 -27 26 -43.5t30 -25.5t45 -12t71 -3h66v286h118v-286h65q43 0 70.5 2.5t45.5 11.5t30.5 25.5t26.5 44.5l103 202h127l-106 -210q-23 -45 -49 -75t-68 -48q24 -6 42 -16.5t33.5 -26t29.5 -37t29 -50.5l48 -94h150v-330h-106v212h-115l-103 200
q-14 27 -27 43t-33 25t-50 11.5t-78 2.5h-65v-282h-118v282h-66q-48 0 -77 -3t-48.5 -12t-33 -25t-28.5 -42l-103 -200h-132l109 212q15 29 28.5 50.5t28.5 37t33 25.5t42 16q-42 18 -67 48.5t-48 75.5l-107 210h128z" />
    <glyph glyph-name="uni0497" unicode="&#x497;" horiz-adv-x="1044" 
d="M151 528l87 -159q13 -20 24 -32t24.5 -18t33 -8t50.5 -2h49v219h107v-219h49q31 0 50.5 2t33 8t24 18t24.5 32l88 159h115l-92 -166q-20 -35 -40 -57.5t-53 -36.5q36 -11 58.5 -35t48.5 -67l36 -64h147v-314h-106v212h-101l-88 156q-13 20 -24.5 32.5t-26.5 19.5t-37 9.5
t-57 2.5h-49v-220h-107v220h-49q-35 0 -57.5 -2.5t-38 -9t-26 -19t-22.5 -33.5l-89 -156h-118l94 166q25 44 48 67.5t60 34.5q-33 14 -54 36.5t-40 57.5l-91 166h115z" />
    <glyph glyph-name="uni049A" unicode="&#x49a;" horiz-adv-x="806" 
d="M200 675v-286h65q43 0 70.5 2.5t45.5 11.5t30.5 25.5t26.5 44.5l103 202h127l-106 -210q-23 -45 -49 -75t-68 -48q24 -6 42 -16.5t33.5 -26t29.5 -37t29 -50.5l48 -94h150v-330h-106v212h-115l-103 200q-14 27 -27 43t-33 25t-50 11.5t-78 2.5h-65v-282h-118v675h118z
" />
    <glyph glyph-name="uni049B" unicode="&#x49b;" horiz-adv-x="701" 
d="M182 528v-219h49q31 0 50.5 2t33 8t24 18t24.5 32l88 159h115l-92 -166q-20 -35 -40 -57.5t-53 -36.5q36 -11 58.5 -35t48.5 -67l36 -64h148v-314h-106v212h-102l-88 156q-13 20 -24.5 32.5t-26.5 19.5t-37 9.5t-57 2.5h-49v-220h-106v528h106z" />
    <glyph glyph-name="uni04A2" unicode="&#x4a2;" horiz-adv-x="832" 
d="M200 675v-275h345v275h119v-557h139v-330h-106v212h-152v282h-345v-282h-118v675h118z" />
    <glyph glyph-name="uni04A3" unicode="&#x4a3;" horiz-adv-x="796" 
d="M182 528v-207h339v207h107v-426h139v-314h-106v212h-140v219h-339v-219h-106v528h106z" />
    <glyph glyph-name="uni04AE" unicode="&#x4ae;" horiz-adv-x="689" 
d="M13 0zM156 675l189 -289l191 289h140l-272 -384v-291h-119v291l-272 384h143z" />
    <glyph glyph-name="uni04AF" unicode="&#x4af;" horiz-adv-x="677" 
d="M132 528l206 -441l206 441h114l-266 -546v-194h-107v194l-266 546h113z" />
    <glyph glyph-name="uni04B0" unicode="&#x4b0;" horiz-adv-x="689" 
d="M285 254v37l-272 384h143l189 -289l191 289h140l-272 -384v-37h170v-89h-170v-165h-119v165h-170v89h170z" />
    <glyph glyph-name="uni04B1" unicode="&#x4b1;" horiz-adv-x="677" 
d="M132 528l206 -441l206 441h114l-253 -519h163v-89h-176v-132h-107v132h-176v89h163l-253 519h113z" />
    <glyph glyph-name="uni04B2" unicode="&#x4b2;" horiz-adv-x="880" 
d="M191 675l207 -249l217 249h146l-289 -332l191 -225h188v-330h-106v212h-126l-224 268l-230 -268h-146l302 352l-274 323h144z" />
    <glyph glyph-name="uni04B3" unicode="&#x4b3;" horiz-adv-x="780" 
d="M170 528l175 -191l182 191h132l-248 -263l154 -163h186v-314h-106v212h-118l-186 203l-190 -203h-132l257 275l-240 253h134z" />
    <glyph glyph-name="uni04B6" unicode="&#x4b6;" horiz-adv-x="807" 
d="M196 675v-237q0 -56 29.5 -86t92.5 -30h203v353h119v-557h139v-330h-106v212h-152v203h-216q-114 0 -171.5 57t-57.5 169v246h120z" />
    <glyph glyph-name="uni04B7" unicode="&#x4b7;" horiz-adv-x="768" 
d="M176 528v-154q0 -41 26 -65t82 -24h210v243h107v-426h138v-314h-106v212h-139v183h-221q-102 0 -152.5 50t-50.5 134v161h106z" />
    <glyph glyph-name="uni04BA" unicode="&#x4ba;" horiz-adv-x="722" 
d="M526 0v237q0 56 -29.5 86t-92.5 30h-203v-353h-119v675h119v-203h216q114 0 171.5 -57t57.5 -169v-246h-120z" />
    <glyph glyph-name="uni04BB" unicode="&#x4bb;" horiz-adv-x="677" 
d="M501 0v154q0 41 -26 65t-82 24h-210v-243h-107v528h107v-183h221q102 0 152.5 -50t50.5 -134v-161h-106z" />
    <glyph glyph-name="uni04C0" unicode="&#x4c0;" horiz-adv-x="281" 
d="M82 0zM200 675v-675h-118v675h118z" />
    <glyph glyph-name="uni04C3" unicode="&#x4c3;" horiz-adv-x="708" 
d="M200 675v-286h65q43 0 70.5 2.5t45.5 11.5t30.5 25.5t26.5 44.5l103 202h127l-106 -210q-23 -45 -49 -75t-68 -48q24 -6 42 -16.5t33.5 -26t29.5 -37t29 -50.5l109 -212q0 -63 -9 -104t-28 -65t-48.5 -33.5t-69.5 -9.5h-93v102h69q36 0 52.5 14.5t18.5 51.5l-127 244
q-14 27 -27 43t-33 25t-50 11.5t-78 2.5h-65v-282h-118v675h118z" />
    <glyph glyph-name="uni04C4" unicode="&#x4c4;" horiz-adv-x="602" 
d="M182 528v-219h49q31 0 50.5 2t33 8t24 18t24.5 32l88 159h115l-92 -166q-20 -34 -41 -57t-53 -37q37 -11 59.5 -35t48.5 -67l95 -166q0 -63 -9 -104t-28 -65t-48.5 -33.5t-69.5 -9.5h-93v102h69q39 0 55.5 19t16.5 73l-100 174q-12 21 -23 33.5t-26.5 19t-38 9t-57.5 2.5
h-49v-220h-106v528h106z" />
    <glyph glyph-name="uni04C7" unicode="&#x4c7;" horiz-adv-x="745" 
d="M200 675v-275h345v275h119v-705q0 -52 -9 -87t-28 -56t-48.5 -30t-69.5 -9h-93v102h57q39 0 55.5 17t16.5 62v313h-345v-282h-118v675h118z" />
    <glyph glyph-name="uni04C8" unicode="&#x4c8;" horiz-adv-x="704" 
d="M628 528v-558q0 -52 -9 -87t-28 -56t-48.5 -30t-69.5 -9h-93v102h69q39 0 55.5 17t16.5 62v250h-339v-219h-106v528h106v-207h339v207h107z" />
    <glyph glyph-name="uni04CF" unicode="&#x4cf;" horiz-adv-x="263" 
d="M185 724v-724h-107v724h107z" />
    <glyph glyph-name="uni04D8" unicode="&#x4d8;" horiz-adv-x="729" 
d="M57 0zM267 0q-57 0 -96.5 16.5t-65 45t-37 67t-11.5 82.5q0 88 44 139t135 51h318q-11 82 -55 119t-128 37h-278v118h278q148 0 226.5 -83.5t78.5 -254.5q0 -170 -78.5 -253.5t-226.5 -83.5h-104zM371 118q91 0 135 42.5t51 138.5h-309q-42 0 -62.5 -22.5t-20.5 -63.5
q0 -42 22 -68.5t72 -26.5h112z" />
    <glyph glyph-name="uni04D9" unicode="&#x4d9;" horiz-adv-x="652" 
d="M65 0zM243 0q-94 0 -136 42.5t-42 119.5q0 36 9.5 64.5t31 48t55.5 29.5t83 10h251v38q0 32 -18.5 52.5t-62.5 20.5h-323v103h323q49 0 84 -13t57.5 -36.5t32.5 -55.5t10 -69v-180q0 -38 -10 -69.5t-32.5 -55t-57.5 -36.5t-84 -13h-171zM495 231h-248q-43 0 -60.5 -17
t-17.5 -46q0 -30 18 -48t57 -18h170q44 0 62.5 21t18.5 52v56z" />
    <glyph glyph-name="uni04E8" unicode="&#x4e8;" horiz-adv-x="816" 
d="M454 675q148 0 226.5 -84t78.5 -255q0 -170 -78.5 -253t-226.5 -83h-92q-148 0 -226.5 83t-78.5 253q0 171 78.5 255t226.5 84h92zM454 118q86 0 130 39t53 128h-460q9 -89 53 -128t132 -39h92zM362 557q-86 0 -130.5 -39t-54.5 -126h460q-10 86 -54 125.5t-129 39.5h-92
z" />
    <glyph glyph-name="uni04E9" unicode="&#x4e9;" horiz-adv-x="671" 
d="M391 528q105 0 167 -65.5t62 -199.5q0 -133 -62 -198t-167 -65h-111q-106 0 -167.5 65t-61.5 198q0 135 61.5 200t167.5 65h111zM381 103q61 0 92.5 29.5t37.5 96.5h-352q6 -67 37.5 -96.5t93.5 -29.5h91zM290 426q-60 0 -91.5 -29t-38.5 -93h351q-8 64 -39 93t-91 29
h-91z" />
    <glyph glyph-name="uni04EE" unicode="&#x4ee;" horiz-adv-x="730" 
d="M13 0zM588 864v-89h-459v89h459zM146 675l213 -376l224 376h134l-318 -541q-22 -39 -43 -64.5t-47 -41t-59.5 -22t-80.5 -6.5h-95v118h115q18 0 31 2t23.5 8t20 16.5t19.5 26.5l11 18l-281 486h133z" />
    <glyph glyph-name="uni04EF" unicode="&#x4ef;" horiz-adv-x="647" 
d="M19 0zM628 528l-318 -740h-114l99 231q-45 0 -65.5 15t-33.5 50l-177 444h112l159 -393q5 -14 11 -18t21 -4h14l179 415h113zM549 717v-89h-459v89h459z" />
    <glyph glyph-name="uni0512" unicode="&#x512;" horiz-adv-x="692" 
d="M311 565q13 28 25 51t28.5 38.5t39 24t56.5 8.5q77 0 114 -39.5t37 -104.5v-573q0 -52 -9 -87t-28 -56t-48.5 -30t-69.5 -9h-93v102h57q39 0 55.5 17t16.5 62v568q0 17 -9 26.5t-26 9.5q-12 0 -20.5 -6t-15.5 -20l-153 -346q-24 -55 -44 -93.5t-43.5 -62.5t-54 -34.5
t-75.5 -10.5h-22v118h24q17 0 29.5 4t24.5 16.5t25 36.5t31 63z" />
    <glyph glyph-name="uni0513" unicode="&#x513;" horiz-adv-x="626" 
d="M443 424q0 26 -32 26q-10 0 -17.5 -4t-14.5 -18l-137 -266q-23 -44 -40.5 -74.5t-38 -50t-47.5 -28.5t-67 -9h-20v102h23q15 0 26 2.5t21 11.5t21 27t28 50l131 251q12 24 23.5 42.5t26.5 31.5t36 20t51 7q67 0 100.5 -31.5t33.5 -84.5v-459q0 -52 -9 -87t-28 -56
t-48.5 -30t-69.5 -9h-93v102h69q39 0 55.5 17t16.5 62v455z" />
    <glyph glyph-name="uni1E0C" unicode="&#x1e0c;" horiz-adv-x="737" 
d="M82 0zM376 675q149 0 226.5 -83t77.5 -255q0 -171 -77.5 -254t-226.5 -83h-238q-56 0 -56 55v565q0 55 56 55h238zM200 130q0 -12 13 -12h163q98 0 142 52t44 168t-43.5 167.5t-142.5 51.5h-163q-13 0 -13 -12v-415zM398 -76v-123h-107v123h107z" />
    <glyph glyph-name="uni1E0D" unicode="&#x1e0d;" horiz-adv-x="695" 
d="M51 0zM620 757v-531q0 -115 -49.5 -170.5t-144.5 -55.5h-146q-106 0 -167.5 65t-61.5 199t61.5 199t167.5 65h233v229h107zM395 103q64 0 91 30t27 98v195h-223q-69 0 -100.5 -38t-31.5 -124t31.5 -123.5t100.5 -37.5h105zM404 -76v-123h-107v123h107z" />
    <glyph glyph-name="uni1E12" unicode="&#x1e12;" horiz-adv-x="737" 
d="M82 0zM376 675q149 0 226.5 -83t77.5 -255q0 -171 -77.5 -254t-226.5 -83h-238q-56 0 -56 55v565q0 55 56 55h238zM200 130q0 -12 13 -12h163q98 0 142 52t44 168t-43.5 167.5t-142.5 51.5h-163q-13 0 -13 -12v-415zM228 -100q14 28 42 39.5t68 11.5q39 0 66.5 -12
t41.5 -39l91 -164h-113l-67 125q-5 9 -20 9t-20 -9l-66 -125h-113z" />
    <glyph glyph-name="uni1E13" unicode="&#x1e13;" horiz-adv-x="695" 
d="M51 0zM620 757v-531q0 -115 -49.5 -170.5t-144.5 -55.5h-146q-106 0 -167.5 65t-61.5 199t61.5 199t167.5 65h233v229h107zM395 103q64 0 91 30t27 98v195h-223q-69 0 -100.5 -38t-31.5 -124t31.5 -123.5t100.5 -37.5h105zM234 -100q14 28 42 39.5t68 11.5q39 0 66.5 -12
t41.5 -39l91 -164h-113l-67 125q-5 9 -20 9t-20 -9l-66 -125h-113z" />
    <glyph glyph-name="uni1E24" unicode="&#x1e24;" horiz-adv-x="745" 
d="M82 0zM200 675v-275h345v275h119v-675h-119v282h-345v-282h-118v675h118zM427 -76v-123h-107v123h107z" />
    <glyph glyph-name="uni1E25" unicode="&#x1e25;" horiz-adv-x="707" 
d="M76 0zM182 757v-229h186q134 0 200 -61t66 -170v-297h-107v297q0 61 -38 95t-121 34h-186v-426h-106v757h106zM406 -76v-123h-107v123h107z" />
    <glyph glyph-name="uni1E3C" unicode="&#x1e3c;" horiz-adv-x="622" 
d="M75 0zM193 675v-441q0 -24 6.5 -45.5t22.5 -37t42.5 -24.5t66.5 -9h262v-118h-269q-67 0 -114.5 17.5t-77.5 48.5t-43.5 73.5t-13.5 93.5v442h118zM223 -100q14 28 42 39.5t68 11.5q39 0 66.5 -12t41.5 -39l91 -164h-113l-67 125q-5 9 -20 9t-20 -9l-66 -125h-113z" />
    <glyph glyph-name="uni1E3D" unicode="&#x1e3d;" horiz-adv-x="279" 
d="M0 0zM193 757v-757h-106v757h106zM30 -100q14 28 42 39.5t68 11.5q39 0 66.5 -12t41.5 -39l91 -164h-113l-67 125q-5 9 -20 9t-20 -9l-66 -125h-113z" />
    <glyph glyph-name="uni1E44" unicode="&#x1e44;" horiz-adv-x="879" 
d="M81 0zM199 0h-118v540q0 66 38 106.5t117 40.5q70 0 106.5 -33.5t57.5 -91.5l197 -431q6 -12 16 -20t27 -8q19 0 29.5 10.5t10.5 27.5v534h119v-539q0 -67 -38.5 -107.5t-116.5 -40.5q-35 0 -61.5 8.5t-46 25t-33.5 39.5t-24 52l-197 431q-13 29 -42 29
q-20 0 -30.5 -10.5t-10.5 -28.5v-534zM495 874v-123h-107v123h107z" />
    <glyph glyph-name="uni1E45" unicode="&#x1e45;" horiz-adv-x="707" 
d="M76 0zM368 528q135 0 200.5 -60.5t65.5 -170.5v-297h-107v297q0 63 -37.5 96t-121.5 33h-173q-13 0 -13 -15v-411h-106v446q0 47 17 64.5t57 17.5h218zM404 727v-123h-107v123h107z" />
    <glyph glyph-name="uni1E4A" unicode="&#x1e4a;" horiz-adv-x="879" 
d="M81 0zM199 0h-118v540q0 66 38 106.5t117 40.5q70 0 106.5 -33.5t57.5 -91.5l197 -431q6 -12 16 -20t27 -8q19 0 29.5 10.5t10.5 27.5v534h119v-539q0 -67 -38.5 -107.5t-116.5 -40.5q-35 0 -61.5 8.5t-46 25t-33.5 39.5t-24 52l-197 431q-13 29 -42 29
q-20 0 -30.5 -10.5t-10.5 -28.5v-534zM322 -100q14 28 42 39.5t68 11.5q39 0 66.5 -12t41.5 -39l91 -164h-113l-67 125q-5 9 -20 9t-20 -9l-66 -125h-113z" />
    <glyph glyph-name="uni1E4B" unicode="&#x1e4b;" horiz-adv-x="707" 
d="M76 0zM368 528q135 0 200.5 -60.5t65.5 -170.5v-297h-107v297q0 63 -37.5 96t-121.5 33h-173q-13 0 -13 -15v-411h-106v446q0 47 17 64.5t57 17.5h218zM238 -100q14 28 42 39.5t68 11.5q39 0 66.5 -12t41.5 -39l91 -164h-113l-67 125q-5 9 -20 9t-20 -9l-66 -125h-113z
" />
    <glyph glyph-name="uni1E5A" unicode="&#x1e5a;" horiz-adv-x="714" 
d="M80 0zM446 675q57 0 98 -16.5t67.5 -44t39 -64.5t12.5 -77q0 -32 -8 -63.5t-25 -59t-44 -48.5t-66 -32l157 -270h-131l-154 261h-176q-17 0 -17 -17v-244h-118v267q0 57 25 82t81 25h263q25 0 43 8t29 21t16.5 30t5.5 35q0 36 -22.5 62.5t-71.5 26.5h-370v118h366z
M407 -76v-123h-107v123h107z" />
    <glyph glyph-name="uni1E5B" unicode="&#x1e5b;" horiz-adv-x="463" 
d="M75 0zM435 528v-102h-186q-68 0 -68 -68v-358h-106v374q0 80 32.5 117t110.5 37h217zM182 -76v-123h-107v123h107z" />
    <glyph glyph-name="uni1E62" unicode="&#x1e62;" horiz-adv-x="703" 
d="M51 0zM603 675v-118h-346q-46 0 -67 -22.5t-21 -57.5q0 -15 4.5 -29.5t16 -26t30.5 -18t49 -6.5h158q69 0 113 -17.5t69.5 -45.5t35 -64t9.5 -72q0 -43 -12 -79t-38 -62.5t-66.5 -41.5t-98.5 -15h-376v118h380q48 0 70.5 23.5t22.5 60.5q0 16 -5 31.5t-17 27t-32.5 18.5
t-51.5 7h-157q-68 0 -111 17t-67.5 45t-34 63t-9.5 70q0 42 11.5 77.5t37 61.5t65.5 40.5t96 14.5h342zM397 -76v-123h-107v123h107z" />
    <glyph glyph-name="uni1E63" unicode="&#x1e63;" horiz-adv-x="586" 
d="M51 0zM516 528v-102h-292q-37 0 -53 -15t-16 -45q0 -28 15.5 -42.5t59.5 -14.5h124q55 0 90.5 -12t56 -32t28.5 -47t8 -58q0 -35 -9.5 -64.5t-30.5 -50.5t-54 -33t-79 -12h-307v103h307q37 0 53 13.5t16 44.5q0 32 -17.5 45.5t-57.5 13.5h-125q-55 0 -90 12.5t-55.5 34
t-28.5 49.5t-8 58q0 71 40 112.5t132 41.5h293zM340 -76v-123h-107v123h107z" />
    <glyph glyph-name="uni1E6C" unicode="&#x1e6c;" horiz-adv-x="571" 
d="M29 0zM542 675v-118h-197v-557h-119v557h-197v118h513zM339 -76v-123h-107v123h107z" />
    <glyph glyph-name="uni1E6D" unicode="&#x1e6d;" horiz-adv-x="375" 
d="M23 0zM95 528v125h107v-125h146v-102h-146v-250q0 -45 16.5 -62t54.5 -17h73v-97h-95q-41 0 -70.5 9t-48.5 30t-28 56t-9 87v244h-72v102h72zM259 -76v-123h-107v123h107z" />
    <glyph glyph-name="Wgrave" unicode="&#x1e80;" horiz-adv-x="1046" 
d="M33 0zM157 675l50 -527q2 -22 11.5 -33.5t29.5 -11.5q35 0 42 37l80 414q13 66 51 99.5t104 33.5t102.5 -33.5t48.5 -99.5l75 -414q6 -37 43 -37q20 0 29.5 11.5t11.5 33.5l57 527h123l-63 -534q-4 -33 -14 -61.5t-29 -48.5t-47 -31.5t-68 -11.5q-64 0 -103 32.5
t-52 104.5l-74 412q-6 36 -41 36q-34 0 -41 -36l-79 -412q-14 -69 -52.5 -103t-106.5 -34q-39 0 -66.5 11t-45.5 31.5t-28 48.5t-14 62l-58 534h124zM516 924l112 -215h-106l-124 215h118z" />
    <glyph glyph-name="wgrave" unicode="&#x1e81;" horiz-adv-x="977" 
d="M30 0zM145 528l47 -412q2 -17 10.5 -25.5t27.5 -8.5q18 0 26.5 7.5t12.5 21.5l75 320q12 53 47 80t98 27t96 -27t45 -80l71 -320q6 -29 40 -29q18 0 26 8.5t10 25.5l55 412h115l-59 -418q-8 -55 -42 -88.5t-106 -33.5q-62 0 -96 27t-46 82l-71 321q-3 14 -13.5 20
t-25.5 6q-33 0 -39 -26l-75 -321q-13 -55 -48 -82t-98 -27q-37 0 -62.5 9t-42 25t-25.5 38.5t-13 49.5l-55 418h115zM480 777l112 -215h-106l-124 215h118z" />
    <glyph glyph-name="Wacute" unicode="&#x1e82;" horiz-adv-x="1046" 
d="M33 0zM157 675l50 -527q2 -22 11.5 -33.5t29.5 -11.5q35 0 42 37l80 414q13 66 51 99.5t104 33.5t102.5 -33.5t48.5 -99.5l75 -414q6 -37 43 -37q20 0 29.5 11.5t11.5 33.5l57 527h123l-63 -534q-4 -33 -14 -61.5t-29 -48.5t-47 -31.5t-68 -11.5q-64 0 -103 32.5
t-52 104.5l-74 412q-6 36 -41 36q-34 0 -41 -36l-79 -412q-14 -69 -52.5 -103t-106.5 -34q-39 0 -66.5 11t-45.5 31.5t-28 48.5t-14 62l-58 534h124zM651 924l-125 -215h-105l112 215h118z" />
    <glyph glyph-name="wacute" unicode="&#x1e83;" horiz-adv-x="977" 
d="M30 0zM145 528l47 -412q2 -17 10.5 -25.5t27.5 -8.5q18 0 26.5 7.5t12.5 21.5l75 320q12 53 47 80t98 27t96 -27t45 -80l71 -320q6 -29 40 -29q18 0 26 8.5t10 25.5l55 412h115l-59 -418q-8 -55 -42 -88.5t-106 -33.5q-62 0 -96 27t-46 82l-71 321q-3 14 -13.5 20
t-25.5 6q-33 0 -39 -26l-75 -321q-13 -55 -48 -82t-98 -27q-37 0 -62.5 9t-42 25t-25.5 38.5t-13 49.5l-55 418h115zM615 777l-125 -215h-105l112 215h118z" />
    <glyph glyph-name="Wdieresis" unicode="&#x1e84;" horiz-adv-x="1046" 
d="M33 0zM157 675l50 -527q2 -22 11.5 -33.5t29.5 -11.5q35 0 42 37l80 414q13 66 51 99.5t104 33.5t102.5 -33.5t48.5 -99.5l75 -414q6 -37 43 -37q20 0 29.5 11.5t11.5 33.5l57 527h123l-63 -534q-4 -33 -14 -61.5t-29 -48.5t-47 -31.5t-68 -11.5q-64 0 -103 32.5
t-52 104.5l-74 412q-6 36 -41 36q-34 0 -41 -36l-79 -412q-14 -69 -52.5 -103t-106.5 -34q-39 0 -66.5 11t-45.5 31.5t-28 48.5t-14 62l-58 534h124zM458 874v-123h-107v123h107zM698 874v-123h-107v123h107z" />
    <glyph glyph-name="wdieresis" unicode="&#x1e85;" horiz-adv-x="977" 
d="M30 0zM145 528l47 -412q2 -17 10.5 -25.5t27.5 -8.5q18 0 26.5 7.5t12.5 21.5l75 320q12 53 47 80t98 27t96 -27t45 -80l71 -320q6 -29 40 -29q18 0 26 8.5t10 25.5l55 412h115l-59 -418q-8 -55 -42 -88.5t-106 -33.5q-62 0 -96 27t-46 82l-71 321q-3 14 -13.5 20
t-25.5 6q-33 0 -39 -26l-75 -321q-13 -55 -48 -82t-98 -27q-37 0 -62.5 9t-42 25t-25.5 38.5t-13 49.5l-55 418h115zM422 727v-123h-107v123h107zM662 727v-123h-107v123h107z" />
    <glyph glyph-name="uni1E92" unicode="&#x1e92;" horiz-adv-x="743" 
d="M57 0zM524 675q81 0 122.5 -38.5t41.5 -109.5q0 -58 -27 -96.5t-81 -61.5l-368 -157q-16 -7 -25 -20t-9 -30q0 -20 12.5 -32t37.5 -12h445v-118h-453q-81 0 -122 38.5t-41 109.5q0 58 27 96.5t82 61.5l366 157q35 14 35 50q0 20 -12.5 32t-38.5 12h-435v118h443zM424 -76
v-123h-107v123h107z" />
    <glyph glyph-name="uni1E93" unicode="&#x1e93;" horiz-adv-x="624" 
d="M51 0zM438 528q69 0 102.5 -33t33.5 -88q0 -49 -24 -80.5t-66 -46.5l-303 -110q-28 -11 -28 -36q0 -32 40 -32h370v-102h-376q-69 0 -102.5 33t-33.5 88q0 45 22 78t68 50l304 109q17 6 22.5 16t5.5 21q0 31 -41 31h-362v102h368zM366 -76v-123h-107v123h107z" />
    <glyph glyph-name="uni1EA0" unicode="&#x1ea0;" 
d="M19 0zM582 139h-378l-55 -139h-130l237 600q17 48 52.5 67.5t89.5 19.5q53 0 88 -19.5t52 -67.5l228 -600h-131zM248 251h292l-110 292q-9 23 -33 23t-34 -23zM449 -76v-123h-107v123h107z" />
    <glyph glyph-name="uni1EA1" unicode="&#x1ea1;" horiz-adv-x="672" 
d="M65 0zM414 528q49 0 84 -13t57.5 -36.5t32.5 -55.5t10 -69v-248q0 -29 -4.5 -49t-16.5 -32.5t-33.5 -18.5t-54.5 -6h-247q-94 0 -135.5 43t-41.5 118q0 36 9.5 64t30.5 47.5t55 30t83 10.5h251v40q0 31 -18.5 52t-62.5 21h-316v102h317zM465 103q29 0 29 27v99h-249
q-42 0 -59 -16.5t-17 -45.5t17 -46.5t57 -17.5h222zM392 -76v-123h-107v123h107z" />
    <glyph glyph-name="uni1EA2" unicode="&#x1ea2;" 
d="M19 0zM582 139h-378l-55 -139h-130l237 600q17 48 52.5 67.5t89.5 19.5q53 0 88 -19.5t52 -67.5l228 -600h-131zM248 251h292l-110 292q-9 23 -33 23t-34 -23zM472 1053q80 0 114.5 -36.5t34.5 -96.5q0 -28 -7.5 -52.5t-22.5 -43t-38.5 -29t-56.5 -10.5h-21
q-29 0 -39 -12t-10 -37v-27h-74v44q0 55 21.5 81t80.5 26h26q29 0 42 16.5t13 40.5q0 25 -15 39.5t-49 14.5h-167v82h168z" />
    <glyph glyph-name="uni1EA3" unicode="&#x1ea3;" horiz-adv-x="672" 
d="M65 0zM414 528q49 0 84 -13t57.5 -36.5t32.5 -55.5t10 -69v-248q0 -29 -4.5 -49t-16.5 -32.5t-33.5 -18.5t-54.5 -6h-247q-94 0 -135.5 43t-41.5 118q0 36 9.5 64t30.5 47.5t55 30t83 10.5h251v40q0 31 -18.5 52t-62.5 21h-316v102h317zM465 103q29 0 29 27v99h-249
q-42 0 -59 -16.5t-17 -45.5t17 -46.5t57 -17.5h222zM396 906q80 0 114.5 -36.5t34.5 -96.5q0 -28 -7.5 -52.5t-22.5 -43t-38.5 -29t-56.5 -10.5h-21q-29 0 -39 -12t-10 -37v-27h-74v44q0 55 21.5 81t80.5 26h26q29 0 42 16.5t13 40.5q0 25 -15 39.5t-49 14.5h-167v82h168z
" />
    <glyph glyph-name="uni1EA4" unicode="&#x1ea4;" 
d="M19 0zM582 139h-378l-55 -139h-130l237 600q17 48 52.5 67.5t89.5 19.5q53 0 88 -19.5t52 -67.5l228 -600h-131zM248 251h292l-110 292q-9 23 -33 23t-34 -23zM806 1022l-125 -215h-105l112 215h118zM284 873q14 28 42 39.5t68 11.5q39 0 66.5 -12t41.5 -39l91 -164h-113
l-67 125q-5 9 -20 9t-20 -9l-66 -125h-113z" />
    <glyph glyph-name="uni1EA5" unicode="&#x1ea5;" horiz-adv-x="672" 
d="M65 0zM414 528q49 0 84 -13t57.5 -36.5t32.5 -55.5t10 -69v-248q0 -29 -4.5 -49t-16.5 -32.5t-33.5 -18.5t-54.5 -6h-247q-94 0 -135.5 43t-41.5 118q0 36 9.5 64t30.5 47.5t55 30t83 10.5h251v40q0 31 -18.5 52t-62.5 21h-316v102h317zM465 103q29 0 29 27v99h-249
q-42 0 -59 -16.5t-17 -45.5t17 -46.5t57 -17.5h222zM732 906l-125 -215h-105l112 215h118zM226 726q14 28 42 39.5t68 11.5q39 0 66.5 -12t41.5 -39l91 -164h-113l-67 125q-5 9 -20 9t-20 -9l-66 -125h-113z" />
    <glyph glyph-name="uni1EA6" unicode="&#x1ea6;" 
d="M0 0zM582 139h-378l-55 -139h-130l237 600q17 48 52.5 67.5t89.5 19.5q53 0 88 -19.5t52 -67.5l228 -600h-131zM248 251h292l-110 292q-9 23 -33 23t-34 -23zM98 1022l112 -215h-106l-124 215h118zM284 873q14 28 42 39.5t68 11.5q39 0 66.5 -12t41.5 -39l91 -164h-113
l-67 125q-5 9 -20 9t-20 -9l-66 -125h-113z" />
    <glyph glyph-name="uni1EA7" unicode="&#x1ea7;" horiz-adv-x="672" 
d="M0 0zM414 528q49 0 84 -13t57.5 -36.5t32.5 -55.5t10 -69v-248q0 -29 -4.5 -49t-16.5 -32.5t-33.5 -18.5t-54.5 -6h-247q-94 0 -135.5 43t-41.5 118q0 36 9.5 64t30.5 47.5t55 30t83 10.5h251v40q0 31 -18.5 52t-62.5 21h-316v102h317zM465 103q29 0 29 27v99h-249
q-42 0 -59 -16.5t-17 -45.5t17 -46.5t57 -17.5h222zM59 906l112 -215h-106l-124 215h118zM227 726q14 28 42 39.5t68 11.5q39 0 66.5 -12t41.5 -39l91 -164h-113l-67 125q-5 9 -20 9t-20 -9l-66 -125h-113z" />
    <glyph glyph-name="uni1EA8" unicode="&#x1ea8;" 
d="M19 0zM582 139h-378l-55 -139h-130l237 600q17 48 52.5 67.5t89.5 19.5q53 0 88 -19.5t52 -67.5l228 -600h-131zM248 251h292l-110 292q-9 23 -33 23t-34 -23zM285 873q14 28 42 39.5t68 11.5q39 0 66.5 -12t41.5 -39l91 -164h-113l-67 125q-5 9 -20 9t-20 -9l-66 -125
h-113zM714 1122q80 0 114.5 -36.5t34.5 -96.5q0 -28 -7.5 -52.5t-22.5 -43t-38.5 -29t-56.5 -10.5h-21q-29 0 -39 -12t-10 -37v-27h-74v44q0 55 21.5 81t80.5 26h26q29 0 42 16.5t13 40.5q0 25 -15 39.5t-49 14.5h-167v82h168z" />
    <glyph glyph-name="uni1EA9" unicode="&#x1ea9;" horiz-adv-x="672" 
d="M65 0zM414 528q49 0 84 -13t57.5 -36.5t32.5 -55.5t10 -69v-248q0 -29 -4.5 -49t-16.5 -32.5t-33.5 -18.5t-54.5 -6h-247q-94 0 -135.5 43t-41.5 118q0 36 9.5 64t30.5 47.5t55 30t83 10.5h251v40q0 31 -18.5 52t-62.5 21h-316v102h317zM465 103q29 0 29 27v99h-249
q-42 0 -59 -16.5t-17 -45.5t17 -46.5t57 -17.5h222zM227 726q14 28 42 39.5t68 11.5q39 0 66.5 -12t41.5 -39l91 -164h-113l-67 125q-5 9 -20 9t-20 -9l-66 -125h-113zM624 1035q80 0 114.5 -36.5t34.5 -96.5q0 -28 -7.5 -52.5t-22.5 -43t-38.5 -29t-56.5 -10.5h-21
q-29 0 -39 -12t-10 -37v-27h-74v44q0 55 21.5 81t80.5 26h26q29 0 42 16.5t13 40.5q0 25 -15 39.5t-49 14.5h-167v82h168z" />
    <glyph glyph-name="uni1EAA" unicode="&#x1eaa;" 
d="M19 0zM582 139h-378l-55 -139h-130l237 600q17 48 52.5 67.5t89.5 19.5q53 0 88 -19.5t52 -67.5l228 -600h-131zM248 251h292l-110 292q-9 23 -33 23t-34 -23zM624 1041v-89h-459v89h459zM285 873q14 28 42 39.5t68 11.5q39 0 66.5 -12t41.5 -39l91 -164h-113l-67 125
q-5 9 -20 9t-20 -9l-66 -125h-113z" />
    <glyph glyph-name="uni1EAB" unicode="&#x1eab;" horiz-adv-x="672" 
d="M65 0zM414 528q49 0 84 -13t57.5 -36.5t32.5 -55.5t10 -69v-248q0 -29 -4.5 -49t-16.5 -32.5t-33.5 -18.5t-54.5 -6h-247q-94 0 -135.5 43t-41.5 118q0 36 9.5 64t30.5 47.5t55 30t83 10.5h251v40q0 31 -18.5 52t-62.5 21h-316v102h317zM465 103q29 0 29 27v99h-249
q-42 0 -59 -16.5t-17 -45.5t17 -46.5t57 -17.5h222zM568 944v-89h-459v89h459zM230 726q14 28 42 39.5t68 11.5q39 0 66.5 -12t41.5 -39l91 -164h-113l-67 125q-5 9 -20 9t-20 -9l-66 -125h-113z" />
    <glyph glyph-name="uni1EAC" unicode="&#x1eac;" 
d="M19 0zM582 139h-378l-55 -139h-130l237 600q17 48 52.5 67.5t89.5 19.5q53 0 88 -19.5t52 -67.5l228 -600h-131zM248 251h292l-110 292q-9 23 -33 23t-34 -23zM417 -76v-123h-107v123h107zM285 873q14 28 42 39.5t68 11.5q39 0 66.5 -12t41.5 -39l91 -164h-113l-67 125
q-5 9 -20 9t-20 -9l-66 -125h-113z" />
    <glyph glyph-name="uni1EAD" unicode="&#x1ead;" horiz-adv-x="672" 
d="M65 0zM414 528q49 0 84 -13t57.5 -36.5t32.5 -55.5t10 -69v-248q0 -29 -4.5 -49t-16.5 -32.5t-33.5 -18.5t-54.5 -6h-247q-94 0 -135.5 43t-41.5 118q0 36 9.5 64t30.5 47.5t55 30t83 10.5h251v40q0 31 -18.5 52t-62.5 21h-316v102h317zM465 103q29 0 29 27v99h-249
q-42 0 -59 -16.5t-17 -45.5t17 -46.5t57 -17.5h222zM360 -76v-123h-107v123h107zM226 726q14 28 42 39.5t68 11.5q39 0 66.5 -12t41.5 -39l91 -164h-113l-67 125q-5 9 -20 9t-20 -9l-66 -125h-113z" />
    <glyph glyph-name="uni1EAE" unicode="&#x1eae;" 
d="M19 0zM582 139h-378l-55 -139h-130l237 600q17 48 52.5 67.5t89.5 19.5q53 0 88 -19.5t52 -67.5l228 -600h-131zM248 251h292l-110 292q-9 23 -33 23t-34 -23zM545 1150l-125 -215h-105l112 215h118zM280 924v-56q0 -24 5 -40t18 -26.5t35 -15t57 -4.5q34 0 56 4.5
t34.5 15t17.5 26.5t5 40v56h90v-57q0 -44 -9.5 -74t-33 -48.5t-62.5 -27t-98 -8.5q-60 0 -99.5 8.5t-62.5 27t-32.5 48.5t-9.5 74v57h89z" />
    <glyph glyph-name="uni1EAF" unicode="&#x1eaf;" horiz-adv-x="672" 
d="M65 0zM414 528q49 0 84 -13t57.5 -36.5t32.5 -55.5t10 -69v-248q0 -29 -4.5 -49t-16.5 -32.5t-33.5 -18.5t-54.5 -6h-247q-94 0 -135.5 43t-41.5 118q0 36 9.5 64t30.5 47.5t55 30t83 10.5h251v40q0 31 -18.5 52t-62.5 21h-316v102h317zM465 103q29 0 29 27v99h-249
q-42 0 -59 -16.5t-17 -45.5t17 -46.5t57 -17.5h222zM504 1004l-125 -215h-105l112 215h118zM229 777v-56q0 -24 5 -40t18 -26.5t35 -15t57 -4.5q34 0 56 4.5t34.5 15t17.5 26.5t5 40v56h90v-57q0 -44 -9.5 -74t-33 -48.5t-62.5 -27t-98 -8.5q-60 0 -99.5 8.5t-62.5 27
t-32.5 48.5t-9.5 74v57h89z" />
    <glyph glyph-name="uni1EB0" unicode="&#x1eb0;" 
d="M19 0zM582 139h-378l-55 -139h-130l237 600q17 48 52.5 67.5t89.5 19.5q53 0 88 -19.5t52 -67.5l228 -600h-131zM248 251h292l-110 292q-9 23 -33 23t-34 -23zM280 924v-56q0 -24 5 -40t18 -26.5t35 -15t57 -4.5q34 0 56 4.5t34.5 15t17.5 26.5t5 40v56h90v-57
q0 -44 -9.5 -74t-33 -48.5t-62.5 -27t-98 -8.5q-60 0 -99.5 8.5t-62.5 27t-32.5 48.5t-9.5 74v57h89zM373 1150l112 -215h-106l-124 215h118z" />
    <glyph glyph-name="uni1EB1" unicode="&#x1eb1;" horiz-adv-x="672" 
d="M65 0zM414 528q49 0 84 -13t57.5 -36.5t32.5 -55.5t10 -69v-248q0 -29 -4.5 -49t-16.5 -32.5t-33.5 -18.5t-54.5 -6h-247q-94 0 -135.5 43t-41.5 118q0 36 9.5 64t30.5 47.5t55 30t83 10.5h251v40q0 31 -18.5 52t-62.5 21h-316v102h317zM465 103q29 0 29 27v99h-249
q-42 0 -59 -16.5t-17 -45.5t17 -46.5t57 -17.5h222zM226 777v-56q0 -24 5 -40t18 -26.5t35 -15t57 -4.5q34 0 56 4.5t34.5 15t17.5 26.5t5 40v56h90v-57q0 -44 -9.5 -74t-33 -48.5t-62.5 -27t-98 -8.5q-60 0 -99.5 8.5t-62.5 27t-32.5 48.5t-9.5 74v57h89zM313 1004
l112 -215h-106l-124 215h118z" />
    <glyph glyph-name="uni1EB2" unicode="&#x1eb2;" 
d="M19 0zM582 139h-378l-55 -139h-130l237 600q17 48 52.5 67.5t89.5 19.5q53 0 88 -19.5t52 -67.5l228 -600h-131zM248 251h292l-110 292q-9 23 -33 23t-34 -23zM279 936v-56q0 -24 5 -40t18 -26.5t35 -15t57 -4.5q34 0 56 4.5t34.5 15t17.5 26.5t5 40v56h90v-57
q0 -44 -9.5 -74t-33 -48.5t-62.5 -27t-98 -8.5q-60 0 -99.5 8.5t-62.5 27t-32.5 48.5t-9.5 74v57h89zM472 1249q80 0 114.5 -36.5t34.5 -96.5q0 -28 -7.5 -52.5t-22.5 -43t-38.5 -29t-56.5 -10.5h-21q-29 0 -39 -12t-10 -37v-27h-74v44q0 55 21.5 81t80.5 26h26
q29 0 42 16.5t13 40.5q0 25 -15 39.5t-49 14.5h-167v82h168z" />
    <glyph glyph-name="uni1EB3" unicode="&#x1eb3;" horiz-adv-x="672" 
d="M65 0zM414 528q49 0 84 -13t57.5 -36.5t32.5 -55.5t10 -69v-248q0 -29 -4.5 -49t-16.5 -32.5t-33.5 -18.5t-54.5 -6h-247q-94 0 -135.5 43t-41.5 118q0 36 9.5 64t30.5 47.5t55 30t83 10.5h251v40q0 31 -18.5 52t-62.5 21h-316v102h317zM465 103q29 0 29 27v99h-249
q-42 0 -59 -16.5t-17 -45.5t17 -46.5t57 -17.5h222zM224 777v-56q0 -24 5 -40t18 -26.5t35 -15t57 -4.5q34 0 56 4.5t34.5 15t17.5 26.5t5 40v56h90v-57q0 -44 -9.5 -74t-33 -48.5t-62.5 -27t-98 -8.5q-60 0 -99.5 8.5t-62.5 27t-32.5 48.5t-9.5 74v57h89zM421 1133
q80 0 114.5 -36.5t34.5 -96.5q0 -28 -7.5 -52.5t-22.5 -43t-38.5 -29t-56.5 -10.5h-21q-29 0 -39 -12t-10 -37v-27h-74v44q0 55 21.5 81t80.5 26h26q29 0 42 16.5t13 40.5q0 25 -15 39.5t-49 14.5h-167v82h168z" />
    <glyph glyph-name="uni1EB4" unicode="&#x1eb4;" 
d="M19 0zM582 139h-378l-55 -139h-130l237 600q17 48 52.5 67.5t89.5 19.5q53 0 88 -19.5t52 -67.5l228 -600h-131zM248 251h292l-110 292q-9 23 -33 23t-34 -23zM279 924v-56q0 -24 5 -40t18 -26.5t35 -15t57 -4.5q34 0 56 4.5t34.5 15t17.5 26.5t5 40v56h90v-57
q0 -44 -9.5 -74t-33 -48.5t-62.5 -27t-98 -8.5q-60 0 -99.5 8.5t-62.5 27t-32.5 48.5t-9.5 74v57h89zM624 1060v-89h-459v89h459z" />
    <glyph glyph-name="uni1EB5" unicode="&#x1eb5;" horiz-adv-x="672" 
d="M65 0zM414 528q49 0 84 -13t57.5 -36.5t32.5 -55.5t10 -69v-248q0 -29 -4.5 -49t-16.5 -32.5t-33.5 -18.5t-54.5 -6h-247q-94 0 -135.5 43t-41.5 118q0 36 9.5 64t30.5 47.5t55 30t83 10.5h251v40q0 31 -18.5 52t-62.5 21h-316v102h317zM465 103q29 0 29 27v99h-249
q-42 0 -59 -16.5t-17 -45.5t17 -46.5t57 -17.5h222zM224 777v-56q0 -24 5 -40t18 -26.5t35 -15t57 -4.5q34 0 56 4.5t34.5 15t17.5 26.5t5 40v56h90v-57q0 -44 -9.5 -74t-33 -48.5t-62.5 -27t-98 -8.5q-60 0 -99.5 8.5t-62.5 27t-32.5 48.5t-9.5 74v57h89zM571 944v-89h-459
v89h459z" />
    <glyph glyph-name="uni1EB6" unicode="&#x1eb6;" 
d="M19 0zM582 139h-378l-55 -139h-130l237 600q17 48 52.5 67.5t89.5 19.5q53 0 88 -19.5t52 -67.5l228 -600h-131zM248 251h292l-110 292q-9 23 -33 23t-34 -23zM280 924v-56q0 -24 5 -40t18 -26.5t35 -15t57 -4.5q34 0 56 4.5t34.5 15t17.5 26.5t5 40v56h90v-57
q0 -44 -9.5 -74t-33 -48.5t-62.5 -27t-98 -8.5q-60 0 -99.5 8.5t-62.5 27t-32.5 48.5t-9.5 74v57h89zM448 -76v-123h-107v123h107z" />
    <glyph glyph-name="uni1EB7" unicode="&#x1eb7;" horiz-adv-x="672" 
d="M65 0zM414 528q49 0 84 -13t57.5 -36.5t32.5 -55.5t10 -69v-248q0 -29 -4.5 -49t-16.5 -32.5t-33.5 -18.5t-54.5 -6h-247q-94 0 -135.5 43t-41.5 118q0 36 9.5 64t30.5 47.5t55 30t83 10.5h251v40q0 31 -18.5 52t-62.5 21h-316v102h317zM465 103q29 0 29 27v99h-249
q-42 0 -59 -16.5t-17 -45.5t17 -46.5t57 -17.5h222zM221 777v-56q0 -24 5 -40t18 -26.5t35 -15t57 -4.5q34 0 56 4.5t34.5 15t17.5 26.5t5 40v56h90v-57q0 -44 -9.5 -74t-33 -48.5t-62.5 -27t-98 -8.5q-60 0 -99.5 8.5t-62.5 27t-32.5 48.5t-9.5 74v57h89zM390 -76v-123
h-107v123h107z" />
    <glyph glyph-name="uni1EB8" unicode="&#x1eb8;" horiz-adv-x="693" 
d="M55 0zM621 675v-118h-338q-54 0 -78 -23t-24 -62q0 -80 103 -80h332v-107h-335q-103 0 -103 -82q0 -40 25 -62.5t77 -22.5h342v-118h-342q-60 0 -102.5 14t-70 38.5t-40 58.5t-12.5 73q0 58 25 96.5t72 58.5q-95 39 -95 152q0 40 13 74t40.5 58.5t70 38t102.5 13.5h338z
M407 -76v-123h-107v123h107z" />
    <glyph glyph-name="uni1EB9" unicode="&#x1eb9;" horiz-adv-x="652" 
d="M65 0zM420 528q94 0 136 -42.5t42 -119.5q0 -73 -41 -112.5t-138 -39.5h-251v-38q0 -32 18.5 -52.5t62.5 -20.5h323v-103h-323q-50 0 -84.5 13t-57 36.5t-32.5 55t-10 69.5v180q0 37 10 69t32.5 55.5t57 36.5t84.5 13h171zM168 297h248q43 0 60.5 17t17.5 46q0 30 -18 48
t-57 18h-170q-44 0 -62.5 -21t-18.5 -52v-56zM378 -76v-123h-107v123h107z" />
    <glyph glyph-name="uni1EBA" unicode="&#x1eba;" horiz-adv-x="693" 
d="M55 0zM621 675v-118h-338q-54 0 -78 -23t-24 -62q0 -80 103 -80h332v-107h-335q-103 0 -103 -82q0 -40 25 -62.5t77 -22.5h342v-118h-342q-60 0 -102.5 14t-70 38.5t-40 58.5t-12.5 73q0 58 25 96.5t72 58.5q-95 39 -95 152q0 40 13 74t40.5 58.5t70 38t102.5 13.5h338z
M440 1053q80 0 114.5 -36.5t34.5 -96.5q0 -28 -7.5 -52.5t-22.5 -43t-38.5 -29t-56.5 -10.5h-21q-29 0 -39 -12t-10 -37v-27h-74v44q0 55 21.5 81t80.5 26h26q29 0 42 16.5t13 40.5q0 25 -15 39.5t-49 14.5h-167v82h168z" />
    <glyph glyph-name="uni1EBB" unicode="&#x1ebb;" horiz-adv-x="652" 
d="M65 0zM420 528q94 0 136 -42.5t42 -119.5q0 -73 -41 -112.5t-138 -39.5h-251v-38q0 -32 18.5 -52.5t62.5 -20.5h323v-103h-323q-50 0 -84.5 13t-57 36.5t-32.5 55t-10 69.5v180q0 37 10 69t32.5 55.5t57 36.5t84.5 13h171zM168 297h248q43 0 60.5 17t17.5 46q0 30 -18 48
t-57 18h-170q-44 0 -62.5 -21t-18.5 -52v-56zM416 906q80 0 114.5 -36.5t34.5 -96.5q0 -28 -7.5 -52.5t-22.5 -43t-38.5 -29t-56.5 -10.5h-21q-29 0 -39 -12t-10 -37v-27h-74v44q0 55 21.5 81t80.5 26h26q29 0 42 16.5t13 40.5q0 25 -15 39.5t-49 14.5h-167v82h168z" />
    <glyph glyph-name="uni1EBC" unicode="&#x1ebc;" horiz-adv-x="693" 
d="M55 0zM621 675v-118h-338q-54 0 -78 -23t-24 -62q0 -80 103 -80h332v-107h-335q-103 0 -103 -82q0 -40 25 -62.5t77 -22.5h342v-118h-342q-60 0 -102.5 14t-70 38.5t-40 58.5t-12.5 73q0 58 25 96.5t72 58.5q-95 39 -95 152q0 40 13 74t40.5 58.5t70 38t102.5 13.5h338z
M615 864v-89h-459v89h459z" />
    <glyph glyph-name="uni1EBD" unicode="&#x1ebd;" horiz-adv-x="652" 
d="M65 0zM420 528q94 0 136 -42.5t42 -119.5q0 -73 -41 -112.5t-138 -39.5h-251v-38q0 -32 18.5 -52.5t62.5 -20.5h323v-103h-323q-50 0 -84.5 13t-57 36.5t-32.5 55t-10 69.5v180q0 37 10 69t32.5 55.5t57 36.5t84.5 13h171zM168 297h248q43 0 60.5 17t17.5 46q0 30 -18 48
t-57 18h-170q-44 0 -62.5 -21t-18.5 -52v-56zM555 717v-89h-459v89h459z" />
    <glyph glyph-name="uni1EBE" unicode="&#x1ebe;" horiz-adv-x="693" 
d="M55 0zM621 675v-118h-338q-54 0 -78 -23t-24 -62q0 -80 103 -80h332v-107h-335q-103 0 -103 -82q0 -40 25 -62.5t77 -22.5h342v-118h-342q-60 0 -102.5 14t-70 38.5t-40 58.5t-12.5 73q0 58 25 96.5t72 58.5q-95 39 -95 152q0 40 13 74t40.5 58.5t70 38t102.5 13.5h338z
M802 1022l-125 -215h-105l112 215h118zM279 873q14 28 42 39.5t68 11.5q39 0 66.5 -12t41.5 -39l91 -164h-113l-67 125q-5 9 -20 9t-20 -9l-66 -125h-113z" />
    <glyph glyph-name="uni1EBF" unicode="&#x1ebf;" horiz-adv-x="652" 
d="M65 0zM420 528q94 0 136 -42.5t42 -119.5q0 -73 -41 -112.5t-138 -39.5h-251v-38q0 -32 18.5 -52.5t62.5 -20.5h323v-103h-323q-50 0 -84.5 13t-57 36.5t-32.5 55t-10 69.5v180q0 37 10 69t32.5 55.5t57 36.5t84.5 13h171zM168 297h248q43 0 60.5 17t17.5 46q0 30 -18 48
t-57 18h-170q-44 0 -62.5 -21t-18.5 -52v-56zM730 906l-125 -215h-105l112 215h118zM223 726q14 28 42 39.5t68 11.5q39 0 66.5 -12t41.5 -39l91 -164h-113l-67 125q-5 9 -20 9t-20 -9l-66 -125h-113z" />
    <glyph glyph-name="uni1EC0" unicode="&#x1ec0;" horiz-adv-x="693" 
d="M0 0zM621 675v-118h-338q-54 0 -78 -23t-24 -62q0 -80 103 -80h332v-107h-335q-103 0 -103 -82q0 -40 25 -62.5t77 -22.5h342v-118h-342q-60 0 -102.5 14t-70 38.5t-40 58.5t-12.5 73q0 58 25 96.5t72 58.5q-95 39 -95 152q0 40 13 74t40.5 58.5t70 38t102.5 13.5h338z
M96 1022l112 -215h-106l-124 215h118zM280 873q14 28 42 39.5t68 11.5q39 0 66.5 -12t41.5 -39l91 -164h-113l-67 125q-5 9 -20 9t-20 -9l-66 -125h-113z" />
    <glyph glyph-name="uni1EC1" unicode="&#x1ec1;" horiz-adv-x="652" 
d="M0 0zM420 528q94 0 136 -42.5t42 -119.5q0 -73 -41 -112.5t-138 -39.5h-251v-38q0 -32 18.5 -52.5t62.5 -20.5h323v-103h-323q-50 0 -84.5 13t-57 36.5t-32.5 55t-10 69.5v180q0 37 10 69t32.5 55.5t57 36.5t84.5 13h171zM168 297h248q43 0 60.5 17t17.5 46q0 30 -18 48
t-57 18h-170q-44 0 -62.5 -21t-18.5 -52v-56zM54 906l112 -215h-106l-124 215h118zM222 726q14 28 42 39.5t68 11.5q39 0 66.5 -12t41.5 -39l91 -164h-113l-67 125q-5 9 -20 9t-20 -9l-66 -125h-113z" />
    <glyph glyph-name="uni1EC2" unicode="&#x1ec2;" horiz-adv-x="693" 
d="M55 0zM621 675v-118h-338q-54 0 -78 -23t-24 -62q0 -80 103 -80h332v-107h-335q-103 0 -103 -82q0 -40 25 -62.5t77 -22.5h342v-118h-342q-60 0 -102.5 14t-70 38.5t-40 58.5t-12.5 73q0 58 25 96.5t72 58.5q-95 39 -95 152q0 40 13 74t40.5 58.5t70 38t102.5 13.5h338z
M248 873q14 28 42 39.5t68 11.5q39 0 66.5 -12t41.5 -39l91 -164h-113l-67 125q-5 9 -20 9t-20 -9l-66 -125h-113zM677 1122q80 0 114.5 -36.5t34.5 -96.5q0 -28 -7.5 -52.5t-22.5 -43t-38.5 -29t-56.5 -10.5h-21q-29 0 -39 -12t-10 -37v-27h-74v44q0 55 21.5 81t80.5 26h26
q29 0 42 16.5t13 40.5q0 25 -15 39.5t-49 14.5h-167v82h168z" />
    <glyph glyph-name="uni1EC3" unicode="&#x1ec3;" horiz-adv-x="652" 
d="M65 0zM420 528q94 0 136 -42.5t42 -119.5q0 -73 -41 -112.5t-138 -39.5h-251v-38q0 -32 18.5 -52.5t62.5 -20.5h323v-103h-323q-50 0 -84.5 13t-57 36.5t-32.5 55t-10 69.5v180q0 37 10 69t32.5 55.5t57 36.5t84.5 13h171zM168 297h248q43 0 60.5 17t17.5 46q0 30 -18 48
t-57 18h-170q-44 0 -62.5 -21t-18.5 -52v-56zM216 726q14 28 42 39.5t68 11.5q39 0 66.5 -12t41.5 -39l91 -164h-113l-67 125q-5 9 -20 9t-20 -9l-66 -125h-113zM611 1035q80 0 114.5 -36.5t34.5 -96.5q0 -28 -7.5 -52.5t-22.5 -43t-38.5 -29t-56.5 -10.5h-21q-29 0 -39 -12
t-10 -37v-27h-74v44q0 55 21.5 81t80.5 26h26q29 0 42 16.5t13 40.5q0 25 -15 39.5t-49 14.5h-167v82h168z" />
    <glyph glyph-name="uni1EC4" unicode="&#x1ec4;" horiz-adv-x="693" 
d="M55 0zM621 675v-118h-338q-54 0 -78 -23t-24 -62q0 -80 103 -80h332v-107h-335q-103 0 -103 -82q0 -40 25 -62.5t77 -22.5h342v-118h-342q-60 0 -102.5 14t-70 38.5t-40 58.5t-12.5 73q0 58 25 96.5t72 58.5q-95 39 -95 152q0 40 13 74t40.5 58.5t70 38t102.5 13.5h338z
M596 1060v-89h-459v89h459zM257 873q14 28 42 39.5t68 11.5q39 0 66.5 -12t41.5 -39l91 -164h-113l-67 125q-5 9 -20 9t-20 -9l-66 -125h-113z" />
    <glyph glyph-name="uni1EC5" unicode="&#x1ec5;" horiz-adv-x="652" 
d="M65 0zM420 528q94 0 136 -42.5t42 -119.5q0 -73 -41 -112.5t-138 -39.5h-251v-38q0 -32 18.5 -52.5t62.5 -20.5h323v-103h-323q-50 0 -84.5 13t-57 36.5t-32.5 55t-10 69.5v180q0 37 10 69t32.5 55.5t57 36.5t84.5 13h171zM168 297h248q43 0 60.5 17t17.5 46q0 30 -18 48
t-57 18h-170q-44 0 -62.5 -21t-18.5 -52v-56zM559 944v-89h-459v89h459zM220 726q14 28 42 39.5t68 11.5q39 0 66.5 -12t41.5 -39l91 -164h-113l-67 125q-5 9 -20 9t-20 -9l-66 -125h-113z" />
    <glyph glyph-name="uni1EC6" unicode="&#x1ec6;" horiz-adv-x="693" 
d="M55 0zM621 675v-118h-338q-54 0 -78 -23t-24 -62q0 -80 103 -80h332v-107h-335q-103 0 -103 -82q0 -40 25 -62.5t77 -22.5h342v-118h-342q-60 0 -102.5 14t-70 38.5t-40 58.5t-12.5 73q0 58 25 96.5t72 58.5q-95 39 -95 152q0 40 13 74t40.5 58.5t70 38t102.5 13.5h338z
M430 -76v-123h-107v123h107zM268 873q14 28 42 39.5t68 11.5q39 0 66.5 -12t41.5 -39l91 -164h-113l-67 125q-5 9 -20 9t-20 -9l-66 -125h-113z" />
    <glyph glyph-name="uni1EC7" unicode="&#x1ec7;" horiz-adv-x="652" 
d="M65 0zM420 528q94 0 136 -42.5t42 -119.5q0 -73 -41 -112.5t-138 -39.5h-251v-38q0 -32 18.5 -52.5t62.5 -20.5h323v-103h-323q-50 0 -84.5 13t-57 36.5t-32.5 55t-10 69.5v180q0 37 10 69t32.5 55.5t57 36.5t84.5 13h171zM168 297h248q43 0 60.5 17t17.5 46q0 30 -18 48
t-57 18h-170q-44 0 -62.5 -21t-18.5 -52v-56zM382 -76v-123h-107v123h107zM219 726q14 28 42 39.5t68 11.5q39 0 66.5 -12t41.5 -39l91 -164h-113l-67 125q-5 9 -20 9t-20 -9l-66 -125h-113z" />
    <glyph glyph-name="uni1EC8" unicode="&#x1ec8;" horiz-adv-x="295" 
d="M44 0zM200 675v-675h-118v675h118zM212 1053q80 0 114.5 -36.5t34.5 -96.5q0 -28 -7.5 -52.5t-22.5 -43t-38.5 -29t-56.5 -10.5h-21q-29 0 -39 -12t-10 -37v-27h-74v44q0 55 21.5 81t80.5 26h26q29 0 42 16.5t13 40.5q0 25 -15 39.5t-49 14.5h-167v82h168z" />
    <glyph glyph-name="uni1EC9" unicode="&#x1ec9;" horiz-adv-x="289" 
d="M30 0zM182 528v-528h-106v528h106zM198 906q80 0 114.5 -36.5t34.5 -96.5q0 -28 -7.5 -52.5t-22.5 -43t-38.5 -29t-56.5 -10.5h-21q-29 0 -39 -12t-10 -37v-27h-74v44q0 55 21.5 81t80.5 26h26q29 0 42 16.5t13 40.5q0 25 -15 39.5t-49 14.5h-167v82h168z" />
    <glyph glyph-name="uni1ECA" unicode="&#x1eca;" horiz-adv-x="281" 
d="M82 0zM200 675v-675h-118v675h118zM194 -76v-123h-107v123h107z" />
    <glyph glyph-name="uni1ECB" unicode="&#x1ecb;" horiz-adv-x="258" 
d="M76 0zM182 528v-528h-106v528h106zM183 -76v-123h-107v123h107zM183 727v-123h-107v123h107z" />
    <glyph glyph-name="uni1ECC" unicode="&#x1ecc;" horiz-adv-x="816" 
d="M57 0zM454 675q148 0 226.5 -84t78.5 -255q0 -170 -78.5 -253t-226.5 -83h-92q-148 0 -226.5 83t-78.5 253q0 171 78.5 255t226.5 84h92zM362 557q-98 0 -142.5 -52t-44.5 -169q0 -116 44 -167t143 -51h92q97 0 141.5 51.5t44.5 167.5t-44 168t-142 52h-92zM461 -76v-123
h-107v123h107z" />
    <glyph glyph-name="uni1ECD" unicode="&#x1ecd;" horiz-adv-x="671" 
d="M51 0zM391 528q105 0 167 -65.5t62 -198.5q0 -134 -62 -199t-167 -65h-111q-106 0 -167.5 65t-61.5 199t61.5 199t167.5 65h111zM290 426q-69 0 -100.5 -38t-31.5 -124t31.5 -123.5t100.5 -37.5h91q69 0 100.5 37.5t31.5 123.5t-31.5 124t-100.5 38h-91zM389 -76v-123
h-107v123h107z" />
    <glyph glyph-name="uni1ECE" unicode="&#x1ece;" horiz-adv-x="816" 
d="M57 0zM454 675q148 0 226.5 -84t78.5 -255q0 -170 -78.5 -253t-226.5 -83h-92q-148 0 -226.5 83t-78.5 253q0 171 78.5 255t226.5 84h92zM362 557q-98 0 -142.5 -52t-44.5 -169q0 -116 44 -167t143 -51h92q97 0 141.5 51.5t44.5 167.5t-44 168t-142 52h-92zM481 1053
q80 0 114.5 -36.5t34.5 -96.5q0 -28 -7.5 -52.5t-22.5 -43t-38.5 -29t-56.5 -10.5h-21q-29 0 -39 -12t-10 -37v-27h-74v44q0 55 21.5 81t80.5 26h26q29 0 42 16.5t13 40.5q0 25 -15 39.5t-49 14.5h-167v82h168z" />
    </font>
</defs>
</svg>
