<?xml version="1.0" standalone="no"?>
<!DOCTYPE svg PUBLIC "-//W3C//DTD SVG 1.1//EN" "http://www.w3.org/Graphics/SVG/1.1/DTD/svg11.dtd" >
<svg xmlns="http://www.w3.org/2000/svg" xmlns:xlink="http://www.w3.org/1999/xlink" version="1.1">
<metadata>
Created by FontForge 20170731 at Wed May 31 05:50:12 2017
 By Aleksey,,,
(c) 2015-2017 Apple Inc. All rights reserved.
</metadata>
<defs>
<font id="SFProDisplay-Semibold" horiz-adv-x="1694" >
  <font-face 
    font-family="SF Pro Display"
    font-weight="600"
    font-stretch="normal"
    units-per-em="2048"
    panose-1="0 0 7 0 0 0 0 0 0 0"
    ascent="1638"
    descent="-410"
    x-height="1060"
    cap-height="1443"
    bbox="-558 -513 2606 2181"
    underline-thickness="165"
    underline-position="-865"
    unicode-range="U+0020-1F189"
  />
<missing-glyph horiz-adv-x="2048" 
d="M100 -494v234h1848v-234h-1848zM100 -52v234h1848v-234h-1848zM100 390v234h1848v-234h-1848zM100 832v234h1848v-234h-1848zM100 1274v234h1848v-234h-1848zM100 1716v234h1848v-234h-1848z" />
    <glyph glyph-name="uni2460" unicode="&#x31;&#x20dd;" 
d="M969 385h-175v536h-7l-162 -110v152l169 114h175v-692zM847 105q167 0 307 82.5t220 224t80 308.5t-80 308.5t-220 224t-307 82.5t-307 -82.5t-220 -224t-80 -308.5t80 -308.5t220 -224t307 -82.5zM847 -53q-158 0 -301 61t-246.5 164.5t-164.5 247t-61 301.5t61 301
t164.5 246.5t246.5 164.5t301 61t301 -61t246.5 -164.5t164.5 -246.5t61 -301t-61 -301.5t-164.5 -247t-246.5 -164.5t-301 -61z" />
    <glyph glyph-name="uni2461" unicode="&#x32;&#x20dd;" 
d="M750 859h-163v4q0 96 69 161t192 65q114 0 185 -56.5t71 -144.5q0 -58 -32 -106t-98 -110l-140 -145v-6h281v-137h-519v106l257 254q40 39 59 67.5t19 61.5q0 36 -25 58.5t-64 22.5q-43 0 -67.5 -26t-24.5 -65v-4zM847 105q167 0 307 82.5t220 224t80 308.5t-80 308.5
t-220 224t-307 82.5t-307 -82.5t-220 -224t-80 -308.5t80 -308.5t220 -224t307 -82.5zM847 -53q-158 0 -301 61t-246.5 164.5t-164.5 247t-61 301.5t61 301t164.5 246.5t246.5 164.5t301 61t301 -61t246.5 -164.5t164.5 -246.5t61 -301t-61 -301.5t-164.5 -247
t-246.5 -164.5t-301 -61z" />
    <glyph glyph-name="uni2462" unicode="&#x33;&#x20dd;" 
d="M770 674v128h72q43 0 70 23.5t27 59.5q-1 35 -27.5 56.5t-69.5 21.5t-70.5 -23.5t-29.5 -57.5h-162q4 94 73 150t193 57q117 0 188 -50.5t73 -132.5q1 -61 -41 -103.5t-92 -50.5v-8q59 -5 105.5 -48.5t47.5 -116.5q1 -94 -79 -150.5t-205 -56.5q-124 0 -197.5 58.5
t-75.5 149.5h160q2 -35 33 -57t79 -23q51 0 82.5 24.5t31.5 63.5q-1 39 -31 62.5t-80 23.5h-75zM847 105q167 0 307 82.5t220 224t80 308.5t-80 308.5t-220 224t-307 82.5t-307 -82.5t-220 -224t-80 -308.5t80 -308.5t220 -224t307 -82.5zM847 -53q-158 0 -301 61
t-246.5 164.5t-164.5 247t-61 301.5t61 301t164.5 246.5t246.5 164.5t301 61t301 -61t246.5 -164.5t164.5 -246.5t61 -301t-61 -301.5t-164.5 -247t-246.5 -164.5t-301 -61z" />
    <glyph glyph-name="uni2463" unicode="&#x34;&#x20dd;" 
d="M789 1077h241v-441h94v-131h-94v-120h-151v120h-348v133q64 120 258 439zM684 636h195v327h-7q-100 -157 -188 -324v-3zM847 105q167 0 307 82.5t220 224t80 308.5t-80 308.5t-220 224t-307 82.5t-307 -82.5t-220 -224t-80 -308.5t80 -308.5t220 -224t307 -82.5zM847 -53
q-158 0 -301 61t-246.5 164.5t-164.5 247t-61 301.5t61 301t164.5 246.5t246.5 164.5t301 61t301 -61t246.5 -164.5t164.5 -246.5t61 -301t-61 -301.5t-164.5 -247t-246.5 -164.5t-301 -61z" />
    <glyph glyph-name="uni2464" unicode="&#x35;&#x20dd;" 
d="M586 579h161q7 -35 38 -54t72 -19q46 0 79 31.5t33 82.5q0 48 -33 78t-80 30q-37 0 -63.5 -16.5t-38.5 -39.5h-154l29 408h464v-127h-330l-14 -168h8q14 25 54.5 44t94.5 19q100 0 165.5 -60.5t65.5 -162.5q0 -113 -77.5 -181.5t-205.5 -68.5q-116 0 -190.5 57.5
t-77.5 146.5zM847 105q167 0 307 82.5t220 224t80 308.5t-80 308.5t-220 224t-307 82.5t-307 -82.5t-220 -224t-80 -308.5t80 -308.5t220 -224t307 -82.5zM847 -53q-158 0 -301 61t-246.5 164.5t-164.5 247t-61 301.5t61 301t164.5 246.5t246.5 164.5t301 61t301 -61
t246.5 -164.5t164.5 -246.5t61 -301t-61 -301.5t-164.5 -247t-246.5 -164.5t-301 -61z" />
    <glyph glyph-name="uni2465" unicode="&#x36;&#x20dd;" 
d="M1113 907h-161q-8 23 -32.5 39t-62.5 16q-63 0 -99 -60.5t-32 -159.5h7q19 41 62 67.5t107 26.5q95 0 160 -58t65 -160q0 -114 -76.5 -180t-199.5 -66q-163 0 -239 120q-55 86 -55 228q0 180 80 274.5t220 94.5q110 0 179.5 -54t76.5 -128zM739 613q0 -51 32 -81.5
t80 -30.5q49 0 79.5 29t30.5 82q0 50 -31.5 79t-78.5 29q-49 0 -80.5 -30t-31.5 -77zM847 105q167 0 307 82.5t220 224t80 308.5t-80 308.5t-220 224t-307 82.5t-307 -82.5t-220 -224t-80 -308.5t80 -308.5t220 -224t307 -82.5zM847 -53q-158 0 -301 61t-246.5 164.5
t-164.5 247t-61 301.5t61 301t164.5 246.5t246.5 164.5t301 61t301 -61t246.5 -164.5t164.5 -246.5t61 -301t-61 -301.5t-164.5 -247t-246.5 -164.5t-301 -61z" />
    <glyph glyph-name="uni2466" unicode="&#x37;&#x20dd;" 
d="M597 1070h524v-138l-282 -554h-185l290 549v7h-347v136zM847 105q167 0 307 82.5t220 224t80 308.5t-80 308.5t-220 224t-307 82.5t-307 -82.5t-220 -224t-80 -308.5t80 -308.5t220 -224t307 -82.5zM847 -53q-158 0 -301 61t-246.5 164.5t-164.5 247t-61 301.5t61 301
t164.5 246.5t246.5 164.5t301 61t301 -61t246.5 -164.5t164.5 -246.5t61 -301t-61 -301.5t-164.5 -247t-246.5 -164.5t-301 -61z" />
    <glyph glyph-name="uni2467" unicode="&#x38;&#x20dd;" 
d="M847 489q51 0 84 28t33 72t-32.5 72.5t-84.5 28.5t-85 -28.5t-33 -72.5t33 -72t85 -28zM847 799q43 0 70 24.5t27 62.5q0 37 -27.5 61t-69.5 24t-69.5 -24t-27.5 -61q0 -38 27 -62.5t70 -24.5zM846 372q-133 0 -213 56t-80 149q0 65 42 111.5t112 58.5v6
q-125 37 -125 151q0 83 73 134t192 51t192 -51t73 -134q0 -55 -32.5 -94.5t-92.5 -56.5v-6q70 -12 112 -58t42 -111q0 -94 -80.5 -150t-214.5 -56zM847 105q167 0 307 82.5t220 224t80 308.5t-80 308.5t-220 224t-307 82.5t-307 -82.5t-220 -224t-80 -308.5t80 -308.5
t220 -224t307 -82.5zM847 -53q-158 0 -301 61t-246.5 164.5t-164.5 247t-61 301.5t61 301t164.5 246.5t246.5 164.5t301 61t301 -61t246.5 -164.5t164.5 -246.5t61 -301t-61 -301.5t-164.5 -247t-246.5 -164.5t-301 -61z" />
    <glyph glyph-name="uni2468" unicode="&#x39;&#x20dd;" 
d="M567 847q0 109 78.5 175.5t199.5 66.5q131 0 211.5 -84.5t80.5 -265.5q0 -178 -77 -272t-224 -94q-109 0 -177 51.5t-75 126.5h162q8 -22 32 -36.5t59 -14.5q71 0 105.5 61.5t27.5 156.5h-6q-18 -42 -61 -68.5t-105 -26.5q-101 0 -166 60t-65 164zM954 848q0 52 -31 82.5
t-80 30.5q-47 0 -78 -30.5t-31 -81.5q0 -52 31.5 -81t79.5 -29q47 0 78 29t31 80zM847 105q167 0 307 82.5t220 224t80 308.5t-80 308.5t-220 224t-307 82.5t-307 -82.5t-220 -224t-80 -308.5t80 -308.5t220 -224t307 -82.5zM847 -53q-158 0 -301 61t-246.5 164.5
t-164.5 247t-61 301.5t61 301t164.5 246.5t246.5 164.5t301 61t301 -61t246.5 -164.5t164.5 -246.5t61 -301t-61 -301.5t-164.5 -247t-246.5 -164.5t-301 -61z" />
    <glyph glyph-name="uni24B6" unicode="A&#x20dd;" 
d="M764 688h166l-78 261h-10zM685 408h-175l233 692h208l233 -692h-175l-47 156h-230zM847 105q167 0 307 82.5t220 224t80 308.5t-80 308.5t-220 224t-307 82.5t-307 -82.5t-220 -224t-80 -308.5t80 -308.5t220 -224t307 -82.5zM847 -53q-158 0 -301 61t-246.5 164.5
t-164.5 247t-61 301.5t61 301t164.5 246.5t246.5 164.5t301 61t301 -61t246.5 -164.5t164.5 -246.5t61 -301t-61 -301.5t-164.5 -247t-246.5 -164.5t-301 -61z" />
    <glyph glyph-name="uni24B7" unicode="B&#x20dd;" 
d="M590 385v692h325q99 0 156.5 -45.5t57.5 -124.5q0 -59 -35 -99.5t-93 -52.5v-6q73 -9 117.5 -53.5t44.5 -118.5q0 -88 -68 -140t-177 -52h-328zM755 961v-168h86q124 0 124 86q0 38 -26 60t-72 22h-112zM755 690v-185h96q139 0 139 91q0 44 -30 69t-85 25h-120zM847 105
q167 0 307 82.5t220 224t80 308.5t-80 308.5t-220 224t-307 82.5t-307 -82.5t-220 -224t-80 -308.5t80 -308.5t220 -224t307 -82.5zM847 -53q-158 0 -301 61t-246.5 164.5t-164.5 247t-61 301.5t61 301t164.5 246.5t246.5 164.5t301 61t301 -61t246.5 -164.5t164.5 -246.5
t61 -301t-61 -301.5t-164.5 -247t-246.5 -164.5t-301 -61z" />
    <glyph glyph-name="uni24B8" unicode="C&#x20dd;" 
d="M991 623h166q-11 -112 -96 -181.5t-215 -69.5q-147 0 -240 98t-93 260q0 163 93 261t240 98q132 0 217 -71t95 -186h-164q-6 51 -47 84t-98 33q-74 0 -118 -59t-44 -160t44 -159.5t118 -58.5q55 0 95.5 31.5t46.5 79.5zM847 105q167 0 307 82.5t220 224t80 308.5
t-80 308.5t-220 224t-307 82.5t-307 -82.5t-220 -224t-80 -308.5t80 -308.5t220 -224t307 -82.5zM847 -53q-158 0 -301 61t-246.5 164.5t-164.5 247t-61 301.5t61 301t164.5 246.5t246.5 164.5t301 61t301 -61t246.5 -164.5t164.5 -246.5t61 -301t-61 -301.5t-164.5 -247
t-246.5 -164.5t-301 -61z" />
    <glyph glyph-name="uni24B9" unicode="D&#x20dd;" 
d="M587 1077h283q160 0 241.5 -88.5t81.5 -256.5t-81.5 -257.5t-241.5 -89.5h-283v692zM757 943v-425h87q89 0 131 52t42 160t-42 160.5t-131 52.5h-87zM847 105q167 0 307 82.5t220 224t80 308.5t-80 308.5t-220 224t-307 82.5t-307 -82.5t-220 -224t-80 -308.5t80 -308.5
t220 -224t307 -82.5zM847 -53q-158 0 -301 61t-246.5 164.5t-164.5 247t-61 301.5t61 301t164.5 246.5t246.5 164.5t301 61t301 -61t246.5 -164.5t164.5 -246.5t61 -301t-61 -301.5t-164.5 -247t-246.5 -164.5t-301 -61z" />
    <glyph glyph-name="uni24BA" unicode="E&#x20dd;" 
d="M1097 517v-132h-483v692h483v-132h-315v-152h296v-118h-296v-158h315zM847 105q167 0 307 82.5t220 224t80 308.5t-80 308.5t-220 224t-307 82.5t-307 -82.5t-220 -224t-80 -308.5t80 -308.5t220 -224t307 -82.5zM847 -53q-158 0 -301 61t-246.5 164.5t-164.5 247
t-61 301.5t61 301t164.5 246.5t246.5 164.5t301 61t301 -61t246.5 -164.5t164.5 -246.5t61 -301t-61 -301.5t-164.5 -247t-246.5 -164.5t-301 -61z" />
    <glyph glyph-name="uni24BB" unicode="F&#x20dd;" 
d="M810 385h-173v692h479v-134h-306v-164h278v-133h-278v-261zM847 105q167 0 307 82.5t220 224t80 308.5t-80 308.5t-220 224t-307 82.5t-307 -82.5t-220 -224t-80 -308.5t80 -308.5t220 -224t307 -82.5zM847 -53q-158 0 -301 61t-246.5 164.5t-164.5 247t-61 301.5t61 301
t164.5 246.5t246.5 164.5t301 61t301 -61t246.5 -164.5t164.5 -246.5t61 -301t-61 -301.5t-164.5 -247t-246.5 -164.5t-301 -61z" />
    <glyph glyph-name="uni24BC" unicode="G&#x20dd;" 
d="M994 609v40h-139v113h300v-122q0 -119 -81.5 -193.5t-225.5 -74.5q-150 0 -242.5 99t-92.5 259q0 161 92.5 260t242.5 99q125 0 210.5 -65.5t98.5 -173.5h-167q-7 47 -46 76.5t-94 29.5q-74 0 -118.5 -61.5t-44.5 -164.5t45 -165.5t118 -62.5q68 0 106 29.5t38 77.5z
M847 105q167 0 307 82.5t220 224t80 308.5t-80 308.5t-220 224t-307 82.5t-307 -82.5t-220 -224t-80 -308.5t80 -308.5t220 -224t307 -82.5zM847 -53q-158 0 -301 61t-246.5 164.5t-164.5 247t-61 301.5t61 301t164.5 246.5t246.5 164.5t301 61t301 -61t246.5 -164.5
t164.5 -246.5t61 -301t-61 -301.5t-164.5 -247t-246.5 -164.5t-301 -61z" />
    <glyph glyph-name="uni24BD" unicode="H&#x20dd;" 
d="M1150 385h-166v281h-273v-281h-166v692h166v-273h273v273h166v-692zM847 105q167 0 307 82.5t220 224t80 308.5t-80 308.5t-220 224t-307 82.5t-307 -82.5t-220 -224t-80 -308.5t80 -308.5t220 -224t307 -82.5zM847 -53q-158 0 -301 61t-246.5 164.5t-164.5 247
t-61 301.5t61 301t164.5 246.5t246.5 164.5t301 61t301 -61t246.5 -164.5t164.5 -246.5t61 -301t-61 -301.5t-164.5 -247t-246.5 -164.5t-301 -61z" />
    <glyph glyph-name="uni24BE" unicode="I&#x20dd;" 
d="M939 385h-184v692h184v-692zM847 105q167 0 307 82.5t220 224t80 308.5t-80 308.5t-220 224t-307 82.5t-307 -82.5t-220 -224t-80 -308.5t80 -308.5t220 -224t307 -82.5zM847 -53q-158 0 -301 61t-246.5 164.5t-164.5 247t-61 301.5t61 301t164.5 246.5t246.5 164.5
t301 61t301 -61t246.5 -164.5t164.5 -246.5t61 -301t-61 -301.5t-164.5 -247t-246.5 -164.5t-301 -61z" />
    <glyph glyph-name="uni24BF" unicode="J&#x20dd;" 
d="M561 602h169q1 -40 23.5 -62.5t60.5 -22.5q85 0 85 100v454h176v-454q0 -118 -69 -184.5t-189 -66.5t-188 65.5t-68 170.5zM847 105q167 0 307 82.5t220 224t80 308.5t-80 308.5t-220 224t-307 82.5t-307 -82.5t-220 -224t-80 -308.5t80 -308.5t220 -224t307 -82.5z
M847 -53q-158 0 -301 61t-246.5 164.5t-164.5 247t-61 301.5t61 301t164.5 246.5t246.5 164.5t301 61t301 -61t246.5 -164.5t164.5 -246.5t61 -301t-61 -301.5t-164.5 -247t-246.5 -164.5t-301 -61z" />
    <glyph glyph-name="uni24C0" unicode="K&#x20dd;" 
d="M1174 1077l-242 -307l250 -385h-201l-177 278l-70 -78v-200h-163v692h163v-302h6l245 302h189zM847 105q167 0 307 82.5t220 224t80 308.5t-80 308.5t-220 224t-307 82.5t-307 -82.5t-220 -224t-80 -308.5t80 -308.5t220 -224t307 -82.5zM847 -53q-158 0 -301 61
t-246.5 164.5t-164.5 247t-61 301.5t61 301t164.5 246.5t246.5 164.5t301 61t301 -61t246.5 -164.5t164.5 -246.5t61 -301t-61 -301.5t-164.5 -247t-246.5 -164.5t-301 -61z" />
    <glyph glyph-name="uni24C1" unicode="L&#x20dd;" 
d="M1124 534v-143h-473v693h177v-550h296zM847 105q167 0 307 82.5t220 224t80 308.5t-80 308.5t-220 224t-307 82.5t-307 -82.5t-220 -224t-80 -308.5t80 -308.5t220 -224t307 -82.5zM847 -53q-158 0 -301 61t-246.5 164.5t-164.5 247t-61 301.5t61 301t164.5 246.5
t246.5 164.5t301 61t301 -61t246.5 -164.5t164.5 -246.5t61 -301t-61 -301.5t-164.5 -247t-246.5 -164.5t-301 -61z" />
    <glyph glyph-name="uni24C2" unicode="M&#x20dd;" 
d="M634 385h-139v692h169l182 -484h4l182 484h167v-692h-138v442h-7l-155 -411h-104l-154 411h-7v-442zM847 105q167 0 307 82.5t220 224t80 308.5t-80 308.5t-220 224t-307 82.5t-307 -82.5t-220 -224t-80 -308.5t80 -308.5t220 -224t307 -82.5zM847 -53q-158 0 -301 61
t-246.5 164.5t-164.5 247t-61 301.5t61 301t164.5 246.5t246.5 164.5t301 61t301 -61t246.5 -164.5t164.5 -246.5t61 -301t-61 -301.5t-164.5 -247t-246.5 -164.5t-301 -61z" />
    <glyph glyph-name="uni24C3" unicode="N&#x20dd;" 
d="M707 385h-156v692h132l298 -424h6v424h156v-692h-131l-299 428h-6v-428zM847 105q167 0 307 82.5t220 224t80 308.5t-80 308.5t-220 224t-307 82.5t-307 -82.5t-220 -224t-80 -308.5t80 -308.5t220 -224t307 -82.5zM847 -53q-158 0 -301 61t-246.5 164.5t-164.5 247
t-61 301.5t61 301t164.5 246.5t246.5 164.5t301 61t301 -61t246.5 -164.5t164.5 -246.5t61 -301t-61 -301.5t-164.5 -247t-246.5 -164.5t-301 -61z" />
    <glyph glyph-name="uni24C4" unicode="O&#x20dd;" 
d="M847 512q70 0 115 57.5t45 160.5q0 105 -45 162t-115 57t-115 -57t-45 -162q0 -103 45 -160.5t115 -57.5zM847 372q-144 0 -239 96t-95 262q0 167 94.5 263t239.5 96t239.5 -96t94.5 -263q0 -166 -95 -262t-239 -96zM847 105q167 0 307 82.5t220 224t80 308.5t-80 308.5
t-220 224t-307 82.5t-307 -82.5t-220 -224t-80 -308.5t80 -308.5t220 -224t307 -82.5zM847 -53q-158 0 -301 61t-246.5 164.5t-164.5 247t-61 301.5t61 301t164.5 246.5t246.5 164.5t301 61t301 -61t246.5 -164.5t164.5 -246.5t61 -301t-61 -301.5t-164.5 -247
t-246.5 -164.5t-301 -61z" />
    <glyph glyph-name="uni24C5" unicode="P&#x20dd;" 
d="M915 1077q116 0 184 -67t68 -175q0 -107 -68.5 -173t-185.5 -66h-126v-211h-175v692h303zM995 835q0 54 -28.5 82.5t-81.5 28.5h-105v-221h105q53 0 81.5 28.5t28.5 81.5zM847 105q167 0 307 82.5t220 224t80 308.5t-80 308.5t-220 224t-307 82.5t-307 -82.5t-220 -224
t-80 -308.5t80 -308.5t220 -224t307 -82.5zM847 -53q-158 0 -301 61t-246.5 164.5t-164.5 247t-61 301.5t61 301t164.5 246.5t246.5 164.5t301 61t301 -61t246.5 -164.5t164.5 -246.5t61 -301t-61 -301.5t-164.5 -247t-246.5 -164.5t-301 -61z" />
    <glyph glyph-name="uni24C6" unicode="Q&#x20dd;" 
d="M1159 321h-167l-43 67q-51 -16 -102 -16q-144 0 -239 96t-95 262q0 167 94.5 263t239.5 96t239.5 -96t94.5 -263q0 -182 -114 -281zM847 512q23 0 37 5l-65 104h116l30 -41q42 57 42 150q0 105 -45 162t-115 57t-115 -57t-45 -162q0 -103 45 -160.5t115 -57.5zM847 105
q167 0 307 82.5t220 224t80 308.5t-80 308.5t-220 224t-307 82.5t-307 -82.5t-220 -224t-80 -308.5t80 -308.5t220 -224t307 -82.5zM847 -53q-158 0 -301 61t-246.5 164.5t-164.5 247t-61 301.5t61 301t164.5 246.5t246.5 164.5t301 61t301 -61t246.5 -164.5t164.5 -246.5
t61 -301t-61 -301.5t-164.5 -247t-246.5 -164.5t-301 -61z" />
    <glyph glyph-name="uni24C7" unicode="R&#x20dd;" 
d="M882 1077q125 0 195 -59t70 -162q0 -71 -37 -122.5t-97 -71.5l148 -277h-185l-121 248h-111v-248h-163v692h301zM744 751h115q54 0 83.5 25t29.5 72q0 48 -29.5 74.5t-80.5 26.5h-118v-198zM847 105q167 0 307 82.5t220 224t80 308.5t-80 308.5t-220 224t-307 82.5
t-307 -82.5t-220 -224t-80 -308.5t80 -308.5t220 -224t307 -82.5zM847 -53q-158 0 -301 61t-246.5 164.5t-164.5 247t-61 301.5t61 301t164.5 246.5t246.5 164.5t301 61t301 -61t246.5 -164.5t164.5 -246.5t61 -301t-61 -301.5t-164.5 -247t-246.5 -164.5t-301 -61z" />
    <glyph glyph-name="uni24C8" unicode="S&#x20dd;" 
d="M555 584h167q5 -39 40 -62t90 -23t88 22t33 60q0 30 -25 47.5t-86 30.5l-100 20q-93 18 -142.5 68t-49.5 127q0 97 77 156t202 59q121 0 197.5 -56.5t80.5 -149.5h-162q-5 38 -36 60t-80 22t-79 -22t-30 -57q0 -54 99 -73l105 -20q196 -40 196 -197q0 -103 -80 -163.5
t-216 -60.5q-130 0 -207.5 57t-81.5 155zM847 105q167 0 307 82.5t220 224t80 308.5t-80 308.5t-220 224t-307 82.5t-307 -82.5t-220 -224t-80 -308.5t80 -308.5t220 -224t307 -82.5zM847 -53q-158 0 -301 61t-246.5 164.5t-164.5 247t-61 301.5t61 301t164.5 246.5
t246.5 164.5t301 61t301 -61t246.5 -164.5t164.5 -246.5t61 -301t-61 -301.5t-164.5 -247t-246.5 -164.5t-301 -61z" />
    <glyph glyph-name="uni24C9" unicode="T&#x20dd;" 
d="M936 363h-178v552h-200v141h578v-141h-200v-552zM847 105q167 0 307 82.5t220 224t80 308.5t-80 308.5t-220 224t-307 82.5t-307 -82.5t-220 -224t-80 -308.5t80 -308.5t220 -224t307 -82.5zM847 -53q-158 0 -301 61t-246.5 164.5t-164.5 247t-61 301.5t61 301
t164.5 246.5t246.5 164.5t301 61t301 -61t246.5 -164.5t164.5 -246.5t61 -301t-61 -301.5t-164.5 -247t-246.5 -164.5t-301 -61z" />
    <glyph glyph-name="uni24CA" unicode="U&#x20dd;" 
d="M847 491q59 0 93.5 33.5t34.5 92.5v439h172v-454q0 -111 -82.5 -181t-217.5 -70t-217.5 70t-82.5 181v454h172v-439q0 -59 34.5 -92.5t93.5 -33.5zM847 105q167 0 307 82.5t220 224t80 308.5t-80 308.5t-220 224t-307 82.5t-307 -82.5t-220 -224t-80 -308.5t80 -308.5
t220 -224t307 -82.5zM847 -53q-158 0 -301 61t-246.5 164.5t-164.5 247t-61 301.5t61 301t164.5 246.5t246.5 164.5t301 61t301 -61t246.5 -164.5t164.5 -246.5t61 -301t-61 -301.5t-164.5 -247t-246.5 -164.5t-301 -61z" />
    <glyph glyph-name="uni24CB" unicode="V&#x20dd;" 
d="M734 360l-226 692h194l142 -529h6l142 529h194l-226 -692h-226zM847 105q167 0 307 82.5t220 224t80 308.5t-80 308.5t-220 224t-307 82.5t-307 -82.5t-220 -224t-80 -308.5t80 -308.5t220 -224t307 -82.5zM847 -53q-158 0 -301 61t-246.5 164.5t-164.5 247t-61 301.5
t61 301t164.5 246.5t246.5 164.5t301 61t301 -61t246.5 -164.5t164.5 -246.5t61 -301t-61 -301.5t-164.5 -247t-246.5 -164.5t-301 -61z" />
    <glyph glyph-name="uni24CC" unicode="W&#x20dd;" 
d="M844 821l-117 -458h-151l-174 693h166l94 -486h7l113 486h131l112 -486h7l94 486h166l-174 -693h-151l-117 458h-6zM847 105q167 0 307 82.5t220 224t80 308.5t-80 308.5t-220 224t-307 82.5t-307 -82.5t-220 -224t-80 -308.5t80 -308.5t220 -224t307 -82.5zM847 -53
q-158 0 -301 61t-246.5 164.5t-164.5 247t-61 301.5t61 301t164.5 246.5t246.5 164.5t301 61t301 -61t246.5 -164.5t164.5 -246.5t61 -301t-61 -301.5t-164.5 -247t-246.5 -164.5t-301 -61z" />
    <glyph glyph-name="uni24CD" unicode="X&#x20dd;" 
d="M1174 1077l-222 -347l220 -345h-190l-136 237h-7l-136 -237h-189l222 348l-221 344h198l133 -239h7l133 239h188zM847 105q167 0 307 82.5t220 224t80 308.5t-80 308.5t-220 224t-307 82.5t-307 -82.5t-220 -224t-80 -308.5t80 -308.5t220 -224t307 -82.5zM847 -53
q-158 0 -301 61t-246.5 164.5t-164.5 247t-61 301.5t61 301t164.5 246.5t246.5 164.5t301 61t301 -61t246.5 -164.5t164.5 -246.5t61 -301t-61 -301.5t-164.5 -247t-246.5 -164.5t-301 -61z" />
    <glyph glyph-name="uni24CE" unicode="Y&#x20dd;" 
d="M938 373h-181v245l-240 448h193l135 -284h6l135 284h191l-239 -447v-246zM847 105q167 0 307 82.5t220 224t80 308.5t-80 308.5t-220 224t-307 82.5t-307 -82.5t-220 -224t-80 -308.5t80 -308.5t220 -224t307 -82.5zM847 -53q-158 0 -301 61t-246.5 164.5t-164.5 247
t-61 301.5t61 301t164.5 246.5t246.5 164.5t301 61t301 -61t246.5 -164.5t164.5 -246.5t61 -301t-61 -301.5t-164.5 -247t-246.5 -164.5t-301 -61z" />
    <glyph glyph-name="uni24CF" unicode="Z&#x20dd;" 
d="M577 385v110l322 437v8h-318v137h529v-110l-322 -438v-7h333v-137h-544zM847 105q167 0 307 82.5t220 224t80 308.5t-80 308.5t-220 224t-307 82.5t-307 -82.5t-220 -224t-80 -308.5t80 -308.5t220 -224t307 -82.5zM847 -53q-158 0 -301 61t-246.5 164.5t-164.5 247
t-61 301.5t61 301t164.5 246.5t246.5 164.5t301 61t301 -61t246.5 -164.5t164.5 -246.5t61 -301t-61 -301.5t-164.5 -247t-246.5 -164.5t-301 -61z" />
    <glyph glyph-name="uni24EA" unicode="&#x23;&#x20dd;" 
d="M847 511q55 0 86.5 55.5t31.5 163.5t-31.5 163.5t-86.5 55.5t-86.5 -55.5t-31.5 -163.5t31.5 -163.5t86.5 -55.5zM846 373q-128 0 -205 95t-77 262t77 262.5t205 95.5q127 0 205.5 -95.5t78.5 -262.5t-78 -262t-206 -95zM847 105q167 0 307 82.5t220 224t80 308.5
t-80 308.5t-220 224t-307 82.5t-307 -82.5t-220 -224t-80 -308.5t80 -308.5t220 -224t307 -82.5zM847 -53q-158 0 -301 61t-246.5 164.5t-164.5 247t-61 301.5t61 301t164.5 246.5t246.5 164.5t301 61t301 -61t246.5 -164.5t164.5 -246.5t61 -301t-61 -301.5t-164.5 -247
t-246.5 -164.5t-301 -61z" />
    <glyph glyph-name="uni24FF" unicode="&#x30;&#x20dd;&#x25cf;" 
d="M844 487q-120 0 -120 243t120 243q58 0 89.5 -61.5t31.5 -181.5t-31.5 -181.5t-89.5 -61.5zM843 338q144 0 229.5 105t85.5 287t-85.5 287t-229.5 105q-143 0 -227.5 -104.5t-84.5 -287.5t84.5 -287.5t227.5 -104.5zM847 -52q-209 0 -387 104t-282 282t-104 387
t104 387.5t282 282.5t387 104t387 -104t282 -282.5t104 -387.5t-104 -387t-282 -282t-387 -104z" />
    <glyph glyph-name="uni278A" unicode="&#x31;&#x20dd;&#x25cf;" 
d="M983 352v757h-195l-185 -125v-175l179 122h4v-579h197zM847 -52q-209 0 -387 104t-282 282t-104 387t104 387.5t282 282.5t387 104t387 -104t282 -282.5t104 -387.5t-104 -387t-282 -282t-387 -104z" />
    <glyph glyph-name="uni278B" unicode="&#x32;&#x20dd;&#x25cf;" 
d="M738 864v8q0 45 26.5 74t73.5 29q41 0 68.5 -24.5t27.5 -61.5q0 -39 -22.5 -71.5t-70.5 -78.5l-273 -268v-120h569v155h-311v2l162 163q68 66 101 117.5t33 115.5q0 94 -77 155.5t-198 61.5q-136 0 -213 -71.5t-77 -177.5v-8h181zM847 -52q-209 0 -387 104t-282 282
t-104 387t104 387.5t282 282.5t387 104t387 -104t282 -282.5t104 -387.5t-104 -387t-282 -282t-387 -104z" />
    <glyph glyph-name="uni278C" unicode="&#x33;&#x20dd;&#x25cf;" 
d="M756 670h86q53 0 85 -25.5t33 -67.5q0 -42 -33 -68t-87 -26q-51 1 -84.5 25t-37.5 63h-179q3 -101 84 -167t216 -66q137 0 224.5 62.5t86.5 167.5q-1 77 -50.5 125t-113.5 55v3q54 10 98.5 56.5t43.5 113.5q-2 89 -80 145.5t-206 56.5q-136 -1 -211.5 -63.5t-80.5 -167.5
h182q2 37 30.5 62t75.5 25q45 0 73.5 -23.5t28.5 -60.5q0 -38 -28.5 -62t-74.5 -24h-81v-139zM847 -52q-209 0 -387 104t-282 282t-104 387t104 387.5t282 282.5t387 104t387 -104t282 -282.5t104 -387.5t-104 -387t-282 -282t-387 -104z" />
    <glyph glyph-name="uni278D" unicode="&#x34;&#x20dd;&#x25cf;" 
d="M780 1109q-197 -318 -282 -478v-148h376v-131h173v131h102v149h-102v477h-267zM673 632v1q76 143 199 339h2v-340h-201zM847 -52q-209 0 -387 104t-282 282t-104 387t104 387.5t282 282.5t387 104t387 -104t282 -282.5t104 -387.5t-104 -387t-282 -282t-387 -104z" />
    <glyph glyph-name="uni278E" unicode="&#x35;&#x20dd;&#x25cf;" 
d="M555 569q3 -100 84 -163.5t210 -63.5q141 0 225.5 74.5t84.5 200.5q0 113 -72 179t-182 66q-57 0 -99.5 -20t-61.5 -47h-3l14 175h357v143h-510l-31 -450h167q15 27 44.5 46t69.5 19q52 0 87 -32.5t35 -85.5q0 -56 -36 -90t-85 -34q-45 0 -79 22t-42 61h-177zM847 -52
q-209 0 -387 104t-282 282t-104 387t104 387.5t282 282.5t387 104t387 -104t282 -282.5t104 -387.5t-104 -387t-282 -282t-387 -104z" />
    <glyph glyph-name="uni278F" unicode="&#x36;&#x20dd;&#x25cf;" 
d="M1151 609q0 111 -70.5 174t-175.5 63q-71 0 -119.5 -28.5t-72.5 -72.5l-4 -2q-2 8 -2 14q-1 101 39 161.5t106 60.5q78 0 104 -61h179q-7 83 -83.5 144t-196.5 61q-153 0 -241.5 -104t-88.5 -300q0 -156 61 -250q88 -131 262 -131q134 0 218.5 73t84.5 198zM726 603
q0 52 34 85t88 33q51 0 86 -31.5t35 -87.5q0 -58 -34 -89.5t-87 -31.5t-87.5 33t-34.5 89zM847 -52q-209 0 -387 104t-282 282t-104 387t104 387.5t282 282.5t387 104t387 -104t282 -282.5t104 -387.5t-104 -387t-282 -282t-387 -104z" />
    <glyph glyph-name="uni2790" unicode="&#x37;&#x20dd;&#x25cf;" 
d="M568 1103v-156h376v-2l-318 -600h209l307 604v154h-574zM847 -52q-209 0 -387 104t-282 282t-104 387t104 387.5t282 282.5t387 104t387 -104t282 -282.5t104 -387.5t-104 -387t-282 -282t-387 -104z" />
    <glyph glyph-name="uni2791" unicode="&#x38;&#x20dd;&#x25cf;" 
d="M844 803q-47 0 -76 26t-29 68q0 43 29 69.5t76 26.5t76.5 -26.5t29.5 -69.5q0 -41 -29.5 -67.5t-76.5 -26.5zM844 468q-56 0 -92 31t-36 78q0 48 36 79.5t92 31.5t92.5 -31.5t36.5 -79.5q0 -47 -36.5 -78t-92.5 -31zM844 338q146 0 234 62t88 165q0 71 -44.5 120.5
t-121.5 63.5v2q134 41 134 167q0 92 -79.5 148.5t-210.5 56.5q-130 0 -209.5 -56.5t-79.5 -148.5q0 -126 134 -167v-2q-77 -14 -121.5 -63.5t-44.5 -120.5q0 -103 87.5 -165t233.5 -62zM847 -52q-209 0 -387 104t-282 282t-104 387t104 387.5t282 282.5t387 104t387 -104
t282 -282.5t104 -387.5t-104 -387t-282 -282t-387 -104z" />
    <glyph glyph-name="uni2792" unicode="&#x39;&#x20dd;&#x25cf;" 
d="M958 857q0 -56 -34 -87t-86 -31t-86.5 32t-34.5 88q0 55 34.5 88.5t85.5 33.5q54 0 87.5 -33.5t33.5 -90.5zM553 537q10 -83 84 -140.5t194 -57.5q160 0 244.5 102t84.5 294q0 103 -25 179.5t-69.5 121t-101 66t-125.5 21.5q-134 0 -219 -72.5t-85 -193.5
q0 -115 70.5 -180t180.5 -65q68 0 116.5 28t70.5 72h2q6 -101 -31 -165.5t-112 -64.5q-37 0 -63.5 16t-36.5 39h-179zM847 -52q-209 0 -387 104t-282 282t-104 387t104 387.5t282 282.5t387 104t387 -104t282 -282.5t104 -387.5t-104 -387t-282 -282t-387 -104z" />
    <glyph glyph-name="uni1F130" unicode="A&#x20de;" 
d="M764 674h166l-78 261h-10zM685 394h-175l233 693h208l233 -693h-175l-47 156h-230zM361 1468h972q108 0 184 -74.5t76 -180.5v-982q0 -106 -76 -180.5t-184 -74.5h-972q-107 0 -183.5 74.5t-76.5 180.5v982q0 106 76.5 180.5t183.5 74.5zM1431 1189q0 54 -40 92.5
t-96 38.5h-896q-56 0 -96 -38.5t-40 -92.5v-934q0 -53 40.5 -92t95.5 -39h896q56 0 96 38.5t40 92.5v934z" />
    <glyph glyph-name="uni1F131" unicode="B&#x20de;" 
d="M590 385v692h325q99 0 156.5 -45.5t57.5 -124.5q0 -59 -35 -99.5t-93 -52.5v-6q73 -9 117.5 -53.5t44.5 -118.5q0 -88 -68 -140t-177 -52h-328zM755 961v-168h86q124 0 124 86q0 38 -26 60t-72 22h-112zM755 690v-185h96q139 0 139 91q0 44 -30 69t-85 25h-120zM361 1468
h972q108 0 184 -74.5t76 -180.5v-982q0 -106 -76 -180.5t-184 -74.5h-972q-107 0 -183.5 74.5t-76.5 180.5v982q0 106 76.5 180.5t183.5 74.5zM1431 1189q0 54 -40 92.5t-96 38.5h-896q-56 0 -96 -38.5t-40 -92.5v-934q0 -53 40.5 -92t95.5 -39h896q56 0 96 38.5t40 92.5
v934z" />
    <glyph glyph-name="uni1F132" unicode="C&#x20de;" 
d="M991 623h166q-11 -112 -96 -181.5t-215 -69.5q-147 0 -240 98t-93 260q0 163 93 261t240 98q132 0 217 -71t95 -186h-164q-6 51 -47 84t-98 33q-74 0 -118 -59t-44 -160t44 -159.5t118 -58.5q55 0 95.5 31.5t46.5 79.5zM361 1468h972q108 0 184 -74.5t76 -180.5v-982
q0 -106 -76 -180.5t-184 -74.5h-972q-107 0 -183.5 74.5t-76.5 180.5v982q0 106 76.5 180.5t183.5 74.5zM1431 1189q0 54 -40 92.5t-96 38.5h-896q-56 0 -96 -38.5t-40 -92.5v-934q0 -53 40.5 -92t95.5 -39h896q56 0 96 38.5t40 92.5v934z" />
    <glyph glyph-name="uni1F133" unicode="D&#x20de;" 
d="M570 1077h283q160 0 242 -88.5t82 -256.5t-82 -257.5t-242 -89.5h-283v692zM740 943v-425h87q90 0 131.5 51.5t41.5 160.5t-42 161t-131 52h-87zM361 1468h972q108 0 184 -74.5t76 -180.5v-982q0 -106 -76 -180.5t-184 -74.5h-972q-107 0 -183.5 74.5t-76.5 180.5v982
q0 106 76.5 180.5t183.5 74.5zM1431 1189q0 54 -40 92.5t-96 38.5h-896q-56 0 -96 -38.5t-40 -92.5v-934q0 -53 40.5 -92t95.5 -39h896q56 0 96 38.5t40 92.5v934z" />
    <glyph glyph-name="uni1F134" unicode="E&#x20de;" 
d="M1097 517v-132h-483v692h483v-132h-315v-152h296v-118h-296v-158h315zM361 1468h972q108 0 184 -74.5t76 -180.5v-982q0 -106 -76 -180.5t-184 -74.5h-972q-107 0 -183.5 74.5t-76.5 180.5v982q0 106 76.5 180.5t183.5 74.5zM1431 1189q0 54 -40 92.5t-96 38.5h-896
q-56 0 -96 -38.5t-40 -92.5v-934q0 -53 40.5 -92t95.5 -39h896q56 0 96 38.5t40 92.5v934z" />
    <glyph glyph-name="uni1F135" unicode="F&#x20de;" 
d="M810 385h-173v692h479v-134h-306v-164h278v-133h-278v-261zM361 1468h972q108 0 184 -74.5t76 -180.5v-982q0 -106 -76 -180.5t-184 -74.5h-972q-107 0 -183.5 74.5t-76.5 180.5v982q0 106 76.5 180.5t183.5 74.5zM1431 1189q0 54 -40 92.5t-96 38.5h-896
q-56 0 -96 -38.5t-40 -92.5v-934q0 -53 40.5 -92t95.5 -39h896q56 0 96 38.5t40 92.5v934z" />
    <glyph glyph-name="uni1F136" unicode="G&#x20de;" 
d="M994 609v40h-139v113h300v-122q0 -119 -81.5 -193.5t-225.5 -74.5q-150 0 -242.5 99t-92.5 259q0 161 92.5 260t242.5 99q125 0 210.5 -65.5t98.5 -173.5h-167q-7 47 -46 76.5t-94 29.5q-74 0 -118.5 -61.5t-44.5 -164.5t45 -165.5t118 -62.5q68 0 106 29.5t38 77.5z
M361 1468h972q108 0 184 -74.5t76 -180.5v-982q0 -106 -76 -180.5t-184 -74.5h-972q-107 0 -183.5 74.5t-76.5 180.5v982q0 106 76.5 180.5t183.5 74.5zM1431 1189q0 54 -40 92.5t-96 38.5h-896q-56 0 -96 -38.5t-40 -92.5v-934q0 -53 40.5 -92t95.5 -39h896q56 0 96 38.5
t40 92.5v934z" />
    <glyph glyph-name="uni1F137" unicode="H&#x20de;" 
d="M1150 385h-166v281h-273v-281h-166v692h166v-273h273v273h166v-692zM361 1468h972q108 0 184 -74.5t76 -180.5v-982q0 -106 -76 -180.5t-184 -74.5h-972q-107 0 -183.5 74.5t-76.5 180.5v982q0 106 76.5 180.5t183.5 74.5zM1431 1189q0 54 -40 92.5t-96 38.5h-896
q-56 0 -96 -38.5t-40 -92.5v-934q0 -53 40.5 -92t95.5 -39h896q56 0 96 38.5t40 92.5v934z" />
    <glyph glyph-name="uni1F138" unicode="I&#x20de;" 
d="M939 385h-184v692h184v-692zM361 1468h972q108 0 184 -74.5t76 -180.5v-982q0 -106 -76 -180.5t-184 -74.5h-972q-107 0 -183.5 74.5t-76.5 180.5v982q0 106 76.5 180.5t183.5 74.5zM1431 1189q0 54 -40 92.5t-96 38.5h-896q-56 0 -96 -38.5t-40 -92.5v-934
q0 -53 40.5 -92t95.5 -39h896q56 0 96 38.5t40 92.5v934z" />
    <glyph glyph-name="uni1F139" unicode="J&#x20de;" 
d="M561 602h169q1 -40 23.5 -62.5t60.5 -22.5q85 0 85 100v454h176v-454q0 -118 -69 -184.5t-189 -66.5t-188 65.5t-68 170.5zM361 1468h972q108 0 184 -74.5t76 -180.5v-982q0 -106 -76 -180.5t-184 -74.5h-972q-107 0 -183.5 74.5t-76.5 180.5v982q0 106 76.5 180.5
t183.5 74.5zM1431 1189q0 54 -40 92.5t-96 38.5h-896q-56 0 -96 -38.5t-40 -92.5v-934q0 -53 40.5 -92t95.5 -39h896q56 0 96 38.5t40 92.5v934z" />
    <glyph glyph-name="uni1F13A" unicode="K&#x20de;" 
d="M1174 1077l-242 -307l250 -385h-201l-177 278l-70 -78v-200h-163v692h163v-302h6l245 302h189zM361 1468h972q108 0 184 -74.5t76 -180.5v-982q0 -106 -76 -180.5t-184 -74.5h-972q-107 0 -183.5 74.5t-76.5 180.5v982q0 106 76.5 180.5t183.5 74.5zM1431 1189
q0 54 -40 92.5t-96 38.5h-896q-56 0 -96 -38.5t-40 -92.5v-934q0 -53 40.5 -92t95.5 -39h896q56 0 96 38.5t40 92.5v934z" />
    <glyph glyph-name="uni1F13B" unicode="L&#x20de;" 
d="M1130 534v-143h-472v693h177v-550h295zM361 1468h972q108 0 184 -74.5t76 -180.5v-982q0 -106 -76 -180.5t-184 -74.5h-972q-107 0 -183.5 74.5t-76.5 180.5v982q0 106 76.5 180.5t183.5 74.5zM1431 1189q0 54 -40 92.5t-96 38.5h-896q-56 0 -96 -38.5t-40 -92.5v-934
q0 -53 40.5 -92t95.5 -39h896q56 0 96 38.5t40 92.5v934z" />
    <glyph glyph-name="uni1F13C" unicode="M&#x20de;" 
d="M634 385h-139v692h169l182 -484h4l182 484h167v-692h-138v451h-7l-155 -420h-104l-154 420h-7v-451zM361 1468h972q108 0 184 -74.5t76 -180.5v-982q0 -106 -76 -180.5t-184 -74.5h-972q-107 0 -183.5 74.5t-76.5 180.5v982q0 106 76.5 180.5t183.5 74.5zM1431 1189
q0 54 -40 92.5t-96 38.5h-896q-56 0 -96 -38.5t-40 -92.5v-934q0 -53 40.5 -92t95.5 -39h896q56 0 96 38.5t40 92.5v934z" />
    <glyph glyph-name="uni1F13D" unicode="N&#x20de;" 
d="M707 385h-156v692h131l299 -424h6v424h156v-692h-131l-299 428h-6v-428zM361 1468h972q108 0 184 -74.5t76 -180.5v-982q0 -106 -76 -180.5t-184 -74.5h-972q-107 0 -183.5 74.5t-76.5 180.5v982q0 106 76.5 180.5t183.5 74.5zM1431 1189q0 54 -40 92.5t-96 38.5h-896
q-56 0 -96 -38.5t-40 -92.5v-934q0 -53 40.5 -92t95.5 -39h896q56 0 96 38.5t40 92.5v934z" />
    <glyph glyph-name="uni1F13E" unicode="O&#x20de;" 
d="M847 512q70 0 115 57.5t45 160.5q0 105 -45 162t-115 57t-115 -57t-45 -162q0 -103 45 -160.5t115 -57.5zM847 372q-144 0 -239 96t-95 262q0 167 94.5 263t239.5 96t239.5 -96t94.5 -263q0 -166 -95 -262t-239 -96zM361 1468h972q108 0 184 -74.5t76 -180.5v-982
q0 -106 -76 -180.5t-184 -74.5h-972q-107 0 -183.5 74.5t-76.5 180.5v982q0 106 76.5 180.5t183.5 74.5zM1431 1189q0 54 -40 92.5t-96 38.5h-896q-56 0 -96 -38.5t-40 -92.5v-934q0 -53 40.5 -92t95.5 -39h896q56 0 96 38.5t40 92.5v934z" />
    <glyph glyph-name="uni1F13F" unicode="P&#x20de;" 
d="M915 1077q116 0 184 -67t68 -175q0 -107 -68.5 -173t-185.5 -66h-126v-211h-175v692h303zM995 835q0 54 -28.5 82.5t-81.5 28.5h-105v-221h105q53 0 81.5 28.5t28.5 81.5zM361 1468h972q108 0 184 -74.5t76 -180.5v-982q0 -106 -76 -180.5t-184 -74.5h-972
q-107 0 -183.5 74.5t-76.5 180.5v982q0 106 76.5 180.5t183.5 74.5zM1431 1189q0 54 -40 92.5t-96 38.5h-896q-56 0 -96 -38.5t-40 -92.5v-934q0 -53 40.5 -92t95.5 -39h896q56 0 96 38.5t40 92.5v934z" />
    <glyph glyph-name="uni1F140" unicode="Q&#x20de;" 
d="M1159 321h-167l-43 67q-51 -16 -102 -16q-144 0 -239 96t-95 262q0 167 94.5 263t239.5 96t239.5 -96t94.5 -263q0 -182 -114 -281zM847 512q23 0 37 5l-65 104h116l30 -41q42 57 42 150q0 105 -45 162t-115 57t-115 -57t-45 -162q0 -103 45 -160.5t115 -57.5zM361 1468
h972q108 0 184 -74.5t76 -180.5v-982q0 -106 -76 -180.5t-184 -74.5h-972q-107 0 -183.5 74.5t-76.5 180.5v982q0 106 76.5 180.5t183.5 74.5zM1431 1189q0 54 -40 92.5t-96 38.5h-896q-56 0 -96 -38.5t-40 -92.5v-934q0 -53 40.5 -92t95.5 -39h896q56 0 96 38.5t40 92.5
v934z" />
    <glyph glyph-name="uni1F141" unicode="R&#x20de;" 
d="M882 1077q125 0 195 -59t70 -162q0 -71 -37 -122.5t-97 -71.5l148 -277h-185l-121 248h-111v-248h-163v692h301zM744 751h115q54 0 83.5 25t29.5 72q0 48 -29.5 74.5t-80.5 26.5h-118v-198zM361 1468h972q108 0 184 -74.5t76 -180.5v-982q0 -106 -76 -180.5t-184 -74.5
h-972q-107 0 -183.5 74.5t-76.5 180.5v982q0 106 76.5 180.5t183.5 74.5zM1431 1189q0 54 -40 92.5t-96 38.5h-896q-56 0 -96 -38.5t-40 -92.5v-934q0 -53 40.5 -92t95.5 -39h896q56 0 96 38.5t40 92.5v934z" />
    <glyph glyph-name="uni1F142" unicode="S&#x20de;" 
d="M555 584h167q5 -39 40 -62t90 -23t88 22t33 60q0 30 -25 47.5t-86 30.5l-100 20q-93 18 -142.5 68t-49.5 127q0 97 77 156t202 59q121 0 197.5 -56.5t80.5 -149.5h-162q-5 38 -36 60t-80 22t-79 -22t-30 -57q0 -54 99 -73l105 -20q196 -40 196 -197q0 -103 -80 -163.5
t-216 -60.5q-130 0 -207.5 57t-81.5 155zM361 1468h972q108 0 184 -74.5t76 -180.5v-982q0 -106 -76 -180.5t-184 -74.5h-972q-107 0 -183.5 74.5t-76.5 180.5v982q0 106 76.5 180.5t183.5 74.5zM1431 1189q0 54 -40 92.5t-96 38.5h-896q-56 0 -96 -38.5t-40 -92.5v-934
q0 -53 40.5 -92t95.5 -39h896q56 0 96 38.5t40 92.5v934z" />
    <glyph glyph-name="uni1F143" unicode="T&#x20de;" 
d="M936 377h-178v552h-200v140h578v-140h-200v-552zM361 1468h972q108 0 184 -74.5t76 -180.5v-982q0 -106 -76 -180.5t-184 -74.5h-972q-107 0 -183.5 74.5t-76.5 180.5v982q0 106 76.5 180.5t183.5 74.5zM1431 1189q0 54 -40 92.5t-96 38.5h-896q-56 0 -96 -38.5
t-40 -92.5v-934q0 -53 40.5 -92t95.5 -39h896q56 0 96 38.5t40 92.5v934z" />
    <glyph glyph-name="uni1F144" unicode="U&#x20de;" 
d="M847 505q59 0 93.5 33.5t34.5 92.5v438h172v-454q0 -111 -82.5 -181t-217.5 -70t-217.5 70t-82.5 181v454h172v-438q0 -59 34.5 -92.5t93.5 -33.5zM361 1468h972q108 0 184 -74.5t76 -180.5v-982q0 -106 -76 -180.5t-184 -74.5h-972q-107 0 -183.5 74.5t-76.5 180.5v982
q0 106 76.5 180.5t183.5 74.5zM1431 1189q0 54 -40 92.5t-96 38.5h-896q-56 0 -96 -38.5t-40 -92.5v-934q0 -53 40.5 -92t95.5 -39h896q56 0 96 38.5t40 92.5v934z" />
    <glyph glyph-name="uni1F145" unicode="V&#x20de;" 
d="M734 373l-226 693h194l142 -529h6l142 529h194l-226 -693h-226zM361 1468h972q108 0 184 -74.5t76 -180.5v-982q0 -106 -76 -180.5t-184 -74.5h-972q-107 0 -183.5 74.5t-76.5 180.5v982q0 106 76.5 180.5t183.5 74.5zM1431 1189q0 54 -40 92.5t-96 38.5h-896
q-56 0 -96 -38.5t-40 -92.5v-934q0 -53 40.5 -92t95.5 -39h896q56 0 96 38.5t40 92.5v934z" />
    <glyph glyph-name="uni1F146" unicode="W&#x20de;" 
d="M844 835l-117 -458h-151l-174 692h166l94 -485h7l113 485h131l112 -485h7l94 485h166l-174 -692h-151l-117 458h-6zM361 1468h972q108 0 184 -74.5t76 -180.5v-982q0 -106 -76 -180.5t-184 -74.5h-972q-107 0 -183.5 74.5t-76.5 180.5v982q0 106 76.5 180.5t183.5 74.5z
M1431 1189q0 54 -40 92.5t-96 38.5h-896q-56 0 -96 -38.5t-40 -92.5v-934q0 -53 40.5 -92t95.5 -39h896q56 0 96 38.5t40 92.5v934z" />
    <glyph glyph-name="uni1F147" unicode="X&#x20de;" 
d="M1174 1077l-222 -347l220 -345h-190l-136 237h-7l-136 -237h-189l222 348l-221 344h198l133 -239h7l133 239h188zM361 1468h972q108 0 184 -74.5t76 -180.5v-982q0 -106 -76 -180.5t-184 -74.5h-972q-107 0 -183.5 74.5t-76.5 180.5v982q0 106 76.5 180.5t183.5 74.5z
M1431 1189q0 54 -40 92.5t-96 38.5h-896q-56 0 -96 -38.5t-40 -92.5v-934q0 -53 40.5 -92t95.5 -39h896q56 0 96 38.5t40 92.5v934z" />
    <glyph glyph-name="uni1F148" unicode="Y&#x20de;" 
d="M938 377h-181v244l-240 448h193l135 -283h6l135 283h191l-239 -446v-246zM361 1468h972q108 0 184 -74.5t76 -180.5v-982q0 -106 -76 -180.5t-184 -74.5h-972q-107 0 -183.5 74.5t-76.5 180.5v982q0 106 76.5 180.5t183.5 74.5zM1431 1189q0 54 -40 92.5t-96 38.5h-896
q-56 0 -96 -38.5t-40 -92.5v-934q0 -53 40.5 -92t95.5 -39h896q56 0 96 38.5t40 92.5v934z" />
    <glyph glyph-name="uni1F149" unicode="Z&#x20de;" 
d="M577 385v110l322 437v8h-318v137h529v-110l-322 -438v-7h333v-137h-544zM361 1468h972q108 0 184 -74.5t76 -180.5v-982q0 -106 -76 -180.5t-184 -74.5h-972q-107 0 -183.5 74.5t-76.5 180.5v982q0 106 76.5 180.5t183.5 74.5zM1431 1189q0 54 -40 92.5t-96 38.5h-896
q-56 0 -96 -38.5t-40 -92.5v-934q0 -53 40.5 -92t95.5 -39h896q56 0 96 38.5t40 92.5v934z" />
    <glyph glyph-name="uni1F150" unicode="A&#x20dd;&#x25cf;" 
d="M938 678h-182l88 293h6zM673 376l52 169h244l52 -169h196l-254 758h-231l-255 -758h196zM847 -52q-209 0 -387 104t-282 282t-104 387t104 387.5t282 282.5t387 104t387 -104t282 -282.5t104 -387.5t-104 -387t-282 -282t-387 -104z" />
    <glyph glyph-name="uni1F151" unicode="B&#x20dd;&#x25cf;" 
d="M558 353h359q122 0 196.5 58.5t74.5 154.5q0 76 -45.5 126t-125.5 62v3q63 15 98 59t35 106q0 88 -63 138.5t-173 50.5h-356v-758zM743 979h120q48 0 75.5 -23t27.5 -64q0 -90 -132 -90h-91v177zM742 685h129q58 0 90.5 -26.5t32.5 -74.5q0 -95 -149 -95h-103v196z
M847 -52q-209 0 -387 104t-282 282t-104 387t104 387.5t282 282.5t387 104t387 -104t282 -282.5t104 -387.5t-104 -387t-282 -282t-387 -104z" />
    <glyph glyph-name="uni1F152" unicode="C&#x20dd;&#x25cf;" 
d="M998 612q-6 -47 -48.5 -78.5t-99.5 -31.5q-77 0 -123 61t-46 166t46 167t123 62q58 0 101 -34.5t50 -83.5h187q-11 126 -104 203.5t-237 77.5q-161 0 -262 -107.5t-101 -284.5t101 -284t262 -107q141 0 233.5 76t105.5 198h-188zM847 -52q-209 0 -387 104t-282 282
t-104 387t104 387.5t282 282.5t387 104t387 -104t282 -282.5t104 -387.5t-104 -387t-282 -282t-387 -104z" />
    <glyph glyph-name="uni1F153" unicode="D&#x20dd;&#x25cf;" 
d="M553 1111v-758h310q175 0 265 96.5t90 282.5q0 187 -90 283t-265 96h-310zM742 963h92q97 0 142 -56.5t45 -175.5q0 -120 -45 -175t-142 -55h-92v462zM847 -52q-209 0 -387 104t-282 282t-104 387t104 387.5t282 282.5t387 104t387 -104t282 -282.5t104 -387.5t-104 -387
t-282 -282t-387 -104z" />
    <glyph glyph-name="uni1F154" unicode="E&#x20dd;&#x25cf;" 
d="M1118 498h-345v170h324v134h-324v163h345v146h-533v-758h533v145zM847 -52q-209 0 -387 104t-282 282t-104 387t104 387.5t282 282.5t387 104t387 -104t282 -282.5t104 -387.5t-104 -387t-282 -282t-387 -104z" />
    <glyph glyph-name="uni1F155" unicode="F&#x20dd;&#x25cf;" 
d="M804 353v283h303v151h-303v173h332v151h-527v-758h195zM847 -52q-209 0 -387 104t-282 282t-104 387t104 387.5t282 282.5t387 104t387 -104t282 -282.5t104 -387.5t-104 -387t-282 -282t-387 -104z" />
    <glyph glyph-name="uni1F156" unicode="G&#x20dd;&#x25cf;" 
d="M1000 617q0 -52 -39.5 -86.5t-109.5 -34.5q-77 0 -123.5 63t-46.5 170t46 169t124 62q61 0 100.5 -26t44.5 -67h192q-16 113 -109.5 183t-229.5 70q-164 0 -265 -108t-101 -283t100.5 -282.5t264.5 -107.5q152 0 243.5 86.5t91.5 216.5v132h-326v-137h143v-20zM847 -52
q-209 0 -387 104t-282 282t-104 387t104 387.5t282 282.5t387 104t387 -104t282 -282.5t104 -387.5t-104 -387t-282 -282t-387 -104z" />
    <glyph glyph-name="uni1F157" unicode="H&#x20dd;&#x25cf;" 
d="M1178 353v758h-187v-296h-287v296h-188v-758h188v303h287v-303h187zM847 -52q-209 0 -387 104t-282 282t-104 387t104 387.5t282 282.5t387 104t387 -104t282 -282.5t104 -387.5t-104 -387t-282 -282t-387 -104z" />
    <glyph glyph-name="uni1F158" unicode="I&#x20dd;&#x25cf;" 
d="M950 353v758h-206v-758h206zM847 -52q-209 0 -387 104t-282 282t-104 387t104 387.5t282 282.5t387 104t387 -104t282 -282.5t104 -387.5t-104 -387t-282 -282t-387 -104z" />
    <glyph glyph-name="uni1F159" unicode="J&#x20dd;&#x25cf;" 
d="M532 597q0 -121 77 -192.5t205 -71.5q133 0 208 73t75 203v496h-198v-496q0 -103 -89 -103q-40 0 -62.5 24t-22.5 67h-193zM847 -52q-209 0 -387 104t-282 282t-104 387t104 387.5t282 282.5t387 104t387 -104t282 -282.5t104 -387.5t-104 -387t-282 -282t-387 -104z" />
    <glyph glyph-name="uni1F15A" unicode="K&#x20dd;&#x25cf;" 
d="M1204 1111h-215l-263 -320h-3v320h-184v-758h184v220l70 78l191 -298h228l-274 420zM847 -52q-209 0 -387 104t-282 282t-104 387t104 387.5t282 282.5t387 104t387 -104t282 -282.5t104 -387.5t-104 -387t-282 -282t-387 -104z" />
    <glyph glyph-name="uni1F15B" unicode="L&#x20dd;&#x25cf;" 
d="M1144 522h-320v595h-200v-758h520v163zM847 -52q-209 0 -387 104t-282 282t-104 387t104 387.5t282 282.5t387 104t387 -104t282 -282.5t104 -387.5t-104 -387t-282 -282t-387 -104z" />
    <glyph glyph-name="uni1F15C" unicode="M&#x20dd;&#x25cf;" 
d="M618 353v493h4l167 -457h115l168 454h4v-490h158v758h-188l-198 -527h-2l-197 527h-188v-758h157zM847 -52q-209 0 -387 104t-282 282t-104 387t104 387.5t282 282.5t387 104t387 -104t282 -282.5t104 -387.5t-104 -387t-282 -282t-387 -104z" />
    <glyph glyph-name="uni1F15D" unicode="N&#x20dd;&#x25cf;" 
d="M699 353v461h2l321 -461h151v758h-177v-460h-3l-321 460h-150v-758h177zM847 -52q-209 0 -387 104t-282 282t-104 387t104 387.5t282 282.5t387 104t387 -104t282 -282.5t104 -387.5t-104 -387t-282 -282t-387 -104z" />
    <glyph glyph-name="uni1F15E" unicode="O&#x20dd;&#x25cf;" 
d="M847 497q-74 0 -122 61t-48 171q0 111 48 172t122 61t122 -61t48 -172q0 -110 -48 -171t-122 -61zM847 338q158 0 261.5 104.5t103.5 286.5q0 183 -103.5 287.5t-261.5 104.5t-261.5 -104.5t-103.5 -287.5q0 -182 103.5 -286.5t261.5 -104.5zM847 -52q-209 0 -387 104
t-282 282t-104 387t104 387.5t282 282.5t387 104t387 -104t282 -282.5t104 -387.5t-104 -387t-282 -282t-387 -104z" />
    <glyph glyph-name="uni1F15F" unicode="P&#x20dd;&#x25cf;" 
d="M914 1111h-333v-758h198v229h133q127 0 203.5 71.5t76.5 190.5q0 121 -76.5 194t-201.5 73zM1000 844q0 -56 -31 -87t-89 -31h-111v237h111q57 0 88.5 -31.5t31.5 -87.5zM847 -52q-209 0 -387 104t-282 282t-104 387t104 387.5t282 282.5t387 104t387 -104t282 -282.5
t104 -387.5t-104 -387t-282 -282t-387 -104z" />
    <glyph glyph-name="uni1F160" unicode="Q&#x20dd;&#x25cf;" 
d="M1194 285l-102 141q120 109 120 303q0 183 -103.5 287.5t-261.5 104.5t-261.5 -104.5t-103.5 -287.5q0 -182 103.5 -286.5t261.5 -104.5q61 0 110 16l43 -69h194zM847 497q-74 0 -122 61t-48 171q0 111 48 172t122 61t122 -61t48 -172q0 -96 -41 -154l-31 42h-136
l72 -116q-22 -4 -34 -4zM847 -52q-209 0 -387 104t-282 282t-104 387t104 387.5t282 282.5t387 104t387 -104t282 -282.5t104 -387.5t-104 -387t-282 -282t-387 -104z" />
    <glyph glyph-name="uni1F161" unicode="R&#x20dd;&#x25cf;" 
d="M730 755v210h127q57 0 88 -28t31 -79q0 -49 -31.5 -76t-89.5 -27h-125zM879 1111h-330v-758h185v269h114l130 -269h212l-162 301q67 24 105 80.5t38 132.5q0 115 -77.5 179.5t-214.5 64.5zM847 -52q-209 0 -387 104t-282 282t-104 387t104 387.5t282 282.5t387 104
t387 -104t282 -282.5t104 -387.5t-104 -387t-282 -282t-387 -104z" />
    <glyph glyph-name="uni1F162" unicode="S&#x20dd;&#x25cf;" 
d="M526 577q4 -110 89.5 -173.5t228.5 -63.5q149 0 236.5 66.5t87.5 178.5q0 177 -217 218l-112 22q-106 20 -106 76q0 37 31.5 59.5t84.5 22.5q52 0 85 -24t38 -65h182q-4 104 -88 167.5t-217 63.5q-137 0 -221.5 -65.5t-84.5 -171.5q0 -85 54 -140t156 -75l109 -23
q65 -12 91.5 -30t26.5 -50q0 -40 -34.5 -63t-93.5 -23q-58 0 -95.5 25.5t-41.5 67.5h-189zM847 -52q-209 0 -387 104t-282 282t-104 387t104 387.5t282 282.5t387 104t387 -104t282 -282.5t104 -387.5t-104 -387t-282 -282t-387 -104z" />
    <glyph glyph-name="uni1F163" unicode="T&#x20dd;&#x25cf;" 
d="M946 331v598h218v160h-633v-160h217v-598h198zM847 -52q-209 0 -387 104t-282 282t-104 387t104 387.5t282 282.5t387 104t387 -104t282 -282.5t104 -387.5t-104 -387t-282 -282t-387 -104z" />
    <glyph glyph-name="uni1F164" unicode="U&#x20dd;&#x25cf;" 
d="M847 479q-63 0 -98.5 35t-35.5 96v480h-195v-503q0 -122 90 -195.5t239 -73.5q148 0 238.5 74t90.5 195v503h-194v-480q0 -61 -36 -96t-99 -35zM847 -52q-209 0 -387 104t-282 282t-104 387t104 387.5t282 282.5t387 104t387 -104t282 -282.5t104 -387.5t-104 -387
t-282 -282t-387 -104z" />
    <glyph glyph-name="uni1F165" unicode="V&#x20dd;&#x25cf;" 
d="M970 328l248 758h-217l-151 -573h-6l-151 573h-217l248 -758h246zM847 -52q-209 0 -387 104t-282 282t-104 387t104 387.5t282 282.5t387 104t387 -104t282 -282.5t104 -387.5t-104 -387t-282 -282t-387 -104z" />
    <glyph glyph-name="uni1F166" unicode="W&#x20dd;&#x25cf;" 
d="M845 822h4l126 -491h171l191 758h-189l-99 -526h-5l-122 526h-150l-122 -526h-5l-98 526h-190l192 -758h170zM847 -52q-209 0 -387 104t-282 282t-104 387t104 387.5t282 282.5t387 104t387 -104t282 -282.5t104 -387.5t-104 -387t-282 -282t-387 -104z" />
    <glyph glyph-name="uni1F167" unicode="X&#x20dd;&#x25cf;" 
d="M1208 1111h-212l-142 -259h-5l-145 259h-222l241 -377l-243 -381h214l146 256h5l147 -256h213l-241 378zM847 -52q-209 0 -387 104t-282 282t-104 387t104 387.5t282 282.5t387 104t387 -104t282 -282.5t104 -387.5t-104 -387t-282 -282t-387 -104z" />
    <glyph glyph-name="uni1F168" unicode="Y&#x20dd;&#x25cf;" 
d="M746 341h203v269l264 489h-218l-146 -306h-4l-146 306h-217l264 -489v-269zM847 -52q-209 0 -387 104t-282 282t-104 387t104 387.5t282 282.5t387 104t387 -104t282 -282.5t104 -387.5t-104 -387t-282 -282t-387 -104z" />
    <glyph glyph-name="uni1F169" unicode="Z&#x20dd;&#x25cf;" 
d="M550 353h598v157h-357v3l346 473v125h-582v-158h340v-2l-345 -474v-124zM847 -52q-209 0 -387 104t-282 282t-104 387t104 387.5t282 282.5t387 104t387 -104t282 -282.5t104 -387.5t-104 -387t-282 -282t-387 -104z" />
    <glyph glyph-name="uni1F170" unicode="A&#x20de;&#x25a0;" 
d="M938 664h-182l88 293h6zM673 362l52 169h244l52 -169h196l-254 758h-231l-255 -758h196zM361 1468h972q108 0 184 -74.5t76 -180.5v-982q0 -106 -76 -180.5t-184 -74.5h-972q-107 0 -183.5 74.5t-76.5 180.5v982q0 106 76.5 180.5t183.5 74.5z" />
    <glyph glyph-name="uni1F171" unicode="B&#x20de;&#x25a0;" 
d="M558 353h359q121 0 196 58t75 155q0 79 -46.5 127.5t-124.5 60.5v3q61 15 97 58t36 107q0 88 -63.5 138.5t-172.5 50.5h-356v-758zM743 979h120q48 0 75.5 -23.5t27.5 -63.5q0 -90 -132 -90h-91v177zM742 685h129q59 0 91 -26.5t32 -74.5q0 -95 -149 -95h-103v196z
M361 1468h972q108 0 184 -74.5t76 -180.5v-982q0 -106 -76 -180.5t-184 -74.5h-972q-107 0 -183.5 74.5t-76.5 180.5v982q0 106 76.5 180.5t183.5 74.5z" />
    <glyph glyph-name="uni1F172" unicode="C&#x20de;&#x25a0;" 
d="M998 612q-6 -47 -48.5 -78.5t-99.5 -31.5q-77 0 -123 61t-46 166t46 167t123 62q58 0 101 -34.5t50 -83.5h187q-11 126 -104 203.5t-237 77.5q-161 0 -262 -107.5t-101 -284.5t101 -284t262 -107q141 0 233.5 76t105.5 198h-188zM361 1468h972q108 0 184 -74.5t76 -180.5
v-982q0 -106 -76 -180.5t-184 -74.5h-972q-107 0 -183.5 74.5t-76.5 180.5v982q0 106 76.5 180.5t183.5 74.5z" />
    <glyph glyph-name="uni1F173" unicode="D&#x20de;&#x25a0;" 
d="M538 1111v-758h310q176 0 265.5 97.5t89.5 281.5q0 185 -89.5 282t-265.5 97h-310zM726 963h93q97 0 142 -56.5t45 -175.5t-45 -174.5t-142 -55.5h-93v462zM361 1468h972q108 0 184 -74.5t76 -180.5v-982q0 -106 -76 -180.5t-184 -74.5h-972q-107 0 -183.5 74.5
t-76.5 180.5v982q0 106 76.5 180.5t183.5 74.5z" />
    <glyph glyph-name="uni1F174" unicode="E&#x20de;&#x25a0;" 
d="M1118 498h-345v170h324v134h-324v163h345v146h-533v-758h533v145zM361 1468h972q108 0 184 -74.5t76 -180.5v-982q0 -106 -76 -180.5t-184 -74.5h-972q-107 0 -183.5 74.5t-76.5 180.5v982q0 106 76.5 180.5t183.5 74.5z" />
    <glyph glyph-name="uni1F175" unicode="F&#x20de;&#x25a0;" 
d="M804 353v283h303v151h-303v173h332v151h-527v-758h195zM361 1468h972q108 0 184 -74.5t76 -180.5v-982q0 -106 -76 -180.5t-184 -74.5h-972q-107 0 -183.5 74.5t-76.5 180.5v982q0 106 76.5 180.5t183.5 74.5z" />
    <glyph glyph-name="uni1F176" unicode="G&#x20de;&#x25a0;" 
d="M1000 617q0 -52 -39.5 -86.5t-109.5 -34.5q-77 0 -123.5 63t-46.5 170t46 169t124 62q61 0 100.5 -26t44.5 -67h192q-16 113 -109.5 183t-229.5 70q-164 0 -265 -108t-101 -283t100.5 -282.5t264.5 -107.5q152 0 243.5 86.5t91.5 216.5v132h-326v-137h143v-20zM361 1468
h972q108 0 184 -74.5t76 -180.5v-982q0 -106 -76 -180.5t-184 -74.5h-972q-107 0 -183.5 74.5t-76.5 180.5v982q0 106 76.5 180.5t183.5 74.5z" />
    <glyph glyph-name="uni1F177" unicode="H&#x20de;&#x25a0;" 
d="M1178 353v758h-187v-296h-287v296h-188v-758h188v303h287v-303h187zM361 1468h972q108 0 184 -74.5t76 -180.5v-982q0 -106 -76 -180.5t-184 -74.5h-972q-107 0 -183.5 74.5t-76.5 180.5v982q0 106 76.5 180.5t183.5 74.5z" />
    <glyph glyph-name="uni1F178" unicode="I&#x20de;&#x25a0;" 
d="M950 353v758h-206v-758h206zM361 1468h972q108 0 184 -74.5t76 -180.5v-982q0 -106 -76 -180.5t-184 -74.5h-972q-107 0 -183.5 74.5t-76.5 180.5v982q0 106 76.5 180.5t183.5 74.5z" />
    <glyph glyph-name="uni1F179" unicode="J&#x20de;&#x25a0;" 
d="M532 597q0 -117 75 -190.5t207 -73.5t207.5 72.5t75.5 203.5v496h-198v-496q0 -103 -89 -103q-40 0 -62.5 24t-22.5 67h-193zM361 1468h972q108 0 184 -74.5t76 -180.5v-982q0 -106 -76 -180.5t-184 -74.5h-972q-107 0 -183.5 74.5t-76.5 180.5v982q0 106 76.5 180.5
t183.5 74.5z" />
    <glyph glyph-name="uni1F17A" unicode="K&#x20de;&#x25a0;" 
d="M1204 1111h-215l-263 -320h-3v320h-184v-758h184v220l70 78l191 -298h228q-32 46 -135.5 207.5t-138.5 212.5zM361 1468h972q108 0 184 -74.5t76 -180.5v-982q0 -106 -76 -180.5t-184 -74.5h-972q-107 0 -183.5 74.5t-76.5 180.5v982q0 106 76.5 180.5t183.5 74.5z" />
    <glyph glyph-name="uni1F17B" unicode="L&#x20de;&#x25a0;" 
d="M1150 522h-320v595h-199v-758h519v163zM361 1468h972q108 0 184 -74.5t76 -180.5v-982q0 -106 -76 -180.5t-184 -74.5h-972q-107 0 -183.5 74.5t-76.5 180.5v982q0 106 76.5 180.5t183.5 74.5z" />
    <glyph glyph-name="uni1F17C" unicode="M&#x20de;&#x25a0;" 
d="M618 353v493h4l167 -457h115l168 454h4v-490h158v758h-188l-198 -527h-2l-197 527h-188v-758h157zM361 1468h972q108 0 184 -74.5t76 -180.5v-982q0 -106 -76 -180.5t-184 -74.5h-972q-107 0 -183.5 74.5t-76.5 180.5v982q0 106 76.5 180.5t183.5 74.5z" />
    <glyph glyph-name="uni1F17D" unicode="N&#x20de;&#x25a0;" 
d="M699 353v461h2l321 -461h151v758h-177v-460h-3l-321 460h-150v-758h177zM361 1468h972q108 0 184 -74.5t76 -180.5v-982q0 -106 -76 -180.5t-184 -74.5h-972q-107 0 -183.5 74.5t-76.5 180.5v982q0 106 76.5 180.5t183.5 74.5z" />
    <glyph glyph-name="uni1F17E" unicode="O&#x20de;&#x25a0;" 
d="M847 497q-74 0 -122 61t-48 171q0 111 48 172t122 61t122 -61t48 -172q0 -110 -48 -171t-122 -61zM847 338q158 0 261.5 104.5t103.5 286.5q0 183 -103.5 287.5t-261.5 104.5t-261.5 -104.5t-103.5 -287.5q0 -182 103.5 -286.5t261.5 -104.5zM361 1468h972
q108 0 184 -74.5t76 -180.5v-982q0 -106 -76 -180.5t-184 -74.5h-972q-107 0 -183.5 74.5t-76.5 180.5v982q0 106 76.5 180.5t183.5 74.5z" />
    <glyph glyph-name="uni1F17F" unicode="P&#x20de;&#x25a0;" 
d="M914 1111h-333v-758h198v229h133q129 0 204.5 72.5t75.5 189.5q0 119 -75 193t-203 74zM1000 844q0 -56 -31 -87t-89 -31h-111v237h111q57 0 88.5 -31t31.5 -88zM361 1468h972q108 0 184 -74.5t76 -180.5v-982q0 -106 -76 -180.5t-184 -74.5h-972q-107 0 -183.5 74.5
t-76.5 180.5v982q0 106 76.5 180.5t183.5 74.5z" />
    <glyph glyph-name="uni1F180" unicode="Q&#x20de;&#x25a0;" 
d="M1194 285l-102 141q120 109 120 303q0 183 -103.5 287.5t-261.5 104.5t-261.5 -104.5t-103.5 -287.5q0 -182 103.5 -286.5t261.5 -104.5q61 0 110 16l43 -69h194zM847 497q-74 0 -122 61t-48 171q0 111 48 172t122 61t122 -61t48 -172q0 -96 -41 -154l-31 42h-136
l72 -116q-22 -4 -34 -4zM361 1468h972q108 0 184 -74.5t76 -180.5v-982q0 -106 -76 -180.5t-184 -74.5h-972q-107 0 -183.5 74.5t-76.5 180.5v982q0 106 76.5 180.5t183.5 74.5z" />
    <glyph glyph-name="uni1F181" unicode="R&#x20de;&#x25a0;" 
d="M730 755v210h127q56 0 87.5 -27.5t31.5 -79.5q0 -49 -32 -76t-89 -27h-125zM879 1111h-330v-758h185v269h114l130 -269h212l-162 301q65 23 104 79t39 134q0 114 -77 179t-215 65zM361 1468h972q108 0 184 -74.5t76 -180.5v-982q0 -106 -76 -180.5t-184 -74.5h-972
q-107 0 -183.5 74.5t-76.5 180.5v982q0 106 76.5 180.5t183.5 74.5z" />
    <glyph glyph-name="uni1F182" unicode="S&#x20de;&#x25a0;" 
d="M526 577q4 -110 89.5 -173.5t228.5 -63.5q149 0 236.5 66.5t87.5 178.5q0 177 -217 218l-112 22q-106 20 -106 76q0 37 31.5 59.5t84.5 22.5q52 0 85 -24t38 -65h182q-4 104 -88 167.5t-217 63.5q-137 0 -221.5 -65.5t-84.5 -171.5q0 -85 54 -140t156 -75l109 -23
q65 -12 91.5 -30t26.5 -50q0 -40 -34.5 -63t-93.5 -23q-58 0 -95.5 25.5t-41.5 67.5h-189zM361 1468h972q108 0 184 -74.5t76 -180.5v-982q0 -106 -76 -180.5t-184 -74.5h-972q-107 0 -183.5 74.5t-76.5 180.5v982q0 106 76.5 180.5t183.5 74.5z" />
    <glyph glyph-name="uni1F183" unicode="T&#x20de;&#x25a0;" 
d="M946 345v598h218v160h-633v-160h217v-598h198zM361 1468h972q108 0 184 -74.5t76 -180.5v-982q0 -106 -76 -180.5t-184 -74.5h-972q-107 0 -183.5 74.5t-76.5 180.5v982q0 106 76.5 180.5t183.5 74.5z" />
    <glyph glyph-name="uni1F184" unicode="U&#x20de;&#x25a0;" 
d="M847 492q-63 0 -98.5 35t-35.5 97v479h-195v-502q0 -122 90 -195.5t239 -73.5q148 0 238.5 74t90.5 195v502h-194v-479q0 -61 -36.5 -96.5t-98.5 -35.5zM361 1468h972q108 0 184 -74.5t76 -180.5v-982q0 -106 -76 -180.5t-184 -74.5h-972q-107 0 -183.5 74.5t-76.5 180.5
v982q0 106 76.5 180.5t183.5 74.5z" />
    <glyph glyph-name="uni1F185" unicode="V&#x20de;&#x25a0;" 
d="M970 342l248 758h-217l-151 -574h-6l-151 574h-217l248 -758h246zM361 1468h972q108 0 184 -74.5t76 -180.5v-982q0 -106 -76 -180.5t-184 -74.5h-972q-107 0 -183.5 74.5t-76.5 180.5v982q0 106 76.5 180.5t183.5 74.5z" />
    <glyph glyph-name="uni1F186" unicode="W&#x20de;&#x25a0;" 
d="M845 836h4l126 -491h171l191 758h-189l-99 -526h-5l-122 526h-150l-122 -526h-5l-98 526h-190l192 -758h170zM361 1468h972q108 0 184 -74.5t76 -180.5v-982q0 -106 -76 -180.5t-184 -74.5h-972q-107 0 -183.5 74.5t-76.5 180.5v982q0 106 76.5 180.5t183.5 74.5z" />
    <glyph glyph-name="uni1F187" unicode="X&#x20de;&#x25a0;" 
d="M1208 1111h-212l-142 -259h-5l-145 259h-222l241 -377l-243 -381h214l146 256h5l147 -256h213l-241 378zM361 1468h972q108 0 184 -74.5t76 -180.5v-982q0 -106 -76 -180.5t-184 -74.5h-972q-107 0 -183.5 74.5t-76.5 180.5v982q0 106 76.5 180.5t183.5 74.5z" />
    <glyph glyph-name="uni1F188" unicode="Y&#x20de;&#x25a0;" 
d="M746 345h203v269l264 489h-218l-146 -307h-4l-146 307h-217l264 -489v-269zM361 1468h972q108 0 184 -74.5t76 -180.5v-982q0 -106 -76 -180.5t-184 -74.5h-972q-107 0 -183.5 74.5t-76.5 180.5v982q0 106 76.5 180.5t183.5 74.5z" />
    <glyph glyph-name="uni1F189" unicode="Z&#x20de;&#x25a0;" 
d="M550 353h598v157h-357v3l346 473v125h-582v-158h340v-2l-345 -474v-124zM361 1468h972q108 0 184 -74.5t76 -180.5v-982q0 -106 -76 -180.5t-184 -74.5h-972q-107 0 -183.5 74.5t-76.5 180.5v982q0 106 76.5 180.5t183.5 74.5z" />
    <glyph glyph-name="plus.uc.whitecircle" unicode="&#x2b;&#x20dd;" 
d="M922 658v-212h-150v212h-208v142h208v208h150v-208h208v-142h-208zM847 105q167 0 307 82.5t220 224t80 308.5t-80 308.5t-220 224t-307 82.5t-307 -82.5t-220 -224t-80 -308.5t80 -308.5t220 -224t307 -82.5zM847 -53q-158 0 -301 61t-246.5 164.5t-164.5 247t-61 301.5
t61 301t164.5 246.5t246.5 164.5t301 61t301 -61t246.5 -164.5t164.5 -246.5t61 -301t-61 -301.5t-164.5 -247t-246.5 -164.5t-301 -61z" />
    <glyph glyph-name="minus.uc.whitecircle" unicode="&#x2212;&#x20dd;" 
d="M1108 653h-522v147h522v-147zM847 105q167 0 307 82.5t220 224t80 308.5t-80 308.5t-220 224t-307 82.5t-307 -82.5t-220 -224t-80 -308.5t80 -308.5t220 -224t307 -82.5zM847 -53q-158 0 -301 61t-246.5 164.5t-164.5 247t-61 301.5t61 301t164.5 246.5t246.5 164.5
t301 61t301 -61t246.5 -164.5t164.5 -246.5t61 -301t-61 -301.5t-164.5 -247t-246.5 -164.5t-301 -61z" />
    <glyph glyph-name="multiply.uc.whitecircle" unicode="&#xd7;&#x20dd;" 
d="M847 830l160 156l107 -104l-161 -156l161 -155l-107 -103l-160 156l-161 -156l-105 103l160 155l-161 157l106 103zM847 105q167 0 307 82.5t220 224t80 308.5t-80 308.5t-220 224t-307 82.5t-307 -82.5t-220 -224t-80 -308.5t80 -308.5t220 -224t307 -82.5zM847 -53
q-158 0 -301 61t-246.5 164.5t-164.5 247t-61 301.5t61 301t164.5 246.5t246.5 164.5t301 61t301 -61t246.5 -164.5t164.5 -246.5t61 -301t-61 -301.5t-164.5 -247t-246.5 -164.5t-301 -61z" />
    <glyph glyph-name="divide.uc.whitecircle" unicode="&#xf7;&#x20dd;" 
d="M1108 667h-522v118h522v-118zM756 943q0 37 25.5 60.5t64.5 23.5q40 0 66.5 -23.5t26.5 -60.5q0 -35 -26.5 -58.5t-66.5 -23.5q-38 0 -64 23.5t-26 58.5zM756 513q0 36 26 59.5t65 23.5t65.5 -23.5t26.5 -59.5q0 -35 -26.5 -58.5t-65.5 -23.5t-65 23.5t-26 58.5zM847 105
q167 0 307 82.5t220 224t80 308.5t-80 308.5t-220 224t-307 82.5t-307 -82.5t-220 -224t-80 -308.5t80 -308.5t220 -224t307 -82.5zM847 -53q-158 0 -301 61t-246.5 164.5t-164.5 247t-61 301.5t61 301t164.5 246.5t246.5 164.5t301 61t301 -61t246.5 -164.5t164.5 -246.5
t61 -301t-61 -301.5t-164.5 -247t-246.5 -164.5t-301 -61z" />
    <glyph glyph-name="equal.uc.whitecircle" unicode="&#x3d;&#x20dd;" 
d="M1108 536h-522v130h522v-130zM1108 785h-522v131h522v-131zM847 105q167 0 307 82.5t220 224t80 308.5t-80 308.5t-220 224t-307 82.5t-307 -82.5t-220 -224t-80 -308.5t80 -308.5t220 -224t307 -82.5zM847 -53q-158 0 -301 61t-246.5 164.5t-164.5 247t-61 301.5t61 301
t164.5 246.5t246.5 164.5t301 61t301 -61t246.5 -164.5t164.5 -246.5t61 -301t-61 -301.5t-164.5 -247t-246.5 -164.5t-301 -61z" />
    <glyph glyph-name="greater.uc.whitecircle" unicode="&#x3e;&#x20dd;" 
d="M1126 772v-100l-507 -249v160l304 139v7l-304 138v165zM847 105q167 0 307 82.5t220 224t80 308.5t-80 308.5t-220 224t-307 82.5t-307 -82.5t-220 -224t-80 -308.5t80 -308.5t220 -224t307 -82.5zM847 -53q-158 0 -301 61t-246.5 164.5t-164.5 247t-61 301.5t61 301
t164.5 246.5t246.5 164.5t301 61t301 -61t246.5 -164.5t164.5 -246.5t61 -301t-61 -301.5t-164.5 -247t-246.5 -164.5t-301 -61z" />
    <glyph glyph-name="less.uc.whitecircle" unicode="&#x3c;&#x20dd;" 
d="M568 672v100l507 260v-165l-305 -138v-7l305 -139v-160zM847 105q167 0 307 82.5t220 224t80 308.5t-80 308.5t-220 224t-307 82.5t-307 -82.5t-220 -224t-80 -308.5t80 -308.5t220 -224t307 -82.5zM847 -53q-158 0 -301 61t-246.5 164.5t-164.5 247t-61 301.5t61 301
t164.5 246.5t246.5 164.5t301 61t301 -61t246.5 -164.5t164.5 -246.5t61 -301t-61 -301.5t-164.5 -247t-246.5 -164.5t-301 -61z" />
    <glyph glyph-name="numbersign.whitecircle" unicode="&#x30;&#x20dd;" 
d="M1138 787h-104l-23 -112h102l-23 -115h-103l-37 -179h-124l37 179h-107l-36 -179h-124l37 179h-100l23 115h100l24 112h-98l22 116h99l35 171h123l-35 -171h107l35 171h123l-34 -171h104zM796 796l-29 -137h128l28 137h-127zM847 105q167 0 307 82.5t220 224t80 308.5
t-80 308.5t-220 224t-307 82.5t-307 -82.5t-220 -224t-80 -308.5t80 -308.5t220 -224t307 -82.5zM847 -53q-158 0 -301 61t-246.5 164.5t-164.5 247t-61 301.5t61 301t164.5 246.5t246.5 164.5t301 61t301 -61t246.5 -164.5t164.5 -246.5t61 -301t-61 -301.5t-164.5 -247
t-246.5 -164.5t-301 -61z" />
    <glyph glyph-name="uni25BC.whitecircle" unicode="&#x25bc;&#x20dd;" 
d="M1170 946l-323 -559l-322 559h645zM847 105q167 0 307 82.5t220 224t80 308.5t-80 308.5t-220 224t-307 82.5t-307 -82.5t-220 -224t-80 -308.5t80 -308.5t220 -224t307 -82.5zM847 -53q-158 0 -301 61t-246.5 164.5t-164.5 247t-61 301.5t61 301t164.5 246.5
t246.5 164.5t301 61t301 -61t246.5 -164.5t164.5 -246.5t61 -301t-61 -301.5t-164.5 -247t-246.5 -164.5t-301 -61z" />
    <glyph glyph-name="uni25B2.whitecircle" unicode="&#x25b2;&#x20dd;" 
d="M1170 508h-645l322 558zM847 105q167 0 307 82.5t220 224t80 308.5t-80 308.5t-220 224t-307 82.5t-307 -82.5t-220 -224t-80 -308.5t80 -308.5t220 -224t307 -82.5zM847 -53q-158 0 -301 61t-246.5 164.5t-164.5 247t-61 301.5t61 301t164.5 246.5t246.5 164.5t301 61
t301 -61t246.5 -164.5t164.5 -246.5t61 -301t-61 -301.5t-164.5 -247t-246.5 -164.5t-301 -61z" />
    <glyph glyph-name="uni25C0.whitecircle" unicode="&#x25c0;&#x20dd;" 
d="M1065 405l-559 323l559 322v-645zM847 105q167 0 307 82.5t220 224t80 308.5t-80 308.5t-220 224t-307 82.5t-307 -82.5t-220 -224t-80 -308.5t80 -308.5t220 -224t307 -82.5zM847 -53q-158 0 -301 61t-246.5 164.5t-164.5 247t-61 301.5t61 301t164.5 246.5t246.5 164.5
t301 61t301 -61t246.5 -164.5t164.5 -246.5t61 -301t-61 -301.5t-164.5 -247t-246.5 -164.5t-301 -61z" />
    <glyph glyph-name="uni25B6.whitecircle" unicode="&#x25b6;&#x20dd;" 
d="M629 405v645l559 -322zM847 105q167 0 307 82.5t220 224t80 308.5t-80 308.5t-220 224t-307 82.5t-307 -82.5t-220 -224t-80 -308.5t80 -308.5t220 -224t307 -82.5zM847 -53q-158 0 -301 61t-246.5 164.5t-164.5 247t-61 301.5t61 301t164.5 246.5t246.5 164.5t301 61
t301 -61t246.5 -164.5t164.5 -246.5t61 -301t-61 -301.5t-164.5 -247t-246.5 -164.5t-301 -61z" />
    <glyph glyph-name="question.whitecircle" unicode="&#x3f;&#x20dd;" 
d="M732 458q0 39 28.5 62t75.5 23q49 0 77.5 -23t28.5 -62q0 -38 -28.5 -61t-77.5 -23q-47 0 -75.5 23t-28.5 61zM755 605q-1 4 -1 32q-4 92 90 155q47 31 65 50.5t18 47.5q0 35 -23.5 53.5t-59.5 18.5q-39 0 -62 -23.5t-24 -60.5h-154q-1 106 69.5 158.5t183.5 52.5
q105 0 173 -50.5t68 -141.5q0 -57 -26.5 -94t-76.5 -69q-57 -39 -73.5 -57.5t-16.5 -52.5v-19h-150zM847 105q167 0 307 82.5t220 224t80 308.5t-80 308.5t-220 224t-307 82.5t-307 -82.5t-220 -224t-80 -308.5t80 -308.5t220 -224t307 -82.5zM847 -53q-158 0 -301 61
t-246.5 164.5t-164.5 247t-61 301.5t61 301t164.5 246.5t246.5 164.5t301 61t301 -61t246.5 -164.5t164.5 -246.5t61 -301t-61 -301.5t-164.5 -247t-246.5 -164.5t-301 -61z" />
    <glyph glyph-name="exclam.whitecircle" unicode="&#x21;&#x20dd;" 
d="M744 458q0 39 28.5 62.5t77.5 23.5q48 0 76 -23.5t28 -62.5q0 -38 -28 -61t-76 -23t-77 23t-29 61zM756 1077h187l-20 -455h-147zM847 105q167 0 307 82.5t220 224t80 308.5t-80 308.5t-220 224t-307 82.5t-307 -82.5t-220 -224t-80 -308.5t80 -308.5t220 -224t307 -82.5
zM847 -53q-158 0 -301 61t-246.5 164.5t-164.5 247t-61 301.5t61 301t164.5 246.5t246.5 164.5t301 61t301 -61t246.5 -164.5t164.5 -246.5t61 -301t-61 -301.5t-164.5 -247t-246.5 -164.5t-301 -61z" />
    <glyph glyph-name="uni2717.whitecircle" unicode="&#x2717;&#x20dd;" 
d="M851 829l238 237l105 -105l-237 -237l237 -238l-105 -107l-238 237l-239 -237l-106 106l238 239l-238 238l106 106zM847 105q167 0 307 82.5t220 224t80 308.5t-80 308.5t-220 224t-307 82.5t-307 -82.5t-220 -224t-80 -308.5t80 -308.5t220 -224t307 -82.5zM847 -53
q-158 0 -301 61t-246.5 164.5t-164.5 247t-61 301.5t61 301t164.5 246.5t246.5 164.5t301 61t301 -61t246.5 -164.5t164.5 -246.5t61 -301t-61 -301.5t-164.5 -247t-246.5 -164.5t-301 -61z" />
    <glyph glyph-name="uni2713.whitecircle" unicode="&#x2713;&#x20dd;" 
d="M1273 925l-544 -537l-303 298l112 110l192 -192l434 433zM847 105q167 0 307 82.5t220 224t80 308.5t-80 308.5t-220 224t-307 82.5t-307 -82.5t-220 -224t-80 -308.5t80 -308.5t220 -224t307 -82.5zM847 -53q-158 0 -301 61t-246.5 164.5t-164.5 247t-61 301.5t61 301
t164.5 246.5t246.5 164.5t301 61t301 -61t246.5 -164.5t164.5 -246.5t61 -301t-61 -301.5t-164.5 -247t-246.5 -164.5t-301 -61z" />
    <glyph glyph-name="zero.whitesquare" unicode="&#x30;&#x20de;" 
d="M847 511q55 0 86.5 55.5t31.5 163.5t-31.5 163.5t-86.5 55.5t-86.5 -55.5t-31.5 -163.5t31.5 -163.5t86.5 -55.5zM846 373q-128 0 -205 95t-77 262t77 262.5t205 95.5q127 0 205.5 -95.5t78.5 -262.5t-78 -262t-206 -95zM361 1468h972q108 0 184 -74.5t76 -180.5v-982
q0 -106 -76 -180.5t-184 -74.5h-972q-107 0 -183.5 74.5t-76.5 180.5v982q0 106 76.5 180.5t183.5 74.5zM1431 1189q0 54 -40 92.5t-96 38.5h-896q-56 0 -96 -38.5t-40 -92.5v-934q0 -53 40.5 -92t95.5 -39h896q56 0 96 38.5t40 92.5v934z" />
    <glyph glyph-name="one.whitesquare" unicode="&#x31;&#x20de;" 
d="M976 385h-175v536h-7l-162 -110v152l169 114h175v-692zM361 1468h972q108 0 184 -74.5t76 -180.5v-982q0 -106 -76 -180.5t-184 -74.5h-972q-107 0 -183.5 74.5t-76.5 180.5v982q0 106 76.5 180.5t183.5 74.5zM1431 1189q0 54 -40 92.5t-96 38.5h-896q-56 0 -96 -38.5
t-40 -92.5v-934q0 -53 40.5 -92t95.5 -39h896q56 0 96 38.5t40 92.5v934z" />
    <glyph glyph-name="two.whitesquare" unicode="&#x32;&#x20de;" 
d="M750 859h-163v4q0 96 69 161t192 65q114 0 185 -56.5t71 -144.5q0 -58 -32 -105.5t-98 -110.5l-140 -145v-6h281v-137h-519v106l257 254q40 39 59 67.5t19 61.5q0 36 -25 58.5t-64 22.5q-43 0 -67.5 -26t-24.5 -65v-4zM361 1468h972q108 0 184 -74.5t76 -180.5v-982
q0 -106 -76 -180.5t-184 -74.5h-972q-107 0 -183.5 74.5t-76.5 180.5v982q0 106 76.5 180.5t183.5 74.5zM1431 1189q0 54 -40 92.5t-96 38.5h-896q-56 0 -96 -38.5t-40 -92.5v-934q0 -53 40.5 -92t95.5 -39h896q56 0 96 38.5t40 92.5v934z" />
    <glyph glyph-name="three.whitesquare" unicode="&#x33;&#x20de;" 
d="M770 674v128h72q43 0 70 23.5t27 59.5q-1 35 -27.5 56.5t-69.5 21.5t-70.5 -23.5t-29.5 -57.5h-162q4 94 73 150t193 57q117 0 188 -50.5t73 -132.5q1 -61 -41 -103.5t-92 -50.5v-8q59 -5 105.5 -48.5t47.5 -116.5q1 -94 -79 -150.5t-205 -56.5q-124 0 -197.5 58.5
t-75.5 149.5h160q2 -35 33 -57t79 -23q51 0 82.5 24.5t31.5 63.5q-1 39 -31 62.5t-80 23.5h-75zM361 1468h972q108 0 184 -74.5t76 -180.5v-982q0 -106 -76 -180.5t-184 -74.5h-972q-107 0 -183.5 74.5t-76.5 180.5v982q0 106 76.5 180.5t183.5 74.5zM1431 1189
q0 54 -40 92.5t-96 38.5h-896q-56 0 -96 -38.5t-40 -92.5v-934q0 -53 40.5 -92t95.5 -39h896q56 0 96 38.5t40 92.5v934z" />
    <glyph glyph-name="four.whitesquare" unicode="&#x34;&#x20de;" 
d="M803 1077h241v-441h94v-131h-94v-120h-151v120h-348v133q64 120 258 439zM698 636h195v327h-7q-109 -170 -188 -324v-3zM361 1468h972q108 0 184 -74.5t76 -180.5v-982q0 -106 -76 -180.5t-184 -74.5h-972q-107 0 -183.5 74.5t-76.5 180.5v982q0 106 76.5 180.5
t183.5 74.5zM1431 1189q0 54 -40 92.5t-96 38.5h-896q-56 0 -96 -38.5t-40 -92.5v-934q0 -53 40.5 -92t95.5 -39h896q56 0 96 38.5t40 92.5v934z" />
    <glyph glyph-name="five.whitesquare" unicode="&#x35;&#x20de;" 
d="M586 579h161q7 -35 38 -54t72 -19q46 0 79 31.5t33 82.5q0 48 -33 78t-80 30q-37 0 -63.5 -16.5t-38.5 -39.5h-154l29 408h464v-127h-330l-14 -168h8q14 25 54.5 44t94.5 19q100 0 165.5 -60.5t65.5 -162.5q0 -113 -77.5 -181.5t-205.5 -68.5q-116 0 -190.5 57.5
t-77.5 146.5zM361 1468h972q108 0 184 -74.5t76 -180.5v-982q0 -106 -76 -180.5t-184 -74.5h-972q-107 0 -183.5 74.5t-76.5 180.5v982q0 106 76.5 180.5t183.5 74.5zM1431 1189q0 54 -40 92.5t-96 38.5h-896q-56 0 -96 -38.5t-40 -92.5v-934q0 -53 40.5 -92t95.5 -39h896
q56 0 96 38.5t40 92.5v934z" />
    <glyph glyph-name="six.whitesquare" unicode="&#x36;&#x20de;" 
d="M1119 907h-161q-9 23 -32.5 39t-61.5 16q-63 0 -99 -60.5t-32 -159.5h7q19 42 61.5 68t107.5 26q95 0 160 -58t65 -160q0 -114 -76.5 -180t-199.5 -66q-164 0 -239 120q-55 86 -55 228q0 180 80 274.5t220 94.5q109 0 179 -54t76 -128zM746 613q0 -51 31.5 -81.5
t79.5 -30.5q49 0 80 29.5t31 81.5q0 50 -32 79t-79 29q-49 0 -80 -30t-31 -77zM361 1468h972q108 0 184 -74.5t76 -180.5v-982q0 -106 -76 -180.5t-184 -74.5h-972q-107 0 -183.5 74.5t-76.5 180.5v982q0 106 76.5 180.5t183.5 74.5zM1431 1189q0 54 -40 92.5t-96 38.5h-896
q-56 0 -96 -38.5t-40 -92.5v-934q0 -53 40.5 -92t95.5 -39h896q56 0 96 38.5t40 92.5v934z" />
    <glyph glyph-name="seven.whitesquare" unicode="&#x37;&#x20de;" 
d="M591 1077h523v-138l-281 -554h-186l290 549v7h-346v136zM361 1468h972q108 0 184 -74.5t76 -180.5v-982q0 -106 -76 -180.5t-184 -74.5h-972q-107 0 -183.5 74.5t-76.5 180.5v982q0 106 76.5 180.5t183.5 74.5zM1431 1189q0 54 -40 92.5t-96 38.5h-896q-56 0 -96 -38.5
t-40 -92.5v-934q0 -53 40.5 -92t95.5 -39h896q56 0 96 38.5t40 92.5v934z" />
    <glyph glyph-name="eight.whitesquare" unicode="&#x38;&#x20de;" 
d="M847 489q51 0 84 28t33 72t-32.5 72.5t-84.5 28.5t-85 -28.5t-33 -72.5t33 -72t85 -28zM847 799q43 0 70 24.5t27 62.5q0 37 -27.5 61t-69.5 24t-69.5 -24t-27.5 -61q0 -38 27 -62.5t70 -24.5zM846 372q-133 0 -213 56t-80 149q0 65 42 111.5t112 58.5v6
q-125 37 -125 151q0 83 73 134t192 51t192 -51t73 -134q0 -55 -32.5 -94.5t-92.5 -56.5v-6q70 -12 112 -58t42 -111q0 -94 -80.5 -150t-214.5 -56zM361 1468h972q108 0 184 -74.5t76 -180.5v-982q0 -106 -76 -180.5t-184 -74.5h-972q-107 0 -183.5 74.5t-76.5 180.5v982
q0 106 76.5 180.5t183.5 74.5zM1431 1189q0 54 -40 92.5t-96 38.5h-896q-56 0 -96 -38.5t-40 -92.5v-934q0 -53 40.5 -92t95.5 -39h896q56 0 96 38.5t40 92.5v934z" />
    <glyph glyph-name="nine.whitesquare" unicode="&#x39;&#x20de;" 
d="M560 847q0 109 78.5 175.5t200.5 66.5q131 0 211 -84.5t80 -265.5q0 -178 -77 -272t-224 -94q-109 0 -176.5 51.5t-75.5 126.5h162q8 -22 32 -36.5t59 -14.5q71 0 105.5 61.5t28.5 156.5h-7q-17 -42 -60.5 -68.5t-105.5 -26.5q-100 0 -165.5 60t-65.5 164zM947 848
q0 52 -31 82.5t-80 30.5q-46 0 -77.5 -30.5t-31.5 -81.5t31.5 -80.5t79.5 -29.5q47 0 78 29t31 80zM361 1468h972q108 0 184 -74.5t76 -180.5v-982q0 -106 -76 -180.5t-184 -74.5h-972q-107 0 -183.5 74.5t-76.5 180.5v982q0 106 76.5 180.5t183.5 74.5zM1431 1189
q0 54 -40 92.5t-96 38.5h-896q-56 0 -96 -38.5t-40 -92.5v-934q0 -53 40.5 -92t95.5 -39h896q56 0 96 38.5t40 92.5v934z" />
    <glyph glyph-name="plus.uc.whitesquare" unicode="&#x2b;&#x20de;" 
d="M922 658v-212h-150v212h-208v142h208v208h150v-208h208v-142h-208zM361 1468h972q108 0 184 -74.5t76 -180.5v-982q0 -106 -76 -180.5t-184 -74.5h-972q-107 0 -183.5 74.5t-76.5 180.5v982q0 106 76.5 180.5t183.5 74.5zM1431 1189q0 54 -40 92.5t-96 38.5h-896
q-56 0 -96 -38.5t-40 -92.5v-934q0 -53 40.5 -92t95.5 -39h896q56 0 96 38.5t40 92.5v934z" />
    <glyph glyph-name="minus.uc.whitesquare" unicode="&#x2212;&#x20de;" 
d="M1108 653h-522v147h522v-147zM361 1468h972q108 0 184 -74.5t76 -180.5v-982q0 -106 -76 -180.5t-184 -74.5h-972q-107 0 -183.5 74.5t-76.5 180.5v982q0 106 76.5 180.5t183.5 74.5zM1431 1189q0 54 -40 92.5t-96 38.5h-896q-56 0 -96 -38.5t-40 -92.5v-934
q0 -53 40.5 -92t95.5 -39h896q56 0 96 38.5t40 92.5v934z" />
    <glyph glyph-name="multiply.uc.whitesquare" unicode="&#xd7;&#x20de;" 
d="M847 830l160 156l106 -103l-160 -156l160 -156l-106 -103l-160 156l-161 -156l-106 103l161 156l-161 156l106 103zM361 1468h972q108 0 184 -74.5t76 -180.5v-982q0 -106 -76 -180.5t-184 -74.5h-972q-107 0 -183.5 74.5t-76.5 180.5v982q0 106 76.5 180.5t183.5 74.5z
M1431 1189q0 54 -40 92.5t-96 38.5h-896q-56 0 -96 -38.5t-40 -92.5v-934q0 -53 40.5 -92t95.5 -39h896q56 0 96 38.5t40 92.5v934z" />
    <glyph glyph-name="divide.uc.whitesquare" unicode="&#xf7;&#x20de;" 
d="M1108 667h-522v118h522v-118zM756 943q0 37 25.5 60.5t64.5 23.5q40 0 66.5 -23.5t26.5 -60.5q0 -35 -26.5 -58.5t-66.5 -23.5q-38 0 -64 23.5t-26 58.5zM756 513q0 36 26 59.5t65 23.5t65.5 -23.5t26.5 -59.5q0 -35 -26.5 -58.5t-65.5 -23.5t-65 23.5t-26 58.5z
M361 1468h972q108 0 184 -74.5t76 -180.5v-982q0 -106 -76 -180.5t-184 -74.5h-972q-107 0 -183.5 74.5t-76.5 180.5v982q0 106 76.5 180.5t183.5 74.5zM1431 1189q0 54 -40 92.5t-96 38.5h-896q-56 0 -96 -38.5t-40 -92.5v-934q0 -53 40.5 -92t95.5 -39h896q56 0 96 38.5
t40 92.5v934z" />
    <glyph glyph-name="equal.uc.whitesquare" unicode="&#x3d;&#x20de;" 
d="M1108 536h-522v130h522v-130zM1108 785h-522v131h522v-131zM361 1468h972q108 0 184 -74.5t76 -180.5v-982q0 -106 -76 -180.5t-184 -74.5h-972q-107 0 -183.5 74.5t-76.5 180.5v982q0 106 76.5 180.5t183.5 74.5zM1431 1189q0 54 -40 92.5t-96 38.5h-896
q-56 0 -96 -38.5t-40 -92.5v-934q0 -53 40.5 -92t95.5 -39h896q56 0 96 38.5t40 92.5v934z" />
    <glyph glyph-name="greater.uc.whitesquare" unicode="&#x3e;&#x20de;" 
d="M1126 772v-100l-507 -249v160l304 139v7l-304 138v165zM361 1468h972q108 0 184 -74.5t76 -180.5v-982q0 -106 -76 -180.5t-184 -74.5h-972q-107 0 -183.5 74.5t-76.5 180.5v982q0 106 76.5 180.5t183.5 74.5zM1431 1189q0 54 -40 92.5t-96 38.5h-896q-56 0 -96 -38.5
t-40 -92.5v-934q0 -53 40.5 -92t95.5 -39h896q56 0 96 38.5t40 92.5v934z" />
    <glyph glyph-name="less.uc.whitesquare" unicode="&#x3c;&#x20de;" 
d="M568 672v100l507 260v-165l-305 -138v-7l305 -139v-160zM361 1468h972q108 0 184 -74.5t76 -180.5v-982q0 -106 -76 -180.5t-184 -74.5h-972q-107 0 -183.5 74.5t-76.5 180.5v982q0 106 76.5 180.5t183.5 74.5zM1431 1189q0 54 -40 92.5t-96 38.5h-896q-56 0 -96 -38.5
t-40 -92.5v-934q0 -53 40.5 -92t95.5 -39h896q56 0 96 38.5t40 92.5v934z" />
    <glyph glyph-name="numbersign.whitesquare" unicode="&#x23;&#x20de;" 
d="M1138 787h-104l-23 -112h102l-23 -115h-103l-37 -179h-124l37 179h-107l-36 -179h-124l37 179h-100l23 115h100l24 112h-98l22 116h99l35 171h123l-35 -171h107l35 171h123l-34 -171h104zM796 796l-29 -137h128l28 137h-127zM361 1468h972q108 0 184 -74.5t76 -180.5
v-982q0 -106 -76 -180.5t-184 -74.5h-972q-107 0 -183.5 74.5t-76.5 180.5v982q0 106 76.5 180.5t183.5 74.5zM1431 1189q0 54 -40 92.5t-96 38.5h-896q-56 0 -96 -38.5t-40 -92.5v-934q0 -53 40.5 -92t95.5 -39h896q56 0 96 38.5t40 92.5v934z" />
    <glyph glyph-name="uni25BC.whitesquare" unicode="&#x25bc;&#x20de;" 
d="M1171 946l-323 -559l-323 559h646zM361 1468h972q108 0 184 -74.5t76 -180.5v-982q0 -106 -76 -180.5t-184 -74.5h-972q-107 0 -183.5 74.5t-76.5 180.5v982q0 106 76.5 180.5t183.5 74.5zM1431 1189q0 54 -40 92.5t-96 38.5h-896q-56 0 -96 -38.5t-40 -92.5v-934
q0 -53 40.5 -92t95.5 -39h896q56 0 96 38.5t40 92.5v934z" />
    <glyph glyph-name="uni25B2.whitesquare" unicode="&#x25b2;&#x20de;" 
d="M1170 508h-645l322 558zM361 1468h972q108 0 184 -74.5t76 -180.5v-982q0 -106 -76 -180.5t-184 -74.5h-972q-107 0 -183.5 74.5t-76.5 180.5v982q0 106 76.5 180.5t183.5 74.5zM1431 1189q0 54 -40 92.5t-96 38.5h-896q-56 0 -96 -38.5t-40 -92.5v-934q0 -53 40.5 -92
t95.5 -39h896q56 0 96 38.5t40 92.5v934z" />
    <glyph glyph-name="uni25C0.whitesquare" unicode="&#x25c0;&#x20de;" 
d="M1065 405l-559 323l559 322v-645zM361 1468h972q108 0 184 -74.5t76 -180.5v-982q0 -106 -76 -180.5t-184 -74.5h-972q-107 0 -183.5 74.5t-76.5 180.5v982q0 106 76.5 180.5t183.5 74.5zM1431 1189q0 54 -40 92.5t-96 38.5h-896q-56 0 -96 -38.5t-40 -92.5v-934
q0 -53 40.5 -92t95.5 -39h896q56 0 96 38.5t40 92.5v934z" />
    <glyph glyph-name="uni25B6.whitesquare" unicode="&#x25b6;&#x20de;" 
d="M629 405v645l559 -322zM361 1468h972q108 0 184 -74.5t76 -180.5v-982q0 -106 -76 -180.5t-184 -74.5h-972q-107 0 -183.5 74.5t-76.5 180.5v982q0 106 76.5 180.5t183.5 74.5zM1431 1189q0 54 -40 92.5t-96 38.5h-896q-56 0 -96 -38.5t-40 -92.5v-934q0 -53 40.5 -92
t95.5 -39h896q56 0 96 38.5t40 92.5v934z" />
    <glyph glyph-name="question.whitesquare" unicode="&#x3f;&#x20de;" 
d="M732 458q0 39 28.5 62t75.5 23q49 0 77.5 -23t28.5 -62q0 -38 -28.5 -61t-77.5 -23q-47 0 -75.5 23t-28.5 61zM604 878q-1 106 69.5 158.5t183.5 52.5q105 0 173 -50.5t68 -141.5q0 -57 -26.5 -94t-76.5 -69q-57 -39 -73.5 -57.5t-16.5 -52.5v-19h-150q-1 4 -1 32
q-4 92 90 155q47 31 65 50.5t18 47.5q0 35 -23.5 53.5t-59.5 18.5q-39 0 -62 -23.5t-24 -60.5h-154zM361 1468h972q108 0 184 -74.5t76 -180.5v-982q0 -106 -76 -180.5t-184 -74.5h-972q-107 0 -183.5 74.5t-76.5 180.5v982q0 106 76.5 180.5t183.5 74.5zM1431 1189
q0 54 -40 92.5t-96 38.5h-896q-56 0 -96 -38.5t-40 -92.5v-934q0 -53 40.5 -92t95.5 -39h896q56 0 96 38.5t40 92.5v934z" />
    <glyph glyph-name="exclam.whitesquare" unicode="&#x21;&#x20de;" 
d="M744 458q0 39 28.5 62.5t77.5 23.5q48 0 76 -23.5t28 -62.5q0 -38 -28 -61t-76 -23t-77 23t-29 61zM756 1077h187l-20 -455h-147zM361 1468h972q108 0 184 -74.5t76 -180.5v-982q0 -106 -76 -180.5t-184 -74.5h-972q-107 0 -183.5 74.5t-76.5 180.5v982q0 106 76.5 180.5
t183.5 74.5zM1431 1189q0 54 -40 92.5t-96 38.5h-896q-56 0 -96 -38.5t-40 -92.5v-934q0 -53 40.5 -92t95.5 -39h896q56 0 96 38.5t40 92.5v934z" />
    <glyph glyph-name="uni2717.whitesquare" unicode="&#x2717;&#x20de;" 
d="M851 829l238 237l105 -105l-237 -237l237 -238l-105 -107l-238 237l-239 -237l-106 106l238 239l-238 238l106 106zM361 1468h972q108 0 184 -74.5t76 -180.5v-982q0 -106 -76 -180.5t-184 -74.5h-972q-107 0 -183.5 74.5t-76.5 180.5v982q0 106 76.5 180.5t183.5 74.5z
M1431 1189q0 54 -40 92.5t-96 38.5h-896q-56 0 -96 -38.5t-40 -92.5v-934q0 -53 40.5 -92t95.5 -39h896q56 0 96 38.5t40 92.5v934z" />
    <glyph glyph-name="uni2713.whitesquare" unicode="&#x2713;&#x20de;" 
d="M1273 925l-544 -537l-303 298l112 110l192 -192l434 433zM361 1468h972q108 0 184 -74.5t76 -180.5v-982q0 -106 -76 -180.5t-184 -74.5h-972q-107 0 -183.5 74.5t-76.5 180.5v982q0 106 76.5 180.5t183.5 74.5zM1431 1189q0 54 -40 92.5t-96 38.5h-896q-56 0 -96 -38.5
t-40 -92.5v-934q0 -53 40.5 -92t95.5 -39h896q56 0 96 38.5t40 92.5v934z" />
    <glyph glyph-name="plus.uc.blackcircle" unicode="&#x2b;&#x20dd;&#x25cf;" 
d="M932 650h225v160h-225v225h-170v-225h-225v-160h225v-231h170v231zM847 -52q-209 0 -387 104t-282 282t-104 387t104 387.5t282 282.5t387 104t387 -104t282 -282.5t104 -387.5t-104 -387t-282 -282t-387 -104z" />
    <glyph glyph-name="minus.uc.blackcircle" unicode="&#x2212;&#x20dd;&#x25cf;" 
d="M1134 644v165h-574v-165h574zM847 -52q-209 0 -387 104t-282 282t-104 387t104 387.5t282 282.5t387 104t387 -104t282 -282.5t104 -387.5t-104 -387t-282 -282t-387 -104z" />
    <glyph glyph-name="multiply.uc.blackcircle" unicode="&#xd7;&#x20dd;&#x25cf;" 
d="M847 844l-175 169l-119 -117l174 -170l-174 -168l119 -116l175 168l174 -168l119 116l-174 168l174 170l-119 117zM847 -52q-209 0 -387 104t-282 282t-104 387t104 387.5t282 282.5t387 104t387 -104t282 -282.5t104 -387.5t-104 -387t-282 -282t-387 -104z" />
    <glyph glyph-name="divide.uc.blackcircle" unicode="&#xf7;&#x20dd;&#x25cf;" 
d="M745 961q0 -40 29 -66t72 -26q44 0 74 26t30 66q0 41 -29.5 67.5t-74.5 26.5q-43 0 -72 -26.5t-29 -67.5zM1134 659v135h-574v-135h574zM745 495q0 -40 29 -66t73 -26t73.5 26t29.5 66q0 41 -29.5 67.5t-73.5 26.5t-73 -26.5t-29 -67.5zM847 -52q-209 0 -387 104
t-282 282t-104 387t104 387.5t282 282.5t387 104t387 -104t282 -282.5t104 -387.5t-104 -387t-282 -282t-387 -104z" />
    <glyph glyph-name="equal.uc.blackcircle" unicode="&#x3d;&#x20dd;&#x25cf;" 
d="M1132 788v148h-570v-148h570zM1132 517v146h-570v-146h570zM847 -52q-209 0 -387 104t-282 282t-104 387t104 387.5t282 282.5t387 104t387 -104t282 -282.5t104 -387.5t-104 -387t-282 -282t-387 -104z" />
    <glyph glyph-name="greater.uc.blackcircle" unicode="&#x3e;&#x20dd;&#x25cf;" 
d="M1147 777l-557 286v-179l330 -159l1 -2l-331 -156v-177l557 275v112zM847 -52q-209 0 -387 104t-282 282t-104 387t104 387.5t282 282.5t387 104t387 -104t282 -282.5t104 -387.5t-104 -387t-282 -282t-387 -104z" />
    <glyph glyph-name="less.uc.blackcircle" unicode="&#x3c;&#x20dd;&#x25cf;" 
d="M542 665l555 -275v177l-328 156v2l328 159v179l-555 -286v-112zM847 -52q-209 0 -387 104t-282 282t-104 387t104 387.5t282 282.5t387 104t387 -104t282 -282.5t104 -387.5t-104 -387t-282 -282t-387 -104z" />
    <glyph glyph-name="numbersign.blackcircle" unicode="&#x23;&#x20dd;&#x25cf;" 
d="M790 803h139l-31 -150h-139zM1165 789l26 133h-113l38 185h-144l-36 -185h-107l38 185h-143l-37 -185h-108l-26 -133h107l-24 -113h-109l-26 -134h107l-39 -193h142l41 193h106l-40 -193h143l39 193h112l27 134h-110q1 3 11.5 56.5t10.5 56.5h114zM847 -52
q-209 0 -387 104t-282 282t-104 387t104 387.5t282 282.5t387 104t387 -104t282 -282.5t104 -387.5t-104 -387t-282 -282t-387 -104z" />
    <glyph glyph-name="uni25BC.blackcircle" unicode="&#x25bc;&#x20dd;&#x25cf;" 
d="M1195 981h-695l347 -602zM847 -52q-209 0 -387 104t-282 282t-104 387t104 387.5t282 282.5t387 104t387 -104t282 -282.5t104 -387.5t-104 -387t-282 -282t-387 -104z" />
    <glyph glyph-name="uni25B2.blackcircle" unicode="&#x25b2;&#x20dd;&#x25cf;" 
d="M1195 490l-348 602l-347 -602h695zM847 -52q-209 0 -387 104t-282 282t-104 387t104 387.5t282 282.5t387 104t387 -104t282 -282.5t104 -387.5t-104 -387t-282 -282t-387 -104z" />
    <glyph glyph-name="uni25C0.blackcircle" unicode="&#x25c0;&#x20dd;&#x25cf;" 
d="M1087 389v693l-603 -346zM847 -52q-209 0 -387 104t-282 282t-104 387t104 387.5t282 282.5t387 104t387 -104t282 -282.5t104 -387.5t-104 -387t-282 -282t-387 -104z" />
    <glyph glyph-name="uni25B6.blackcircle" unicode="&#x25b6;&#x20dd;&#x25cf;" 
d="M607 389l603 347l-603 346v-693zM847 -52q-209 0 -387 104t-282 282t-104 387t104 387.5t282 282.5t387 104t387 -104t282 -282.5t104 -387.5t-104 -387t-282 -282t-387 -104z" />
    <glyph glyph-name="question.blackcircle" unicode="&#x3f;&#x20dd;&#x25cf;" 
d="M714 429q0 -44 32 -70t86 -26t86 26t32 70t-32 70.5t-86 26.5t-86 -26t-32 -71zM740 591h170v23q0 37 16 55.5t72 55.5q42 28 65 49t39 56t16 81q0 99 -75.5 156t-189.5 57q-123 0 -200.5 -58.5t-77.5 -176.5v-3l178 2q0 41 23.5 67.5t65.5 26.5q36 0 61 -19.5t25 -57.5
q0 -19 -10 -35.5t-22.5 -26.5t-35.5 -27.5t-37 -29.5q-89 -68 -85 -156q0 -36 2 -39zM847 -52q-209 0 -387 104t-282 282t-104 387t104 387.5t282 282.5t387 104t387 -104t282 -282.5t104 -387.5t-104 -387t-282 -282t-387 -104z" />
    <glyph glyph-name="exclam.blackcircle" unicode="&#x21;&#x20dd;&#x25cf;" 
d="M742 1110l22 -502h168l22 502h-212zM731 430q0 -43 32 -69.5t86 -26.5t85.5 26.5t31.5 69.5q0 44 -32 70t-85 26q-54 0 -86 -26t-32 -70zM847 -52q-209 0 -387 104t-282 282t-104 387t104 387.5t282 282.5t387 104t387 -104t282 -282.5t104 -387.5t-104 -387t-282 -282
t-387 -104z" />
    <glyph glyph-name="uni2717.blackcircle" unicode="&#x2717;&#x20dd;&#x25cf;" 
d="M849 839l-260 260l-115 -115l259 -261l-259 -259l116 -116l259 259l259 -258l115 116l-258 258l258 259l-115 116zM847 -52q-209 0 -387 104t-282 282t-104 387t104 387.5t282 282.5t387 104t387 -104t282 -282.5t104 -387.5t-104 -387t-282 -282t-387 -104z" />
    <glyph glyph-name="uni2713.blackcircle" unicode="&#x2713;&#x20dd;&#x25cf;" horiz-adv-x="1718" 
d="M716 366l596 589l-122 123l-473 -473l-210 209l-122 -121zM847 -52q-209 0 -387 104t-282 282t-104 387t104 387.5t282 282.5t387 104t387 -104t282 -282.5t104 -387.5t-104 -387t-282 -282t-387 -104z" />
    <glyph glyph-name="zero.blacksquare" unicode="&#x30;&#x20de;&#x25a0;" 
d="M844 487q-120 0 -120 243t120 243q58 0 89.5 -61.5t31.5 -181.5t-31.5 -181.5t-89.5 -61.5zM843 338q144 0 229.5 105t85.5 287t-85.5 287t-229.5 105q-143 0 -227.5 -104.5t-84.5 -287.5t84.5 -287.5t227.5 -104.5zM361 1468h972q108 0 184 -74.5t76 -180.5v-982
q0 -106 -76 -180.5t-184 -74.5h-972q-107 0 -183.5 74.5t-76.5 180.5v982q0 106 76.5 180.5t183.5 74.5z" />
    <glyph glyph-name="one.blacksquare" unicode="&#x31;&#x20de;&#x25a0;" 
d="M990 352v757h-195l-186 -125v-175l180 122h4v-579h197zM361 1468h972q108 0 184 -74.5t76 -180.5v-982q0 -106 -76 -180.5t-184 -74.5h-972q-107 0 -183.5 74.5t-76.5 180.5v982q0 106 76.5 180.5t183.5 74.5z" />
    <glyph glyph-name="two.blacksquare" unicode="&#x32;&#x20de;&#x25a0;" 
d="M738 864v8q0 45 26.5 74t73.5 29q41 0 68.5 -24.5t27.5 -61.5q0 -39 -22.5 -71.5t-70.5 -78.5l-273 -268v-120h569v155h-311v2l162 163q68 66 101 117.5t33 115.5q0 94 -77 155.5t-198 61.5q-136 0 -213 -71.5t-77 -177.5v-8h181zM361 1468h972q108 0 184 -74.5
t76 -180.5v-982q0 -106 -76 -180.5t-184 -74.5h-972q-107 0 -183.5 74.5t-76.5 180.5v982q0 106 76.5 180.5t183.5 74.5z" />
    <glyph glyph-name="three.blacksquare" unicode="&#x33;&#x20de;&#x25a0;" 
d="M756 670h86q53 0 85 -25.5t33 -67.5q0 -42 -33 -68t-87 -26q-51 1 -84.5 25t-37.5 63h-179q3 -101 84 -167t216 -66q137 0 224.5 62.5t86.5 167.5q-1 77 -50.5 125t-113.5 55v3q54 10 98.5 56.5t43.5 113.5q-2 89 -80 145.5t-206 56.5q-136 -1 -211.5 -63.5t-80.5 -167.5
h182q2 37 30.5 62t75.5 25q45 0 73.5 -23.5t28.5 -60.5q0 -38 -28.5 -62t-74.5 -24h-81v-139zM361 1468h972q108 0 184 -74.5t76 -180.5v-982q0 -106 -76 -180.5t-184 -74.5h-972q-107 0 -183.5 74.5t-76.5 180.5v982q0 106 76.5 180.5t183.5 74.5z" />
    <glyph glyph-name="four.blacksquare" unicode="&#x34;&#x20de;&#x25a0;" 
d="M793 1109q-199 -320 -281 -478v-148h376v-131h173v131h101v149h-101v477h-268zM687 632v1q77 147 199 339h2v-340h-201zM361 1468h972q108 0 184 -74.5t76 -180.5v-982q0 -106 -76 -180.5t-184 -74.5h-972q-107 0 -183.5 74.5t-76.5 180.5v982q0 106 76.5 180.5
t183.5 74.5z" />
    <glyph glyph-name="five.blacksquare" unicode="&#x35;&#x20de;&#x25a0;" 
d="M555 569q3 -100 84 -163.5t210 -63.5q141 0 225.5 74.5t84.5 200.5q0 113 -72 179t-182 66q-57 0 -99.5 -20t-61.5 -47h-3q8 123 14 175h357v143h-510l-31 -450h167q15 27 44.5 46t69.5 19q52 0 87 -32.5t35 -85.5q0 -56 -36 -90t-85 -34q-45 0 -79 22t-42 61h-177z
M361 1468h972q108 0 184 -74.5t76 -180.5v-982q0 -106 -76 -180.5t-184 -74.5h-972q-107 0 -183.5 74.5t-76.5 180.5v982q0 106 76.5 180.5t183.5 74.5z" />
    <glyph glyph-name="six.blacksquare" unicode="&#x36;&#x20de;&#x25a0;" 
d="M1157 609q0 111 -70 174t-175 63q-71 0 -119.5 -28.5t-72.5 -72.5l-4 -2q-2 8 -2 14q-1 101 39 161.5t106 60.5q78 0 104 -61h178q-6 83 -82.5 144t-196.5 61q-153 0 -241.5 -104t-88.5 -300q0 -156 61 -250q87 -131 262 -131q134 0 218 73t84 198zM733 603q0 52 34 85
t88 33q51 0 85.5 -31.5t34.5 -87.5q0 -58 -33.5 -89.5t-86.5 -31.5t-87.5 33t-34.5 89zM361 1468h972q108 0 184 -74.5t76 -180.5v-982q0 -106 -76 -180.5t-184 -74.5h-972q-107 0 -183.5 74.5t-76.5 180.5v982q0 106 76.5 180.5t183.5 74.5z" />
    <glyph glyph-name="seven.blacksquare" unicode="&#x37;&#x20de;&#x25a0;" 
d="M561 1109v-156h376v-2l-318 -599h209l307 603v154h-574zM361 1468h972q108 0 184 -74.5t76 -180.5v-982q0 -106 -76 -180.5t-184 -74.5h-972q-107 0 -183.5 74.5t-76.5 180.5v982q0 106 76.5 180.5t183.5 74.5z" />
    <glyph glyph-name="eight.blacksquare" unicode="&#x38;&#x20de;&#x25a0;" 
d="M844 803q-47 0 -76 26t-29 68q0 43 29 69.5t76 26.5t76.5 -26.5t29.5 -69.5q0 -41 -29.5 -67.5t-76.5 -26.5zM844 468q-56 0 -92 31t-36 78q0 48 36 79.5t92 31.5t92.5 -31.5t36.5 -79.5q0 -47 -36.5 -78t-92.5 -31zM844 338q146 0 234 62t88 165q0 71 -44.5 120.5
t-121.5 63.5v2q134 41 134 167q0 92 -79.5 148.5t-210.5 56.5q-130 0 -209.5 -56.5t-79.5 -148.5q0 -126 134 -167v-2q-77 -14 -121.5 -63.5t-44.5 -120.5q0 -103 87.5 -165t233.5 -62zM361 1468h972q108 0 184 -74.5t76 -180.5v-982q0 -106 -76 -180.5t-184 -74.5h-972
q-107 0 -183.5 74.5t-76.5 180.5v982q0 106 76.5 180.5t183.5 74.5z" />
    <glyph glyph-name="nine.blacksquare" unicode="&#x39;&#x20de;&#x25a0;" 
d="M529 857q0 -115 70 -180t180 -65q68 0 116.5 28t70.5 72h2q6 -100 -31 -165t-112 -65q-37 0 -63 16t-36 39h-179q9 -83 83 -140.5t194 -57.5q160 0 244.5 102t84.5 294q0 103 -25 179.5t-69.5 121t-101 66t-124.5 21.5q-135 0 -219.5 -72.5t-84.5 -193.5zM952 857
q0 -56 -34.5 -87t-86.5 -31t-86 32t-34 88t34 89t86 33q53 0 87 -33.5t34 -90.5zM361 1468h972q108 0 184 -74.5t76 -180.5v-982q0 -106 -76 -180.5t-184 -74.5h-972q-107 0 -183.5 74.5t-76.5 180.5v982q0 106 76.5 180.5t183.5 74.5z" />
    <glyph glyph-name="plus.uc.blacksquare" unicode="&#x2b;&#x20de;&#x25a0;" 
d="M932 650h225v160h-225v225h-170v-225h-225v-160h225v-231h170v231zM361 1468h972q108 0 184 -74.5t76 -180.5v-982q0 -106 -76 -180.5t-184 -74.5h-972q-107 0 -183.5 74.5t-76.5 180.5v982q0 106 76.5 180.5t183.5 74.5z" />
    <glyph glyph-name="minus.uc.blacksquare" unicode="&#x2212;&#x20de;&#x25a0;" 
d="M1134 644v165h-574v-165h574zM361 1468h972q108 0 184 -74.5t76 -180.5v-982q0 -106 -76 -180.5t-184 -74.5h-972q-107 0 -183.5 74.5t-76.5 180.5v982q0 106 76.5 180.5t183.5 74.5z" />
    <glyph glyph-name="multiply.uc.blacksquare" unicode="&#xd7;&#x20de;&#x25a0;" 
d="M847 844l-175 169l-119 -117l174 -170l-174 -168l119 -116l175 168l174 -168l119 116l-174 168l174 170l-119 117zM361 1468h972q108 0 184 -74.5t76 -180.5v-982q0 -106 -76 -180.5t-184 -74.5h-972q-107 0 -183.5 74.5t-76.5 180.5v982q0 106 76.5 180.5t183.5 74.5z
" />
    <glyph glyph-name="divide.uc.blacksquare" unicode="&#xf7;&#x20de;&#x25a0;" 
d="M745 961q0 -40 29 -66t72 -26q44 0 74 26t30 66q0 41 -29.5 67.5t-74.5 26.5q-43 0 -72 -26.5t-29 -67.5zM1134 659v135h-574v-135h574zM745 495q0 -40 29 -66t73 -26t73.5 26t29.5 66q0 41 -29.5 67.5t-73.5 26.5t-73 -26.5t-29 -67.5zM361 1468h972q108 0 184 -74.5
t76 -180.5v-982q0 -106 -76 -180.5t-184 -74.5h-972q-107 0 -183.5 74.5t-76.5 180.5v982q0 106 76.5 180.5t183.5 74.5z" />
    <glyph glyph-name="equal.uc.blacksquare" unicode="&#x3d;&#x20de;&#x25a0;" 
d="M1132 788v148h-570v-148h570zM1132 517v146h-570v-146h570zM361 1468h972q108 0 184 -74.5t76 -180.5v-982q0 -106 -76 -180.5t-184 -74.5h-972q-107 0 -183.5 74.5t-76.5 180.5v982q0 106 76.5 180.5t183.5 74.5z" />
    <glyph glyph-name="greater.uc.blacksquare" unicode="&#x3e;&#x20de;&#x25a0;" 
d="M1147 777l-557 286v-179l330 -159l1 -2l-331 -156v-177l557 275v112zM361 1468h972q108 0 184 -74.5t76 -180.5v-982q0 -106 -76 -180.5t-184 -74.5h-972q-107 0 -183.5 74.5t-76.5 180.5v982q0 106 76.5 180.5t183.5 74.5z" />
    <glyph glyph-name="less.uc.blacksquare" unicode="&#x3c;&#x20de;&#x25a0;" 
d="M542 665l555 -275v177q-42 21 -165.5 78.5t-162.5 77.5v2l328 159v179l-555 -286v-112zM361 1468h972q108 0 184 -74.5t76 -180.5v-982q0 -106 -76 -180.5t-184 -74.5h-972q-107 0 -183.5 74.5t-76.5 180.5v982q0 106 76.5 180.5t183.5 74.5z" />
    <glyph glyph-name="numbersign.blacksquare" unicode="&#x23;&#x20de;&#x25a0;" 
d="M790 803h139l-31 -150h-139zM1165 789l26 133h-113l38 185h-144l-36 -185h-107l38 185h-143l-37 -185h-108l-26 -133h107l-24 -113h-109l-26 -134h107l-39 -193h142l41 193h106l-40 -193h143l39 193h112l27 134h-110q1 3 11.5 56.5t10.5 56.5h114zM361 1468h972
q108 0 184 -74.5t76 -180.5v-982q0 -106 -76 -180.5t-184 -74.5h-972q-107 0 -183.5 74.5t-76.5 180.5v982q0 106 76.5 180.5t183.5 74.5z" />
    <glyph glyph-name="uni25BC.blacksquare" unicode="&#x25bc;&#x20de;&#x25a0;" 
d="M1195 977h-695l347 -602zM361 1468h972q108 0 184 -74.5t76 -180.5v-982q0 -106 -76 -180.5t-184 -74.5h-972q-107 0 -183.5 74.5t-76.5 180.5v982q0 106 76.5 180.5t183.5 74.5z" />
    <glyph glyph-name="uni25B2.blacksquare" unicode="&#x25b2;&#x20de;&#x25a0;" 
d="M1195 490l-348 602l-347 -602h695zM361 1468h972q108 0 184 -74.5t76 -180.5v-982q0 -106 -76 -180.5t-184 -74.5h-972q-107 0 -183.5 74.5t-76.5 180.5v982q0 106 76.5 180.5t183.5 74.5z" />
    <glyph glyph-name="uni25C0.blacksquare" unicode="&#x25c0;&#x20de;&#x25a0;" 
d="M1087 389v693l-603 -346zM361 1468h972q108 0 184 -74.5t76 -180.5v-982q0 -106 -76 -180.5t-184 -74.5h-972q-107 0 -183.5 74.5t-76.5 180.5v982q0 106 76.5 180.5t183.5 74.5z" />
    <glyph glyph-name="uni25B6.blacksquare" unicode="&#x25b6;&#x20de;&#x25a0;" 
d="M607 389l603 347l-603 346v-693zM361 1468h972q108 0 184 -74.5t76 -180.5v-982q0 -106 -76 -180.5t-184 -74.5h-972q-107 0 -183.5 74.5t-76.5 180.5v982q0 106 76.5 180.5t183.5 74.5z" />
    <glyph glyph-name="question.blacksquare" unicode="&#x3f;&#x20de;&#x25a0;" 
d="M714 429q0 -44 32 -70t86 -26t86 26t32 70t-32 70.5t-86 26.5t-86 -26t-32 -71zM853 1124q-123 0 -200.5 -58.5t-77.5 -176.5v-3l178 2q0 41 23.5 67.5t65.5 26.5q36 0 61 -19.5t25 -57.5q0 -19 -10 -35.5t-22.5 -26.5t-35.5 -27.5t-37 -29.5q-89 -68 -85 -156
q0 -36 2 -39h170v23q0 37 16 55.5t72 55.5q42 28 65 49t39 56t16 81q0 99 -75.5 156t-189.5 57zM361 1468h972q108 0 184 -74.5t76 -180.5v-982q0 -106 -76 -180.5t-184 -74.5h-972q-107 0 -183.5 74.5t-76.5 180.5v982q0 106 76.5 180.5t183.5 74.5z" />
    <glyph glyph-name="exclam.blacksquare" unicode="&#x21;&#x20de;&#x25a0;" 
d="M742 1110l22 -502h168l22 502h-212zM731 430q0 -43 32 -69.5t86 -26.5t85.5 26.5t31.5 69.5q0 44 -32 70t-85 26q-54 0 -86 -26t-32 -70zM361 1468h972q108 0 184 -74.5t76 -180.5v-982q0 -106 -76 -180.5t-184 -74.5h-972q-107 0 -183.5 74.5t-76.5 180.5v982
q0 106 76.5 180.5t183.5 74.5z" />
    <glyph glyph-name="uni2717.blacksquare" unicode="&#x2717;&#x20de;&#x25a0;" 
d="M474 984l259 -261l-259 -259l116 -116l259 259l259 -258l115 116l-258 258l258 259l-115 116l-259 -259l-260 260zM361 1468h972q108 0 184 -74.5t76 -180.5v-982q0 -106 -76 -180.5t-184 -74.5h-972q-107 0 -183.5 74.5t-76.5 180.5v982q0 106 76.5 180.5t183.5 74.5z
" />
    <glyph glyph-name="uni2713.blacksquare" unicode="&#x2713;&#x20de;&#x25a0;" 
d="M716 366l596 589l-122 123l-473 -473l-210 209l-122 -121zM361 1468h972q108 0 184 -74.5t76 -180.5v-982q0 -106 -76 -180.5t-184 -74.5h-972q-107 0 -183.5 74.5t-76.5 180.5v982q0 106 76.5 180.5t183.5 74.5z" />
    <glyph glyph-name=".notdef" horiz-adv-x="2048" 
d="M100 -494v234h1848v-234h-1848zM100 -52v234h1848v-234h-1848zM100 390v234h1848v-234h-1848zM100 832v234h1848v-234h-1848zM100 1274v234h1848v-234h-1848zM100 1716v234h1848v-234h-1848z" />
    <glyph glyph-name=".null" horiz-adv-x="0" 
 />
    <glyph glyph-name="nonmarkingreturn" horiz-adv-x="0" 
 />
    <glyph glyph-name="space" unicode=" " horiz-adv-x="410" 
 />
    <glyph glyph-name="exclam" unicode="!" horiz-adv-x="611" 
d="M177 1443h257l-20 -967h-217zM305 -20q-61 0 -103 41.5t-42 100.5t42 100t103 41t103.5 -41t42.5 -100t-42.5 -100.5t-103.5 -41.5z" />
    <glyph glyph-name="quotedbl" unicode="&#x22;" horiz-adv-x="884" 
d="M335 900h-217v543h217v-543zM766 900h-217v543h217v-543z" />
    <glyph glyph-name="numbersign" unicode="#" horiz-adv-x="1277" 
d="M627 0l79 388h-285l-78 -388h-192l77 388h-228l36 190h231l61 304h-237l37 188h237l77 373h192l-74 -373h283l76 373h193l-75 -373h240l-36 -188h-243l-62 -304h248l-36 -190h-249l-79 -388h-193zM447 565h303l67 329h-303z" />
    <glyph glyph-name="dollar" unicode="$" horiz-adv-x="1294" 
d="M721 -137h-138v130q-224 14 -354 124.5t-131 287.5h244q7 -86 71.5 -142.5t169.5 -68.5v437l-96 24q-174 42 -265.5 142t-91.5 250q0 177 120 286.5t333 128.5v138h138v-138q202 -18 323.5 -129.5t125.5 -280.5h-239q-2 80 -60.5 137t-149.5 69v-415l99 -21
q190 -45 283 -143t93 -256q0 -187 -124 -298.5t-351 -129.5v-132zM953 397q0 83 -56.5 133.5t-175.5 74.5v-413q110 7 171 61t61 144zM376 1067q0 -75 53 -124.5t154 -70.5v387q-90 -5 -148.5 -59t-58.5 -133z" />
    <glyph glyph-name="percent" unicode="%" horiz-adv-x="1607" 
d="M686 1099q0 -169 -87 -269t-233 -100t-232.5 100t-86.5 269t86.5 268.5t232.5 99.5t233 -99.5t87 -268.5zM366 887q56 0 87.5 56.5t31.5 155.5q0 100 -31.5 156.5t-87.5 56.5q-55 0 -86.5 -56.5t-31.5 -156.5q0 -99 31.5 -155.5t86.5 -56.5zM386 0h-218l559 765l496 678
h216l-544 -745zM1561 350q0 -169 -87 -268.5t-233 -99.5t-232.5 99.5t-86.5 268.5t86.5 269t232.5 100t233 -100t87 -269zM1241 138q55 0 87 57t32 156t-32 156t-87 57t-86.5 -57t-31.5 -156t31.5 -156t86.5 -57z" />
    <glyph glyph-name="ampersand" unicode="&#x26;" horiz-adv-x="1413" 
d="M1141 0l-120 129q-85 -73 -203 -113.5t-249 -40.5q-223 0 -359.5 111.5t-136.5 293.5q0 125 66.5 219.5t206.5 170.5q8 4 22.5 12t25.5 13.5l13 6.5q-97 102 -138 177.5t-41 154.5q0 142 112 236t281 94q170 0 279 -92t109 -235q0 -111 -71.5 -200.5t-226.5 -172.5
l304 -329q58 104 58 313v64h216v-75q0 -285 -121 -460l263 -277h-290zM485 643q-93 -58 -133.5 -114.5t-40.5 -129.5q0 -105 78 -170t205 -65q85 0 164.5 30.5t126.5 82.5l-358 389q-26 -11 -42 -23zM590 887q109 56 156.5 110.5t47.5 124.5q0 74 -48 120.5t-124 46.5
t-124.5 -47.5t-48.5 -120.5q0 -53 31.5 -105.5t109.5 -128.5z" />
    <glyph glyph-name="quotesingle" unicode="'" horiz-adv-x="453" 
d="M335 900h-217v543h217v-543z" />
    <glyph glyph-name="parenleft" unicode="(" horiz-adv-x="738" 
d="M185 567q0 264 71.5 479t220.5 397h224q-110 -128 -185 -378t-75 -497q0 -246 75 -497t185 -380h-224q-149 183 -220.5 398t-71.5 478z" />
    <glyph glyph-name="parenright" unicode=")" horiz-adv-x="738" 
d="M553 567q0 -293 -78 -502t-214 -374h-224q43 51 86.5 134t83.5 194t65 256t25 293q0 149 -25 293.5t-65 255t-83.5 193.5t-86.5 133h224q87 -106 147.5 -218.5t102.5 -284t42 -373.5z" />
    <glyph glyph-name="asterisk" unicode="*" horiz-adv-x="992" 
d="M795 856l-235 158l19 -282h-163l20 282l-238 -159l-79 146l252 120l-252 121l80 144l236 -155l-19 280h164l-19 -280l235 156l81 -145l-254 -122l254 -119z" />
    <glyph glyph-name="plus" unicode="+" horiz-adv-x="1294" 
d="M759 464v-444h-225v444h-415v222h415v437h225v-437h416v-222h-416z" />
    <glyph glyph-name="comma" unicode="," horiz-adv-x="551" 
d="M281 -305h-191l83 543h243z" />
    <glyph glyph-name="hyphen" unicode="&#x2011;" horiz-adv-x="895" 
d="M776 475h-657v222h657v-222z" />
    <glyph glyph-name="hyphen" unicode="-" horiz-adv-x="895" 
d="M776 475h-657v222h657v-222z" />
    <glyph glyph-name="period" unicode="." horiz-adv-x="551" 
d="M276 -11q-61 0 -102.5 41.5t-41.5 102.5q0 60 41.5 102t102.5 42q60 0 101.5 -42t41.5 -102q0 -61 -41.5 -102.5t-101.5 -41.5z" />
    <glyph glyph-name="slash" unicode="/" horiz-adv-x="738" 
d="M226 -309h-226l512 1752h226z" />
    <glyph glyph-name="zero" unicode="0" horiz-adv-x="1300" 
d="M651 -29q-264 0 -414.5 201.5t-150.5 550.5q0 347 151 548t414 201t413 -200.5t150 -547.5q0 -348 -150 -550.5t-413 -202.5zM651 182q143 0 222.5 143t79.5 398q0 253 -80 395.5t-222 142.5t-223.5 -143t-81.5 -394q0 -255 80.5 -398.5t224.5 -143.5z" />
    <glyph glyph-name="one" unicode="1" horiz-adv-x="956" 
d="M471 0v1197h-6l-373 -262v243l377 265h255v-1443h-253z" />
    <glyph glyph-name="two" unicode="2" horiz-adv-x="1207" 
d="M93 1015q0 200 144 328.5t368 128.5q215 0 354.5 -117t139.5 -293q0 -121 -67.5 -228.5t-223.5 -264.5l-357 -353v-5h670v-211h-1014v174l531 528q123 126 166 197t43 152q0 90 -71.5 152t-178.5 62q-113 0 -187.5 -71t-74.5 -178v-4h-242v3z" />
    <glyph glyph-name="three" unicode="3" horiz-adv-x="1261" 
d="M438 643v194h174q111 0 180 61.5t69 158.5q0 96 -65.5 153t-184.5 57q-111 0 -181 -60.5t-78 -161.5h-240q11 195 149.5 311t361.5 116q214 0 350 -106t136 -274q0 -133 -81.5 -224.5t-216.5 -114.5v-6q163 -12 259.5 -105.5t96.5 -243.5q0 -190 -154.5 -308.5
t-392.5 -118.5q-236 0 -381 118.5t-155 312.5h246q9 -100 87 -160t205 -60q125 0 204 63t79 163q0 109 -77.5 172t-211.5 63h-178z" />
    <glyph glyph-name="four" unicode="4" horiz-adv-x="1295" 
d="M794 0v273h-720v222q178 336 599 948h367v-959h194v-211h-194v-273h-246zM308 485v-7h490v774h-4q-183 -265 -293 -438t-193 -329z" />
    <glyph glyph-name="five" unicode="5" horiz-adv-x="1250" 
d="M641 -29q-223 0 -370 121.5t-155 313.5h242q12 -100 91.5 -163t193.5 -63q129 0 209.5 81t80.5 209q0 130 -80.5 212.5t-207.5 82.5q-88 0 -160.5 -38t-112.5 -106h-234l75 822h884v-211h-680l-37 -422h6q45 70 130 110.5t191 40.5q207 0 341 -136.5t134 -347.5
q0 -225 -150.5 -365.5t-390.5 -140.5z" />
    <glyph glyph-name="six" unicode="6" horiz-adv-x="1284" 
d="M667 -30q-158 0 -281.5 74t-196.5 213q-103 179 -103 448q0 360 157 564t432 204q198 0 339 -107.5t173 -282.5h-256q-25 82 -95 131t-163 49q-162 0 -252 -144t-89 -404h5q46 107 151 171t240 64q206 0 342 -135.5t136 -340.5q0 -220 -152 -362t-387 -142zM665 181
q120 0 203.5 83t83.5 202q0 122 -80.5 202t-204.5 80t-206.5 -79.5t-82.5 -199.5q0 -121 83 -204.5t204 -83.5z" />
    <glyph glyph-name="seven" unicode="7" horiz-adv-x="1153" 
d="M185 0l633 1227v5h-750v211h1004v-215l-617 -1228h-270z" />
    <glyph glyph-name="eight" unicode="8" horiz-adv-x="1296" 
d="M648 -29q-250 0 -406 117t-156 302q0 140 90.5 241.5t237.5 129.5v5q-123 32 -197 120.5t-74 205.5q0 165 142.5 272.5t362.5 107.5q221 0 362.5 -107.5t141.5 -273.5q0 -116 -73.5 -204t-196.5 -121v-5q148 -29 238.5 -130.5t90.5 -240.5q0 -185 -157 -302t-406 -117z
M648 168q129 0 212 68t83 173q0 106 -82.5 174t-212.5 68q-129 0 -212 -68.5t-83 -173.5t83 -173t212 -68zM648 848q109 0 179 60.5t70 153.5q0 94 -70 154.5t-179 60.5q-110 0 -180 -60.5t-70 -154.5q0 -93 70 -153.5t180 -60.5z" />
    <glyph glyph-name="nine" unicode="9" horiz-adv-x="1286" 
d="M611 -29q-199 0 -340.5 108t-172.5 282h256q24 -82 95.5 -131.5t165.5 -49.5q161 0 250.5 144.5t86.5 404.5h-2h-1h-1q-43 -107 -147.5 -171.5t-243.5 -64.5q-206 0 -342.5 136t-136.5 341q0 219 152.5 361t386.5 142q159 0 283.5 -74t196.5 -212q103 -179 103 -449
q0 -361 -156 -564t-433 -203zM618 695q124 0 207 80t83 199q0 121 -83.5 204t-204.5 83t-204.5 -82t-83.5 -201q0 -122 81.5 -202.5t204.5 -80.5z" />
    <glyph glyph-name="colon" unicode=":" horiz-adv-x="551" 
d="M276 -11q-61 0 -102.5 41.5t-41.5 102.5q0 60 41.5 102t102.5 42q60 0 101.5 -42t41.5 -102q0 -61 -41.5 -102.5t-101.5 -41.5zM276 711q-61 0 -102.5 42t-41.5 102t41.5 102t102.5 42q60 0 101.5 -42t41.5 -102t-41.5 -102t-101.5 -42z" />
    <glyph glyph-name="semicolon" unicode=";" horiz-adv-x="551" 
d="M276 711q-61 0 -102.5 42t-41.5 102t41.5 102t102.5 42q60 0 101.5 -42t41.5 -102t-41.5 -102t-101.5 -42zM277 -305h-191l83 543h244z" />
    <glyph glyph-name="less" unicode="&#x3c;" horiz-adv-x="1294" 
d="M1110 933l-675 -349v-10l675 -333v-253l-926 489v195l926 513v-252z" />
    <glyph glyph-name="equal" unicode="=" horiz-adv-x="1294" 
d="M1158 249h-1022v216h1022v-216zM1158 686h-1022v216h1022v-216z" />
    <glyph glyph-name="greater" unicode="&#x3e;" horiz-adv-x="1294" 
d="M184 934v252l926 -513v-195l-926 -489v252l675 334v10z" />
    <glyph glyph-name="question" unicode="?" horiz-adv-x="1060" 
d="M54 1048q6 182 128.5 294.5t339.5 112.5q204 0 330.5 -106t126.5 -272q0 -215 -212 -341q-98 -57 -133 -105t-35 -123v-58h-232l-1 71q-7 109 37.5 183t149.5 136q94 57 130 105.5t36 122.5q0 80 -58 131.5t-152 51.5q-96 0 -155 -55t-65 -148h-235zM486 -20
q-61 0 -103.5 41.5t-42.5 100.5t42.5 100t103.5 41t103 -41t42 -100t-42 -100.5t-103 -41.5z" />
    <glyph glyph-name="at" unicode="@" horiz-adv-x="1803" 
d="M892 853q-88 0 -136.5 -66t-48.5 -184q0 -116 49 -182.5t134 -66.5q89 0 141 67t52 182t-51.5 182.5t-139.5 67.5zM925 1444q234 0 417 -92t285.5 -261t102.5 -388q0 -239 -103.5 -381t-283.5 -142q-91 0 -156 44t-78 117h-12q-31 -76 -94.5 -116t-151.5 -40
q-156 0 -251.5 116.5t-95.5 307.5q0 182 94.5 296t246.5 114q81 0 145.5 -38t93.5 -103h12v120h183v-554q0 -52 26 -82t76 -30q81 0 131 97t50 266q0 272 -178 437t-468 165q-191 0 -342 -87.5t-235 -246t-84 -359.5q0 -159 51.5 -288t144 -214t220.5 -131t281 -46
q197 0 295 40v-148q-128 -41 -305 -41q-187 0 -344.5 57t-270.5 162.5t-176.5 263.5t-63.5 351q0 184 62 339.5t171.5 264t265.5 169.5t339 61z" />
    <glyph glyph-name="A" unicode="A" horiz-adv-x="1369" 
d="M1070 0l-123 373h-531l-123 -373h-266l512 1443h291l512 -1443h-272zM678 1188l-202 -616h410l-201 616h-7z" />
    <glyph glyph-name="B" unicode="B" horiz-adv-x="1284" 
d="M732 0h-605v1443h599q197 0 314 -98t117 -262q0 -116 -76 -206t-187 -108v-8q148 -14 240.5 -111t92.5 -240q0 -191 -132 -300.5t-363 -109.5zM385 1242v-407h236q135 0 208 54.5t73 155.5q0 94 -62.5 145.5t-178.5 51.5h-276zM385 201h288q142 0 216.5 58t74.5 169
q0 110 -76.5 167t-225.5 57h-277v-451z" />
    <glyph glyph-name="C" unicode="C" horiz-adv-x="1439" 
d="M749 -24q-310 0 -490.5 200t-180.5 546q0 344 181.5 544.5t489.5 200.5q252 0 425 -143.5t197 -375.5h-254q-25 136 -126.5 218t-241.5 82q-186 0 -296.5 -142.5t-110.5 -383.5q0 -243 110 -385t298 -142q143 0 240.5 73.5t127.5 203.5h253q-34 -232 -200 -364t-422 -132
z" />
    <glyph glyph-name="D" unicode="D" horiz-adv-x="1417" 
d="M127 1443h527q324 0 505 -188t181 -530q0 -343 -181 -534t-505 -191h-527v1443zM385 1225v-1007h242q218 0 334 130t116 376q0 242 -117 371.5t-333 129.5h-242z" />
    <glyph glyph-name="E" unicode="E" horiz-adv-x="1158" 
d="M1061 218v-218h-934v1443h934v-218h-676v-390h639v-205h-639v-412h676z" />
    <glyph glyph-name="F" unicode="F" horiz-adv-x="1107" 
d="M385 0h-258v1443h920v-218h-662v-426h605v-210h-605v-589z" />
    <glyph glyph-name="G" unicode="G" horiz-adv-x="1473" 
d="M1390 602q0 -294 -166.5 -460t-462.5 -166q-316 0 -499.5 201.5t-183.5 549.5q0 343 182.5 541.5t495.5 198.5q246 0 417 -133t206 -350h-262q-37 124 -132 194t-228 70q-195 0 -305 -137t-110 -381q0 -249 113.5 -392t308.5 -143q163 0 266.5 94t106.5 246l1 24h-348
v197h600v-154z" />
    <glyph glyph-name="H" unicode="H" horiz-adv-x="1471" 
d="M1344 0h-257v626h-702v-626h-258v1443h258v-600h702v600h257v-1443z" />
    <glyph glyph-name="I" unicode="I" horiz-adv-x="512" 
d="M385 0h-258v1443h258v-1443z" />
    <glyph glyph-name="J" unicode="J" horiz-adv-x="1096" 
d="M35 394h251q2 -89 58.5 -144t146.5 -55q104 0 158.5 61.5t54.5 178.5v1008h257v-1010q0 -220 -123.5 -342t-343.5 -122q-207 0 -333 116.5t-126 308.5z" />
    <glyph glyph-name="K" unicode="K" horiz-adv-x="1319" 
d="M385 0h-258v1443h258v-675h9l576 675h297l-556 -640l599 -803h-314l-469 630l-142 -166v-464z" />
    <glyph glyph-name="L" unicode="L" horiz-adv-x="1098" 
d="M1040 218v-218h-913v1443h258v-1225h655z" />
    <glyph glyph-name="M" unicode="M" horiz-adv-x="1744" 
d="M1616 0h-232v1024h-7l-417 -1012h-176l-417 1012h-7v-1024h-233v1443h299l442 -1089h8l442 1089h298v-1443z" />
    <glyph glyph-name="N" unicode="N" horiz-adv-x="1452" 
d="M376 0h-249v1443h224l716 -1011h9v1011h248v-1443h-222l-717 1012h-9v-1012z" />
    <glyph glyph-name="O" unicode="O" horiz-adv-x="1525" 
d="M763 1467q315 0 499.5 -201t184.5 -545t-184.5 -544.5t-499.5 -200.5q-316 0 -500.5 200.5t-184.5 544.5t184.5 545t500.5 201zM763 1247q-193 0 -307 -142t-114 -384q0 -241 114 -383t307 -142t307 142t114 383t-114 383.5t-307 142.5z" />
    <glyph glyph-name="P" unicode="P" horiz-adv-x="1235" 
d="M127 1443h561q216 0 351 -133.5t135 -349.5q0 -215 -138.5 -349t-358.5 -134h-292v-477h-258v1443zM385 1232v-547h234q139 0 216 72t77 203q0 130 -76.5 201t-215.5 71h-235z" />
    <glyph glyph-name="Q" unicode="Q" horiz-adv-x="1525" 
d="M763 -24q-316 0 -500.5 200t-184.5 545q0 344 184.5 545t500.5 201q315 0 499.5 -201t184.5 -545q0 -197 -62.5 -350t-179.5 -246l186 -271h-260l-114 163q-113 -41 -254 -41zM763 194q60 0 121 18l-166 240h247l85 -116q134 136 134 385q0 242 -114 385t-307 143
t-307 -143t-114 -385t114 -384.5t307 -142.5z" />
    <glyph glyph-name="R" unicode="R" horiz-adv-x="1280" 
d="M385 1234v-493h291q123 0 191 65t68 182q0 114 -71 180t-193 66h-286zM385 543v-543h-258v1443h573q233 0 366 -120.5t133 -328.5q0 -145 -72 -255.5t-200 -156.5l315 -582h-294l-284 543h-279z" />
    <glyph glyph-name="S" unicode="S" horiz-adv-x="1265" 
d="M68 406h250q12 -99 102 -159.5t223 -60.5q130 0 212.5 58t82.5 148q0 78 -60 126.5t-196 80.5l-187 44q-199 46 -295.5 143t-96.5 252q0 191 150 310t387 119q238 0 383.5 -117.5t150.5 -308.5h-246q-9 101 -87 158.5t-203 57.5q-122 0 -197.5 -55t-75.5 -145
q0 -72 58.5 -117t191.5 -77l166 -38q219 -50 318 -146t99 -257q0 -205 -153.5 -325.5t-415.5 -120.5q-250 0 -401.5 115.5t-159.5 314.5z" />
    <glyph glyph-name="T" unicode="T" horiz-adv-x="1217" 
d="M737 0h-257v1225h-432v218h1120v-218h-431v-1225z" />
    <glyph glyph-name="U" unicode="U" horiz-adv-x="1441" 
d="M385 1443v-911q0 -150 88.5 -240.5t246.5 -90.5t247 90.5t89 240.5v911h257v-934q0 -239 -160.5 -386t-432.5 -147q-271 0 -432 147t-161 386v934h258z" />
    <glyph glyph-name="V" unicode="V" horiz-adv-x="1354" 
d="M825 0h-296l-502 1443h284l366 -1166h6l366 1166h278z" />
    <glyph glyph-name="W" unicode="W" horiz-adv-x="1946" 
d="M968 1044l-295 -1044h-243l-387 1443h268l250 -1093h8l290 1093h228l290 -1093h8l250 1093h268l-387 -1443h-243l-295 1044h-10z" />
    <glyph glyph-name="X" unicode="X" horiz-adv-x="1366" 
d="M44 0l470 723v7l-466 713h305l334 -542h8l338 542h289l-481 -719v-7l473 -717h-297l-340 530h-8l-344 -530h-281z" />
    <glyph glyph-name="Y" unicode="Y" horiz-adv-x="1323" 
d="M790 0h-257v569l-506 874h283l350 -628h6l349 628h281l-506 -874v-569z" />
    <glyph glyph-name="Z" unicode="Z" horiz-adv-x="1281" 
d="M92 0v172l766 1046v7h-745v218h1057v-172l-762 -1046v-7h781v-218h-1097z" />
    <glyph glyph-name="bracketleft" unicode="[" horiz-adv-x="738" 
d="M204 1443h510v-186h-270v-1380h270v-186h-510v1752z" />
    <glyph glyph-name="backslash" unicode="\" horiz-adv-x="738" 
d="M509 -309l-509 1752h229l509 -1752h-229z" />
    <glyph glyph-name="bracketright" unicode="]" horiz-adv-x="738" 
d="M534 1443v-1752h-511v186h271v1380h-271v186h511z" />
    <glyph glyph-name="asciicircum" unicode="^" horiz-adv-x="948" 
d="M465 1229l-196 -416h-221l310 617h234l308 -617h-225l-193 416h-17z" />
    <glyph glyph-name="underscore" unicode="_" horiz-adv-x="846" 
d="M895 -292h-944v185h944v-185z" />
    <glyph glyph-name="grave" unicode="`" horiz-adv-x="1008" 
d="M734 1284h-204l-252 307h239z" />
    <glyph glyph-name="a" unicode="a" horiz-adv-x="1087" 
d="M489 171q107 0 180.5 63.5t73.5 158.5v81l-245 -15q-90 -6 -139.5 -44.5t-49.5 -101.5q0 -65 49.5 -103.5t130.5 -38.5zM414 -17q-155 0 -254.5 89t-99.5 231q0 141 104.5 223t298.5 94l280 16v76q0 83 -52.5 129t-145.5 46q-87 0 -142 -39t-67 -106h-231
q8 151 129.5 245.5t320.5 94.5q197 0 315.5 -96t118.5 -256v-730h-240v169h-5q-45 -85 -136 -135.5t-194 -50.5z" />
    <glyph glyph-name="b" unicode="b" horiz-adv-x="1191" 
d="M695 -17q-115 0 -202.5 52t-134.5 146h-5v-181h-244v1443h249v-565h6q45 94 132 147t199 53q201 0 319 -147.5t118 -400.5q0 -254 -117.5 -400.5t-319.5 -146.5zM618 873q-116 0 -188.5 -94.5t-72.5 -248.5q0 -155 72.5 -249t188.5 -94q120 0 189.5 92.5t69.5 250.5
t-70 250.5t-189 92.5z" />
    <glyph glyph-name="c" unicode="c" horiz-adv-x="1083" 
d="M1036 682h-235q-16 89 -76 143.5t-156 54.5q-118 0 -188 -93.5t-70 -256.5q0 -165 70 -257.5t190 -92.5q94 0 154 50.5t77 141.5h235q-15 -178 -142.5 -285.5t-326.5 -107.5q-234 0 -372 147.5t-138 403.5q0 253 138 402.5t370 149.5q204 0 330.5 -113.5t139.5 -286.5z
" />
    <glyph glyph-name="d" unicode="d" horiz-adv-x="1188" 
d="M498 -17q-201 0 -320.5 148t-119.5 400q0 251 119.5 399t320.5 148q112 0 198.5 -53t129.5 -143h6v561h249v-1443h-244v181h-4q-44 -91 -132.5 -144.5t-202.5 -53.5zM573 873q-120 0 -190 -92.5t-70 -250.5q0 -159 69.5 -251t190.5 -92q118 0 189 93t71 250
q0 156 -71 249.5t-189 93.5z" />
    <glyph glyph-name="e" unicode="e" horiz-adv-x="1105" 
d="M559 889q-104 0 -173.5 -71.5t-77.5 -183.5h495q-4 113 -71 184t-173 71zM804 317h233q-24 -151 -153 -244.5t-316 -93.5q-238 0 -374 146.5t-136 400.5q0 252 135.5 404t364.5 152q225 0 357 -144.5t132 -386.5v-81h-741v-15q0 -128 72.5 -206t194.5 -78
q86 0 148.5 39.5t82.5 106.5z" />
    <glyph glyph-name="f" unicode="f" horiz-adv-x="690" 
d="M171 0v868h-145v189h145v94q0 156 78.5 229.5t249.5 73.5q77 0 134 -11v-174q-42 6 -79 6q-138 0 -138 -131v-87h212v-189h-208v-868h-249z" />
    <glyph glyph-name="g" unicode="g" horiz-adv-x="1182" 
d="M570 197q120 0 191 90.5t71 245.5t-71.5 247.5t-190.5 92.5q-118 0 -187.5 -92t-69.5 -248q0 -157 69.5 -246.5t187.5 -89.5zM569 -400q-195 0 -325.5 89.5t-149.5 230.5h247q20 -61 84 -98.5t152 -37.5q120 0 187.5 61.5t67.5 164.5v179h-6q-42 -87 -130.5 -138.5
t-201.5 -51.5q-198 0 -317 144.5t-119 390.5q0 251 119 397.5t322 146.5q112 0 200 -53.5t134 -146.5h4v182h244v-1043q0 -190 -140 -303.5t-372 -113.5z" />
    <glyph glyph-name="h" unicode="h" horiz-adv-x="1163" 
d="M109 0v1443h246v-565h5q43 97 129 149.5t206 52.5q174 0 272.5 -106.5t98.5 -290.5v-683h-249v632q0 113 -55.5 175t-162.5 62q-112 0 -176.5 -71t-64.5 -189v-609h-249z" />
    <glyph glyph-name="i" unicode="i" horiz-adv-x="464" 
d="M108 0v1060h249v-1060h-249zM232 1199q-58 0 -98 39.5t-40 95.5q0 57 40 96.5t98 39.5t98.5 -39.5t40.5 -96.5q0 -56 -40.5 -95.5t-98.5 -39.5z" />
    <glyph glyph-name="j" unicode="j" horiz-adv-x="464" 
d="M357 1060v-1110q0 -322 -362 -322q-44 0 -62 2v190q5 -1 33 -1q77 0 109.5 31t32.5 104v1106h249zM232 1199q-58 0 -98 39.5t-40 95.5q0 57 40 96.5t98 39.5t98.5 -39.5t40.5 -96.5q0 -56 -40.5 -95.5t-98.5 -39.5z" />
    <glyph glyph-name="k" unicode="k" horiz-adv-x="1062" 
d="M361 618l399 442h287l-424 -456l442 -604h-288l-335 453l-84 -85v-368h-249v1443h249v-825h3z" />
    <glyph glyph-name="l" unicode="l" horiz-adv-x="468" 
d="M109 0v1443h249v-1443h-249z" />
    <glyph glyph-name="m" unicode="m" horiz-adv-x="1723" 
d="M102 0v1060h239v-184h5q35 94 115 149t187 55q112 0 189.5 -55.5t106.5 -157.5h6q38 98 126.5 155.5t203.5 57.5q157 0 251.5 -97t94.5 -256v-727h-249v666q0 98 -49.5 151t-140.5 53q-90 0 -146 -60t-56 -155v-655h-242v679q0 88 -50.5 139.5t-137.5 51.5
q-90 0 -147 -62.5t-57 -158.5v-649h-249z" />
    <glyph glyph-name="n" unicode="n" horiz-adv-x="1143" 
d="M102 0v1060h239v-182h5q44 96 128.5 149t204.5 53q174 0 270.5 -105t96.5 -290v-685h-249v635q0 114 -53.5 174t-158.5 60q-107 0 -170.5 -70t-63.5 -185v-614h-249z" />
    <glyph glyph-name="o" unicode="o" horiz-adv-x="1142" 
d="M571 -21q-235 0 -374 147.5t-139 403.5q0 255 140 403.5t373 148.5q234 0 373.5 -148.5t139.5 -403.5q0 -256 -139 -403.5t-374 -147.5zM571 176q120 0 190 93t70 261q0 167 -70 260.5t-190 93.5q-119 0 -189.5 -93.5t-70.5 -260.5q0 -168 70 -261t190 -93z" />
    <glyph glyph-name="p" unicode="p" horiz-adv-x="1182" 
d="M684 1078q202 0 321 -147t119 -401q0 -253 -118 -400t-318 -147q-114 0 -201 51.5t-131 141.5h-5v-525h-249v1409h243v-183h5q46 94 133 147.5t201 53.5zM608 187q121 0 191 92.5t70 250.5q0 157 -70.5 250t-190.5 93q-116 0 -187 -94t-72 -249q1 -156 72 -249.5
t187 -93.5z" />
    <glyph glyph-name="q" unicode="q" horiz-adv-x="1182" 
d="M499 1078q113 0 200 -54t133 -147h5v183h244v-1409h-249v528h-6q-42 -90 -130.5 -143t-201.5 -53q-200 0 -318 148t-118 400t119 399.5t322 147.5zM570 187q118 0 190 93.5t72 249.5t-72 249.5t-190 93.5q-119 0 -188 -92t-69 -251t69 -251t188 -92z" />
    <glyph glyph-name="r" unicode="r" horiz-adv-x="704" 
d="M102 0v1060h239v-185h5q27 97 93.5 150t160.5 53q33 0 78 -10v-225q-37 14 -101 14q-106 0 -166 -64t-60 -176v-617h-249z" />
    <glyph glyph-name="s" unicode="s" horiz-adv-x="1018" 
d="M83 756q0 146 118 236t311 90q186 0 302.5 -91.5t121.5 -238.5h-232q-6 69 -58 108t-139 39q-82 0 -132 -35.5t-50 -93.5q0 -88 152 -125l189 -42q159 -37 227 -104t68 -185q0 -150 -126 -242.5t-327 -92.5q-198 0 -318.5 90.5t-133.5 242.5h245q11 -73 66.5 -112
t149.5 -39q91 0 143.5 34.5t52.5 93.5q0 46 -32.5 73.5t-109.5 47.5l-193 45q-295 69 -295 301z" />
    <glyph glyph-name="t" unicode="t" horiz-adv-x="687" 
d="M171 1308h249v-248h200v-192h-200v-551q0 -65 31 -96t97 -31q44 0 71 5v-190q-45 -10 -129 -10q-172 0 -245.5 66t-73.5 221v586h-152v192h152v248z" />
    <glyph glyph-name="u" unicode="u" horiz-adv-x="1143" 
d="M1042 1060v-1060h-240v184h-5q-88 -203 -324 -203q-173 0 -274.5 105.5t-101.5 288.5v685h249v-635q0 -114 54.5 -174t159.5 -60q107 0 170 70t63 186v613h249z" />
    <glyph glyph-name="v" unicode="v" horiz-adv-x="1047" 
d="M1035 1060l-373 -1060h-274l-376 1060h266l246 -829h5l246 829h260z" />
    <glyph glyph-name="w" unicode="w" horiz-adv-x="1562" 
d="M1540 1060l-287 -1060h-262l-209 775h-5l-208 -775h-260l-287 1060h250l179 -814h5l207 814h239l207 -814h6l179 814h246z" />
    <glyph glyph-name="x" unicode="x" horiz-adv-x="1037" 
d="M516 380h-5l-220 -380h-265l342 529l-339 531h280l214 -372h5l211 372h273l-341 -524l337 -536h-272z" />
    <glyph glyph-name="y" unicode="y" horiz-adv-x="1069" 
d="M220 -394q-81 0 -98 4v197q17 -4 72 -4q77 0 120 32t64 105q0 1 7.5 29t6.5 30l-377 1061h272l250 -848h4l250 848h262l-383 -1102q-68 -197 -168 -274.5t-282 -77.5z" />
    <glyph glyph-name="z" unicode="z" horiz-adv-x="1007" 
d="M81 0v151l549 711v4h-544v194h831v-164l-527 -697v-5h536v-194h-845z" />
    <glyph glyph-name="braceleft" unicode="{" horiz-adv-x="738" 
d="M243 553q246 -26 246 -244v-226q0 -111 42 -158.5t141 -47.5h42v-186h-67q-205 0 -300 88t-95 277v181q0 114 -51.5 160t-177.5 47v246q126 1 177.5 47.5t51.5 160.5v183q0 188 95 275t300 87h67v-186h-42q-99 0 -141 -47.5t-42 -158.5v-226q0 -217 -246 -243v-29z" />
    <glyph glyph-name="bar" unicode="|" horiz-adv-x="738" 
d="M482 -309h-227v1752h227v-1752z" />
    <glyph glyph-name="braceright" unicode="}" horiz-adv-x="738" 
d="M495 553v29q-247 26 -247 243v226q0 111 -41.5 158.5t-140.5 47.5h-43v186h67q206 0 300.5 -87t94.5 -275v-183q0 -114 51.5 -160.5t177.5 -47.5v-246q-126 -1 -177.5 -47t-51.5 -159v-175q0 -193 -95 -282.5t-300 -89.5h-67v186h43q97 0 139.5 47.5t42.5 157.5v226
q0 109 63 170.5t184 74.5z" />
    <glyph glyph-name="asciitilde" unicode="~" horiz-adv-x="1294" 
d="M601 628q-48 49 -81 69t-66 20q-119 0 -125 -178h-204q-6 182 79 288.5t237 106.5q66 0 126.5 -30.5t128.5 -98.5q47 -48 79.5 -68t65.5 -20q58 0 90 45.5t35 133.5h203q6 -182 -79 -288.5t-236 -106.5q-66 0 -125.5 30t-127.5 97z" />
    <glyph glyph-name="nonbreakingspace" unicode="&#xa0;" horiz-adv-x="410" 
 />
    <glyph glyph-name="exclamdown" unicode="&#xa1;" horiz-adv-x="611" 
d="M177 -330l20 966h217l20 -966h-257zM305 852q-61 0 -103 41t-42 100q0 60 42 100.5t103 40.5q62 0 104 -40.5t42 -100.5q0 -59 -42.5 -100t-103.5 -41z" />
    <glyph glyph-name="cent" unicode="&#xa2;" horiz-adv-x="1294" 
d="M1180 540q-15 -157 -127.5 -263.5t-284.5 -129.5v-177h-217v181q-201 35 -319 185.5t-118 374.5q0 221 118.5 370t318.5 184v181h217v-178q171 -23 286.5 -134.5t125.5 -264.5h-236q-19 93 -93.5 148t-181.5 55q-134 0 -218.5 -99.5t-84.5 -261.5q0 -164 85 -265.5
t218 -101.5q237 0 275 196h236z" />
    <glyph glyph-name="sterling" unicode="&#xa3;" horiz-adv-x="1294" 
d="M464 214h740v-214h-1101v203q134 23 219.5 117t85.5 217q0 49 -13 104h-289v184h228q-60 157 -60 251q0 190 143 296.5t400 106.5q90 0 178 -14.5t141 -37.5v-208q-45 22 -128 37t-164 15q-147 0 -229 -58.5t-82 -163.5q0 -84 51 -224h434v-184h-376q10 -48 10 -89
q0 -108 -53.5 -195t-134.5 -137v-6z" />
    <glyph glyph-name="currency" unicode="&#xa4;" horiz-adv-x="1294" 
d="M403 652q0 -101 72 -173.5t173 -72.5t173 72.5t72 173.5t-72 173t-173 72q-100 0 -172.5 -72.5t-72.5 -172.5zM1170 1030l-156 -156q63 -102 63 -222t-63 -224l156 -156l-144 -144l-157 157q-103 -62 -221 -62q-120 0 -222 63l-157 -158l-144 144l157 158
q-62 103 -62 222t62 221l-157 157l144 144l157 -156q103 62 222 62t222 -62l156 156z" />
    <glyph glyph-name="yen" unicode="&#xa5;" horiz-adv-x="1294" 
d="M1050 233h-274v-233h-257v233h-273v155h273v147h-273v155h205l-438 753h283l348 -625h8l347 625h282l-437 -753h206v-155h-274v-147h274v-155z" />
    <glyph glyph-name="brokenbar" unicode="&#xa6;" horiz-adv-x="738" 
d="M482 743h-227v700h227v-700zM482 -309h-227v700h227v-700z" />
    <glyph glyph-name="section" unicode="&#xa7;" horiz-adv-x="992" 
d="M439 431l99 -29q71 4 119.5 50.5t48.5 109.5q0 54 -39 93t-112 58l-100 29q-71 -5 -120 -52t-49 -108q0 -53 40 -92.5t113 -58.5zM497 -274q-181 0 -299.5 88.5t-126.5 230.5h225q8 -61 65.5 -98.5t141.5 -37.5q86 0 140 39t54 101q0 48 -39.5 81t-127.5 58l-163 51
q-161 49 -234 119.5t-73 176.5q0 94 58 164t161 101v17q-109 47 -160 113.5t-51 160.5q0 147 117 237t308 90q178 0 291.5 -85t126.5 -228h-223q-8 59 -62.5 94.5t-135.5 35.5q-85 0 -137.5 -38.5t-52.5 -100.5q0 -49 38 -81.5t126 -58.5l160 -51q161 -49 234 -118.5
t73 -171.5q0 -100 -66 -177t-173 -103v-17q120 -38 177 -102t57 -161q0 -146 -119 -237.5t-310 -91.5z" />
    <glyph glyph-name="dieresis" unicode="&#xa8;" horiz-adv-x="1008" 
d="M306 1287q-52 0 -88.5 36t-36.5 86q0 51 36.5 87t88.5 36q53 0 89.5 -36t36.5 -87t-36.5 -86.5t-89.5 -35.5zM701 1287q-52 0 -88.5 36t-36.5 86q0 51 36.5 87t88.5 36q53 0 89.5 -36t36.5 -87t-36.5 -86.5t-89.5 -35.5z" />
    <glyph glyph-name="copyright" unicode="&#xa9;" horiz-adv-x="1700" 
d="M850 -150q-162 0 -308.5 61.5t-252 166.5t-167.5 252t-62 311q0 165 62 312t167.5 252t252 166t308.5 61q131 0 251.5 -39t217.5 -111t169.5 -169t112 -218.5t39.5 -253.5q0 -164 -61.5 -311t-167 -252t-252 -166.5t-309.5 -61.5zM850 5q131 0 248.5 49.5t202.5 133.5
t134.5 202.5t49.5 250.5q0 133 -49.5 251.5t-134.5 202.5t-202.5 133t-248.5 49q-174 0 -319.5 -83t-230 -229.5t-84.5 -323.5q0 -176 84.5 -322.5t230 -230t319.5 -83.5zM1221 763h-170q-13 61 -61.5 99.5t-122.5 38.5q-96 0 -152 -68.5t-56 -189.5q0 -123 56.5 -192.5
t151.5 -69.5q73 0 121.5 34.5t62.5 98.5h170q-15 -127 -109.5 -203.5t-244.5 -76.5q-178 0 -283 110t-105 299q0 186 105 295.5t282 109.5q149 0 244.5 -79.5t110.5 -205.5z" />
    <glyph glyph-name="ordfeminine" unicode="&#xaa;" horiz-adv-x="773" 
d="M351 847q68 0 113 37.5t45 94.5v53l-151 -10q-120 -9 -120 -90q0 -38 30.5 -61.5t82.5 -23.5zM284 702q-107 0 -176.5 61.5t-69.5 158.5q0 99 74 155.5t216 64.5l181 11v48q0 50 -33 77.5t-92 27.5q-51 0 -85 -24t-41 -64h-183q4 107 91 172.5t226 65.5q142 0 228 -66.5
t86 -176.5v-502h-194v111h-4q-29 -55 -90 -87.5t-134 -32.5z" />
    <glyph glyph-name="guillemotleft" unicode="&#xab;" horiz-adv-x="1336" 
d="M368 572v-12l348 -412h-249l-346 413v8l349 413h246zM867 572v-12l348 -412h-249l-346 413v8l349 413h246z" />
    <glyph glyph-name="logicalnot" unicode="&#xac;" horiz-adv-x="1294" 
d="M1152 688v-600h-217v389h-792v211h1009z" />
    <glyph glyph-name="registered" unicode="&#xae;" horiz-adv-x="1171" 
d="M586 575q-210 0 -354.5 142t-144.5 349q0 136 66 249t180.5 178t252.5 65t252.5 -65t180 -178t65.5 -249t-65.5 -249t-180 -177.5t-252.5 -64.5zM586 693q157 0 263.5 107.5t106.5 265.5q0 159 -106.5 266.5t-263.5 107.5t-264 -107.5t-107 -266.5q0 -158 107 -265.5
t264 -107.5zM506 844h-113v459h234q74 0 121 -40t47 -104q0 -53 -27.5 -89.5t-74.5 -47.5l125 -178h-137l-105 162h-70v-162zM506 1212v-122h97q71 0 71 62q0 60 -69 60h-99z" />
    <glyph glyph-name="macron" unicode="&#xaf;" horiz-adv-x="1000" 
d="M808 1464v-136h-616v136h616z" />
    <glyph glyph-name="degree" unicode="&#xb0;" horiz-adv-x="745" 
d="M372 844q-129 0 -217.5 89t-88.5 218q0 128 88.5 217t217.5 89t217.5 -89t88.5 -217q0 -129 -88.5 -218t-217.5 -89zM372 1001q62 0 105.5 44.5t43.5 105.5q0 63 -43 106.5t-106 43.5q-60 0 -104.5 -44t-44.5 -106q0 -61 44.5 -105.5t104.5 -44.5z" />
    <glyph glyph-name="plusminus" unicode="&#xb1;" horiz-adv-x="1294" 
d="M1148 88h-1003v193h1003v-193zM753 655v-258h-212v258h-396v187h396v258h212v-258h397v-187h-397z" />
    <glyph glyph-name="two.sups" unicode="&#xb2;" horiz-adv-x="649" 
d="M36 1584q0 107 78 172t207 65q122 0 197.5 -57.5t75.5 -150.5q0 -55 -28 -102.5t-99 -110.5l-153 -135v-4h288v-155h-554v137l280 247q67 63 67 108q0 32 -23.5 52t-60.5 20t-62 -24.5t-25 -61.5v-5h-188v5z" />
    <glyph glyph-name="three.sups" unicode="&#xb3;" horiz-adv-x="676" 
d="M246 1394v135h85q39 0 62.5 20t23.5 52t-23.5 51t-64.5 19q-40 0 -65 -22.5t-27 -59.5h-184q0 106 77 169t205 63q123 0 197.5 -52.5t74.5 -138.5q0 -61 -40 -105t-105 -55v-5q79 -8 124.5 -52.5t45.5 -112.5q0 -97 -82 -155t-219 -58q-128 0 -207.5 64t-83.5 170h195
q2 -35 28 -55t69 -20q41 0 67 20.5t26 52.5q0 35 -25.5 55t-69.5 20h-84z" />
    <glyph glyph-name="acute" unicode="&#xb4;" horiz-adv-x="1008" 
d="M477 1284h-203l217 307h238z" />
    <glyph glyph-name="mugreek" unicode="&#x3bc;" horiz-adv-x="1245" 
d="M102 -349v1409h247v-629q0 -117 53.5 -178t159.5 -61q112 0 175 69t63 186v613h246v-753q0 -67 20 -95t66 -28q36 0 56 9l3 -186q-54 -16 -123 -16q-100 0 -158.5 36.5t-87.5 117.5q-3 8 -10 33h-4q-39 -93 -107.5 -145t-155.5 -52q-62 0 -114.5 27t-75.5 70h-4v-427
h-249z" />
    <glyph glyph-name="mugreek" unicode="&#xb5;" horiz-adv-x="1245" 
d="M102 -349v1409h247v-629q0 -117 53.5 -178t159.5 -61q112 0 175 69t63 186v613h246v-753q0 -67 20 -95t66 -28q36 0 56 9l3 -186q-54 -16 -123 -16q-100 0 -158.5 36.5t-87.5 117.5q-3 8 -10 33h-4q-39 -93 -107.5 -145t-155.5 -52q-62 0 -114.5 27t-75.5 70h-4v-427
h-249z" />
    <glyph glyph-name="paragraph" unicode="&#xb6;" horiz-adv-x="1374" 
d="M863 -242h-244v741h-20q-216 0 -360.5 134t-144.5 333q0 207 143 342t363 135h263v-1685zM1024 -242v1685h243v-1685h-243z" />
    <glyph glyph-name="periodcentered" unicode="&#xb7;" horiz-adv-x="591" 
d="M296 474q-62 0 -104.5 42.5t-42.5 103.5q0 62 42.5 104.5t104.5 42.5q61 0 103.5 -43t42.5 -104t-42.5 -103.5t-103.5 -42.5z" />
    <glyph glyph-name="cedilla" unicode="&#xb8;" horiz-adv-x="1008" 
d="M358 -227v87l65 151h142v-11l-53 -117q90 -1 143.5 -44t53.5 -119q0 -87 -66 -134.5t-177 -48.5q-94 -2 -145 14v115q46 -12 117 -12q117 0 117 61q0 31 -30.5 44.5t-101.5 13.5h-65z" />
    <glyph glyph-name="one.sups" unicode="&#xb9;" horiz-adv-x="531" 
d="M238 1106v523h-4l-174 -115v172l175 116h203v-696h-200z" />
    <glyph glyph-name="ordmasculine" unicode="&#xba;" horiz-adv-x="808" 
d="M404 698q-169 0 -266 100.5t-97 278.5q0 175 98.5 277t264.5 102q167 0 265 -101.5t98 -277.5q0 -178 -97 -278.5t-266 -100.5zM404 851q75 0 117 59.5t42 166.5q0 106 -42.5 166t-116.5 60t-116.5 -60t-42.5 -166q0 -107 42 -166.5t117 -59.5z" />
    <glyph glyph-name="guillemotright" unicode="&#xbb;" horiz-adv-x="1336" 
d="M469 572l-348 410h246l349 -413v-8l-346 -413h-249l348 412v12zM968 572l-348 410h246l349 -413v-8l-346 -413h-249l348 412v12z" />
    <glyph glyph-name="onequarter" unicode="&#xbc;" horiz-adv-x="1565" 
d="M248 748v523h-4l-174 -115v172l175 116h203v-696h-200zM328 0h-218l559 765l496 678h216l-544 -745zM1253 0v103h-342v170q86 169 252 423h284v-436h83v-157h-83v-103h-194zM1081 256v-4h178v309h-4q-119 -196 -174 -305z" />
    <glyph glyph-name="onehalf" unicode="&#xbd;" horiz-adv-x="1564" 
d="M248 748v523h-4l-174 -115v172l175 116h203v-696h-200zM328 0h-218l559 765l496 678h216l-544 -745zM963 478q0 107 78 172t207 65q122 0 197.5 -57.5t75.5 -150.5q0 -55 -28 -102.5t-99 -110.5l-153 -135v-4h288v-155h-554v137l280 247q67 63 67 108q0 32 -23.5 52
t-60.5 20t-62 -24.5t-25 -61.5v-5h-188v5z" />
    <glyph glyph-name="threequarters" unicode="&#xbe;" horiz-adv-x="1663" 
d="M246 1036v135h85q39 0 62.5 20t23.5 52t-23.5 51t-64.5 19q-40 0 -65 -22.5t-27 -59.5h-184q0 106 77 169t205 63q123 0 197.5 -52.5t74.5 -138.5q0 -61 -40 -105t-105 -55v-5q79 -8 124.5 -52.5t45.5 -112.5q0 -97 -82 -155t-219 -58q-128 0 -207.5 64t-83.5 170h195
q2 -35 28 -55t69 -20q41 0 67 20.5t26 52.5q0 35 -25.5 55t-69.5 20h-84zM435 0h-218l559 765l496 678h216l-544 -745zM1350 0v103h-342v170q86 169 252 423h284v-436h83v-157h-83v-103h-194zM1178 256v-4h178v309h-4q-119 -196 -174 -305z" />
    <glyph glyph-name="questiondown" unicode="&#xbf;" horiz-adv-x="1060" 
d="M1006 63q-5 -182 -128 -295t-339 -113q-205 0 -331.5 106t-126.5 273q0 213 212 340q98 57 132.5 105t34.5 123v58h232l1 -70q7 -110 -37 -183.5t-149 -136.5q-94 -57 -130 -105.5t-36 -121.5q0 -81 58 -132t153 -51t154 54.5t65 148.5h235zM565 852q-60 0 -102.5 41
t-42.5 100q0 60 42.5 100.5t102.5 40.5q62 0 104 -40.5t42 -100.5q0 -59 -42.5 -100t-103.5 -41z" />
    <glyph glyph-name="Agrave" unicode="&#xc0;" horiz-adv-x="1369" 
d="M1070 0l-123 373h-531l-123 -373h-266l512 1443h291l512 -1443h-272zM678 1188l-202 -616h410l-201 616h-7zM576 1561l-264 300h243l224 -300h-203z" />
    <glyph glyph-name="Aacute" unicode="&#xc1;" horiz-adv-x="1369" 
d="M1070 0l-123 373h-531l-123 -373h-266l512 1443h291l512 -1443h-272zM678 1188l-202 -616h410l-201 616h-7zM790 1558h-202l223 300h243z" />
    <glyph glyph-name="Acircumflex" unicode="&#xc2;" horiz-adv-x="1369" 
d="M1070 0l-123 373h-531l-123 -373h-266l512 1443h291l512 -1443h-272zM678 1188l-202 -616h410l-201 616h-7zM588 1849h192l274 -310h-201l-166 192h-6l-166 -192h-201z" />
    <glyph glyph-name="Atilde" unicode="&#xc3;" horiz-adv-x="1369" 
d="M1070 0l-123 373h-531l-123 -373h-266l512 1443h291l512 -1443h-272zM678 1188l-202 -616h410l-201 616h-7zM821 1569q-46 0 -87.5 22t-66.5 48.5t-54.5 48.5t-54.5 22q-34 0 -53 -34t-17 -95h-145q0 126 58.5 197t151.5 71q39 0 74 -14.5t59.5 -35.5t45.5 -42
t42.5 -35.5t41.5 -14.5q67 0 69 131h144q0 -123 -59 -196t-149 -73z" />
    <glyph glyph-name="Adieresis" unicode="&#xc4;" horiz-adv-x="1369" 
d="M1070 0l-123 373h-531l-123 -373h-266l512 1443h291l512 -1443h-272zM678 1188l-202 -616h410l-201 616h-7zM486 1583q-52 0 -88.5 36t-36.5 86q0 51 36.5 87t88.5 36q53 0 89.5 -36t36.5 -87t-36.5 -86.5t-89.5 -35.5zM881 1583q-52 0 -88.5 36t-36.5 86q0 51 36.5 87
t88.5 36q53 0 89.5 -36t36.5 -87t-36.5 -86.5t-89.5 -35.5z" />
    <glyph glyph-name="Aring" unicode="&#xc5;" horiz-adv-x="1369" 
d="M1070 0l-123 373h-531l-123 -373h-266l512 1443h291l512 -1443h-272zM678 1188l-202 -616h410l-201 616h-7zM684 1517q-82 0 -141 58t-59 140t59 140t141 58t141 -58t59 -140t-59 -140t-141 -58zM684 1621q40 0 68 27.5t28 66.5q0 40 -28 67.5t-68 27.5t-68 -27.5
t-28 -67.5q0 -39 28 -66.5t68 -27.5z" />
    <glyph glyph-name="AE" unicode="&#xc6;" horiz-adv-x="2015" 
d="M820 1240l-280 -636h425v636h-145zM965 0v404h-507l-180 -404h-259l641 1443h1223v-217h-677v-397h640v-206h-640v-406h677v-217h-918z" />
    <glyph glyph-name="Ccedilla" unicode="&#xc7;" horiz-adv-x="1439" 
d="M1371 948h-254q-25 136 -126.5 218t-241.5 82q-186 0 -296.5 -142.5t-110.5 -383.5q0 -243 110 -385t298 -142q143 0 240.5 73.5t127.5 203.5h253q-31 -214 -176 -343.5t-371 -149.5l-44 -96q90 -1 143.5 -44t53.5 -119q0 -87 -66 -134.5t-177 -48.5q-94 -2 -145 14v115
q46 -12 117 -12q117 0 117 61q0 31 -30.5 44.5t-101.5 13.5h-65v87l51 119q-279 23 -439 220.5t-160 522.5q0 344 181.5 544.5t489.5 200.5q252 0 425 -143.5t197 -375.5z" />
    <glyph glyph-name="Egrave" unicode="&#xc8;" horiz-adv-x="1158" 
d="M1061 218v-218h-934v1443h934v-218h-676v-390h639v-205h-639v-412h676zM486 1561l-264 300h243l224 -300h-203z" />
    <glyph glyph-name="Eacute" unicode="&#xc9;" horiz-adv-x="1158" 
d="M1061 218v-218h-934v1443h934v-218h-676v-390h639v-205h-639v-412h676zM700 1558h-202l223 300h243z" />
    <glyph glyph-name="Ecircumflex" unicode="&#xca;" horiz-adv-x="1158" 
d="M1061 218v-218h-934v1443h934v-218h-676v-390h639v-205h-639v-412h676zM498 1849h192l274 -310h-201l-166 192h-6l-166 -192h-201z" />
    <glyph glyph-name="Edieresis" unicode="&#xcb;" horiz-adv-x="1158" 
d="M1061 218v-218h-934v1443h934v-218h-676v-390h639v-205h-639v-412h676zM396 1583q-52 0 -88.5 36t-36.5 86q0 51 36.5 87t88.5 36q53 0 89.5 -36t36.5 -87t-36.5 -86.5t-89.5 -35.5zM791 1583q-52 0 -88.5 36t-36.5 86q0 51 36.5 87t88.5 36q53 0 89.5 -36t36.5 -87
t-36.5 -86.5t-89.5 -35.5z" />
    <glyph glyph-name="Igrave" unicode="&#xcc;" horiz-adv-x="512" 
d="M385 0h-258v1443h258v-1443zM148 1561l-264 300h243l224 -300h-203z" />
    <glyph glyph-name="Iacute" unicode="&#xcd;" horiz-adv-x="512" 
d="M385 0h-258v1443h258v-1443zM362 1558h-202l223 300h243z" />
    <glyph glyph-name="Icircumflex" unicode="&#xce;" horiz-adv-x="512" 
d="M385 0h-258v1443h258v-1443zM160 1849h192l274 -310h-201l-166 192h-6l-166 -192h-201z" />
    <glyph glyph-name="Idieresis" unicode="&#xcf;" horiz-adv-x="512" 
d="M385 0h-258v1443h258v-1443zM58 1583q-52 0 -88.5 36t-36.5 86q0 51 36.5 87t88.5 36q53 0 89.5 -36t36.5 -87t-36.5 -86.5t-89.5 -35.5zM453 1583q-52 0 -88.5 36t-36.5 86q0 51 36.5 87t88.5 36q53 0 89.5 -36t36.5 -87t-36.5 -86.5t-89.5 -35.5z" />
    <glyph glyph-name="Eth" unicode="&#xd0;" horiz-adv-x="1441" 
d="M402 218h242q218 0 334 130t116 376q0 242 -117 371.5t-333 129.5h-242v-388h263v-200h-263v-419zM144 1443h527q324 0 505 -188t181 -530q0 -343 -181 -534t-505 -191h-527v637h-109v200h109v606z" />
    <glyph glyph-name="Ntilde" unicode="&#xd1;" horiz-adv-x="1452" 
d="M376 0h-249v1443h224l716 -1011h9v1011h248v-1443h-222l-717 1012h-9v-1012zM863 1569q-46 0 -87.5 22t-66.5 48.5t-54.5 48.5t-54.5 22q-34 0 -53 -34t-17 -95h-145q0 126 58.5 197t151.5 71q39 0 74 -14.5t59.5 -35.5t45.5 -42t42.5 -35.5t41.5 -14.5q67 0 69 131h144
q0 -123 -59 -196t-149 -73z" />
    <glyph glyph-name="Ograve" unicode="&#xd2;" horiz-adv-x="1525" 
d="M763 1467q315 0 499.5 -201t184.5 -545t-184.5 -544.5t-499.5 -200.5q-316 0 -500.5 200.5t-184.5 544.5t184.5 545t500.5 201zM763 1247q-193 0 -307 -142t-114 -384q0 -241 114 -383t307 -142t307 142t114 383t-114 383.5t-307 142.5zM655 1561l-264 300h243l224 -300
h-203z" />
    <glyph glyph-name="Oacute" unicode="&#xd3;" horiz-adv-x="1525" 
d="M763 1467q315 0 499.5 -201t184.5 -545t-184.5 -544.5t-499.5 -200.5q-316 0 -500.5 200.5t-184.5 544.5t184.5 545t500.5 201zM763 1247q-193 0 -307 -142t-114 -384q0 -241 114 -383t307 -142t307 142t114 383t-114 383.5t-307 142.5zM869 1558h-202l223 300h243z" />
    <glyph glyph-name="Ocircumflex" unicode="&#xd4;" horiz-adv-x="1525" 
d="M763 1467q315 0 499.5 -201t184.5 -545t-184.5 -544.5t-499.5 -200.5q-316 0 -500.5 200.5t-184.5 544.5t184.5 545t500.5 201zM763 1247q-193 0 -307 -142t-114 -384q0 -241 114 -383t307 -142t307 142t114 383t-114 383.5t-307 142.5zM667 1849h192l274 -310h-201
l-166 192h-6l-166 -192h-201z" />
    <glyph glyph-name="Otilde" unicode="&#xd5;" horiz-adv-x="1525" 
d="M763 1467q315 0 499.5 -201t184.5 -545t-184.5 -544.5t-499.5 -200.5q-316 0 -500.5 200.5t-184.5 544.5t184.5 545t500.5 201zM763 1247q-193 0 -307 -142t-114 -384q0 -241 114 -383t307 -142t307 142t114 383t-114 383.5t-307 142.5zM900 1569q-46 0 -87.5 22
t-66.5 48.5t-54.5 48.5t-54.5 22q-34 0 -53 -34t-17 -95h-145q0 126 58.5 197t151.5 71q39 0 74 -14.5t59.5 -35.5t45.5 -42t42.5 -35.5t41.5 -14.5q67 0 69 131h144q0 -123 -59 -196t-149 -73z" />
    <glyph glyph-name="Odieresis" unicode="&#xd6;" horiz-adv-x="1525" 
d="M763 1467q315 0 499.5 -201t184.5 -545t-184.5 -544.5t-499.5 -200.5q-316 0 -500.5 200.5t-184.5 544.5t184.5 545t500.5 201zM763 1247q-193 0 -307 -142t-114 -384q0 -241 114 -383t307 -142t307 142t114 383t-114 383.5t-307 142.5zM565 1583q-52 0 -88.5 36
t-36.5 86q0 51 36.5 87t88.5 36q53 0 89.5 -36t36.5 -87t-36.5 -86.5t-89.5 -35.5zM960 1583q-52 0 -88.5 36t-36.5 86q0 51 36.5 87t88.5 36q53 0 89.5 -36t36.5 -87t-36.5 -86.5t-89.5 -35.5z" />
    <glyph glyph-name="multiply" unicode="&#xd7;" horiz-adv-x="1294" 
d="M648 433l-306 -305l-149 149l305 306l-305 305l149 149l306 -305l305 305l149 -149l-304 -305l304 -306l-149 -149z" />
    <glyph glyph-name="Oslash" unicode="&#xd8;" horiz-adv-x="1525" 
d="M1099 1063l-562 -801q97 -66 226 -66q193 0 307 142t114 383q0 206 -85 342zM448 348l570 811q-105 88 -255 88q-193 0 -307 -142t-114 -384q0 -231 106 -373zM1361 1436l-110 -157q196 -202 196 -558q0 -344 -184.5 -544.5t-499.5 -200.5q-209 0 -363 90l-88 -125
l-101 70l90 128q-108 98 -165.5 246t-57.5 336q0 344 184.5 545t500.5 201q228 0 394 -110l100 142z" />
    <glyph glyph-name="Ugrave" unicode="&#xd9;" horiz-adv-x="1441" 
d="M385 1443v-911q0 -150 88.5 -240.5t246.5 -90.5t247 90.5t89 240.5v911h257v-934q0 -239 -160.5 -386t-432.5 -147q-271 0 -432 147t-161 386v934h258zM612 1561l-264 300h243l224 -300h-203z" />
    <glyph glyph-name="Uacute" unicode="&#xda;" horiz-adv-x="1441" 
d="M385 1443v-911q0 -150 88.5 -240.5t246.5 -90.5t247 90.5t89 240.5v911h257v-934q0 -239 -160.5 -386t-432.5 -147q-271 0 -432 147t-161 386v934h258zM826 1558h-202l223 300h243z" />
    <glyph glyph-name="Ucircumflex" unicode="&#xdb;" horiz-adv-x="1441" 
d="M385 1443v-911q0 -150 88.5 -240.5t246.5 -90.5t247 90.5t89 240.5v911h257v-934q0 -239 -160.5 -386t-432.5 -147q-271 0 -432 147t-161 386v934h258zM624 1849h192l274 -310h-201l-166 192h-6l-166 -192h-201z" />
    <glyph glyph-name="Udieresis" unicode="&#xdc;" horiz-adv-x="1441" 
d="M385 1443v-911q0 -150 88.5 -240.5t246.5 -90.5t247 90.5t89 240.5v911h257v-934q0 -239 -160.5 -386t-432.5 -147q-271 0 -432 147t-161 386v934h258zM522 1583q-52 0 -88.5 36t-36.5 86q0 51 36.5 87t88.5 36q53 0 89.5 -36t36.5 -87t-36.5 -86.5t-89.5 -35.5z
M917 1583q-52 0 -88.5 36t-36.5 86q0 51 36.5 87t88.5 36q53 0 89.5 -36t36.5 -87t-36.5 -86.5t-89.5 -35.5z" />
    <glyph glyph-name="Yacute" unicode="&#xdd;" horiz-adv-x="1323" 
d="M790 0h-257v569l-506 874h283l350 -628h6l349 628h281l-506 -874v-569zM767 1558h-202l223 300h243z" />
    <glyph glyph-name="Thorn" unicode="&#xde;" horiz-adv-x="1294" 
d="M154 1443h259v-246h331q128 0 230.5 -51.5t164 -153.5t61.5 -237q0 -202 -133 -322.5t-333 -120.5h-322v-312h-258v1443zM412 986v-465h260q122 0 193.5 59.5t71.5 173.5q0 113 -71 172.5t-193 59.5h-261z" />
    <glyph glyph-name="germandbls" unicode="&#xdf;" horiz-adv-x="1282" 
d="M401 0h-247v1065q0 178 124.5 282.5t336.5 104.5q201 0 328.5 -102t127.5 -263q0 -119 -58.5 -208.5t-156.5 -118.5v-9q150 -16 237.5 -115.5t87.5 -248.5q0 -184 -125 -293t-336 -109q-98 0 -165 15v203q49 -16 126 -16q115 0 182 58.5t67 156.5q0 104 -75.5 164
t-208.5 60h-67v212h49q93 0 147 57.5t54 156.5q0 88 -58 142t-152 54q-105 0 -161.5 -59t-56.5 -169v-1020z" />
    <glyph glyph-name="agrave" unicode="&#xe0;" horiz-adv-x="1087" 
d="M489 171q107 0 180.5 63.5t73.5 158.5v81l-245 -15q-90 -6 -139.5 -44.5t-49.5 -101.5q0 -65 49.5 -103.5t130.5 -38.5zM414 -17q-155 0 -254.5 89t-99.5 231q0 141 104.5 223t298.5 94l280 16v76q0 83 -52.5 129t-145.5 46q-87 0 -142 -39t-67 -106h-231
q8 151 129.5 245.5t320.5 94.5q197 0 315.5 -96t118.5 -256v-730h-240v169h-5q-45 -85 -136 -135.5t-194 -50.5zM644 1211h-204l-252 307h239z" />
    <glyph glyph-name="aacute" unicode="&#xe1;" horiz-adv-x="1087" 
d="M489 171q107 0 180.5 63.5t73.5 158.5v81l-245 -15q-90 -6 -139.5 -44.5t-49.5 -101.5q0 -65 49.5 -103.5t130.5 -38.5zM414 -17q-155 0 -254.5 89t-99.5 231q0 141 104.5 223t298.5 94l280 16v76q0 83 -52.5 129t-145.5 46q-87 0 -142 -39t-67 -106h-231
q8 151 129.5 245.5t320.5 94.5q197 0 315.5 -96t118.5 -256v-730h-240v169h-5q-45 -85 -136 -135.5t-194 -50.5zM646 1211h-203l217 307h238z" />
    <glyph glyph-name="acircumflex" unicode="&#xe2;" horiz-adv-x="1087" 
d="M489 171q107 0 180.5 63.5t73.5 158.5v81l-245 -15q-90 -6 -139.5 -44.5t-49.5 -101.5q0 -65 49.5 -103.5t130.5 -38.5zM414 -17q-155 0 -254.5 89t-99.5 231q0 141 104.5 223t298.5 94l280 16v76q0 83 -52.5 129t-145.5 46q-87 0 -142 -39t-67 -106h-231
q8 151 129.5 245.5t320.5 94.5q197 0 315.5 -96t118.5 -256v-730h-240v169h-5q-45 -85 -136 -135.5t-194 -50.5zM640 1516l267 -311h-202l-157 188h-7l-157 -188h-202l267 311h191z" />
    <glyph glyph-name="atilde" unicode="&#xe3;" horiz-adv-x="1087" 
d="M489 171q107 0 180.5 63.5t73.5 158.5v81l-245 -15q-90 -6 -139.5 -44.5t-49.5 -101.5q0 -65 49.5 -103.5t130.5 -38.5zM414 -17q-155 0 -254.5 89t-99.5 231q0 141 104.5 223t298.5 94l280 16v76q0 83 -52.5 129t-145.5 46q-87 0 -142 -39t-67 -106h-231
q8 151 129.5 245.5t320.5 94.5q197 0 315.5 -96t118.5 -256v-730h-240v169h-5q-45 -85 -136 -135.5t-194 -50.5zM685 1211q-46 0 -87.5 22t-66.5 48.5t-54.5 48.5t-54.5 22q-34 0 -53 -34t-17 -95h-145q0 126 58.5 197t151.5 71q39 0 74 -14.5t59.5 -35.5t45.5 -42
t42.5 -35.5t41.5 -14.5q67 0 69 131h144q0 -123 -59 -196t-149 -73z" />
    <glyph glyph-name="adieresis" unicode="&#xe4;" horiz-adv-x="1087" 
d="M489 171q107 0 180.5 63.5t73.5 158.5v81l-245 -15q-90 -6 -139.5 -44.5t-49.5 -101.5q0 -65 49.5 -103.5t130.5 -38.5zM414 -17q-155 0 -254.5 89t-99.5 231q0 141 104.5 223t298.5 94l280 16v76q0 83 -52.5 129t-145.5 46q-87 0 -142 -39t-67 -106h-231
q8 151 129.5 245.5t320.5 94.5q197 0 315.5 -96t118.5 -256v-730h-240v169h-5q-45 -85 -136 -135.5t-194 -50.5zM347 1214q-52 0 -88.5 36t-36.5 86q0 51 36.5 87t88.5 36q53 0 89.5 -36t36.5 -87t-36.5 -86.5t-89.5 -35.5zM742 1214q-52 0 -88.5 36t-36.5 86q0 51 36.5 87
t88.5 36q53 0 89.5 -36t36.5 -87t-36.5 -86.5t-89.5 -35.5z" />
    <glyph glyph-name="aring" unicode="&#xe5;" horiz-adv-x="1087" 
d="M489 171q107 0 180.5 63.5t73.5 158.5v81l-245 -15q-90 -6 -139.5 -44.5t-49.5 -101.5q0 -65 49.5 -103.5t130.5 -38.5zM414 -17q-155 0 -254.5 89t-99.5 231q0 141 104.5 223t298.5 94l280 16v76q0 83 -52.5 129t-145.5 46q-87 0 -142 -39t-67 -106h-231
q8 151 129.5 245.5t320.5 94.5q197 0 315.5 -96t118.5 -256v-730h-240v169h-5q-45 -85 -136 -135.5t-194 -50.5zM545 1159q-86 0 -147 60t-61 145t61 145t147 60q85 0 146 -60t61 -145t-61 -145t-146 -60zM545 1267q41 0 69.5 28.5t28.5 68.5t-28.5 69t-69.5 29t-69.5 -29
t-28.5 -69t28.5 -68.5t69.5 -28.5z" />
    <glyph glyph-name="ae" unicode="&#xe6;" horiz-adv-x="1765" 
d="M1239 -21q-131 0 -233 56t-154 154h-9q-60 -98 -159.5 -152t-230.5 -54q-182 0 -289.5 87.5t-107.5 231.5q0 142 106 222.5t305 91.5l275 15v65q0 82 -59 136.5t-151 54.5q-85 0 -140.5 -40.5t-63.5 -104.5h-229q8 150 124.5 245t302.5 95q127 0 221 -47.5t137 -130.5h8
q111 178 353 178q210 0 336 -144t126 -387v-80h-730v-16q0 -126 73 -205t192 -79q83 0 141.5 39.5t81.5 106.5h232q-23 -151 -149 -244.5t-309 -93.5zM1229 889q-104 0 -173 -71t-77 -184h484q-4 115 -67.5 185t-166.5 70zM481 169q109 0 185 66t76 158v77l-245 -15
q-95 -6 -147 -42.5t-52 -99.5t51 -103.5t132 -40.5z" />
    <glyph glyph-name="ccedilla" unicode="&#xe7;" horiz-adv-x="1083" 
d="M802 372h235q-13 -160 -119 -264.5t-276 -124.5l-45 -100q90 -1 143.5 -44t53.5 -119q0 -87 -66 -134.5t-177 -48.5q-94 -2 -145 14v115q46 -12 117 -12q117 0 117 61q0 31 -30.5 44.5t-101.5 13.5h-65v87l53 123q-204 23 -321 167t-117 380q0 253 138 402.5t370 149.5
q204 0 330.5 -113.5t139.5 -286.5h-235q-16 89 -76 143.5t-156 54.5q-118 0 -188 -93.5t-70 -256.5q0 -165 70 -257.5t190 -92.5q94 0 154 50.5t77 141.5z" />
    <glyph glyph-name="egrave" unicode="&#xe8;" horiz-adv-x="1105" 
d="M559 889q-104 0 -173.5 -71.5t-77.5 -183.5h495q-4 113 -71 184t-173 71zM804 317h233q-24 -151 -153 -244.5t-316 -93.5q-238 0 -374 146.5t-136 400.5q0 252 135.5 404t364.5 152q225 0 357 -144.5t132 -386.5v-81h-741v-15q0 -128 72.5 -206t194.5 -78
q86 0 148.5 39.5t82.5 106.5zM657 1211h-204l-252 307h239z" />
    <glyph glyph-name="eacute" unicode="&#xe9;" horiz-adv-x="1105" 
d="M559 889q-104 0 -173.5 -71.5t-77.5 -183.5h495q-4 113 -71 184t-173 71zM804 317h233q-24 -151 -153 -244.5t-316 -93.5q-238 0 -374 146.5t-136 400.5q0 252 135.5 404t364.5 152q225 0 357 -144.5t132 -386.5v-81h-741v-15q0 -128 72.5 -206t194.5 -78
q86 0 148.5 39.5t82.5 106.5zM659 1211h-203l217 307h238z" />
    <glyph glyph-name="ecircumflex" unicode="&#xea;" horiz-adv-x="1105" 
d="M559 889q-104 0 -173.5 -71.5t-77.5 -183.5h495q-4 113 -71 184t-173 71zM804 317h233q-24 -151 -153 -244.5t-316 -93.5q-238 0 -374 146.5t-136 400.5q0 252 135.5 404t364.5 152q225 0 357 -144.5t132 -386.5v-81h-741v-15q0 -128 72.5 -206t194.5 -78
q86 0 148.5 39.5t82.5 106.5zM653 1516l267 -311h-202l-157 188h-7l-157 -188h-202l267 311h191z" />
    <glyph glyph-name="edieresis" unicode="&#xeb;" horiz-adv-x="1105" 
d="M559 889q-104 0 -173.5 -71.5t-77.5 -183.5h495q-4 113 -71 184t-173 71zM804 317h233q-24 -151 -153 -244.5t-316 -93.5q-238 0 -374 146.5t-136 400.5q0 252 135.5 404t364.5 152q225 0 357 -144.5t132 -386.5v-81h-741v-15q0 -128 72.5 -206t194.5 -78
q86 0 148.5 39.5t82.5 106.5zM360 1214q-52 0 -88.5 36t-36.5 86q0 51 36.5 87t88.5 36q53 0 89.5 -36t36.5 -87t-36.5 -86.5t-89.5 -35.5zM755 1214q-52 0 -88.5 36t-36.5 86q0 51 36.5 87t88.5 36q53 0 89.5 -36t36.5 -87t-36.5 -86.5t-89.5 -35.5z" />
    <glyph glyph-name="igrave" unicode="&#xec;" horiz-adv-x="464" 
d="M108 0v1060h249v-1060h-249zM331 1211h-204l-252 307h239z" />
    <glyph glyph-name="iacute" unicode="&#xed;" horiz-adv-x="464" 
d="M108 0v1060h249v-1060h-249zM333 1211h-203l217 307h238z" />
    <glyph glyph-name="icircumflex" unicode="&#xee;" horiz-adv-x="464" 
d="M108 0v1060h249v-1060h-249zM327 1516l267 -311h-202l-157 188h-7l-157 -188h-202l267 311h191z" />
    <glyph glyph-name="idieresis" unicode="&#xef;" horiz-adv-x="464" 
d="M108 0v1060h249v-1060h-249zM34 1214q-52 0 -88.5 36t-36.5 86q0 51 36.5 87t88.5 36q53 0 89.5 -36t36.5 -87t-36.5 -86.5t-89.5 -35.5zM429 1214q-52 0 -88.5 36t-36.5 86q0 51 36.5 87t88.5 36q53 0 89.5 -36t36.5 -87t-36.5 -86.5t-89.5 -35.5z" />
    <glyph glyph-name="eth" unicode="&#xf0;" horiz-adv-x="1171" 
d="M579 -17q-234 0 -371.5 141.5t-137.5 388.5q0 234 124.5 371.5t327.5 137.5q84 0 160.5 -38.5t112.5 -98.5h16q-20 71 -68 154t-101 143l-274 -91l-48 128l222 73q-71 69 -222 181h306q64 -50 123 -112l252 84l50 -128l-196 -64q232 -287 232 -679q0 -277 -138 -434
t-370 -157zM583 837q-119 0 -188.5 -87.5t-69.5 -237.5q0 -149 70 -237t188 -88q120 0 190.5 88t70.5 237t-71 237t-190 88z" />
    <glyph glyph-name="ntilde" unicode="&#xf1;" horiz-adv-x="1143" 
d="M102 0v1060h239v-182h5q44 96 128.5 149t204.5 53q174 0 270.5 -105t96.5 -290v-685h-249v635q0 114 -53.5 174t-158.5 60q-107 0 -170.5 -70t-63.5 -185v-614h-249zM713 1211q-46 0 -87.5 22t-66.5 48.5t-54.5 48.5t-54.5 22q-34 0 -53 -34t-17 -95h-145q0 126 58.5 197
t151.5 71q39 0 74 -14.5t59.5 -35.5t45.5 -42t42.5 -35.5t41.5 -14.5q67 0 69 131h144q0 -123 -59 -196t-149 -73z" />
    <glyph glyph-name="ograve" unicode="&#xf2;" horiz-adv-x="1142" 
d="M571 -21q-235 0 -374 147.5t-139 403.5q0 255 140 403.5t373 148.5q234 0 373.5 -148.5t139.5 -403.5q0 -256 -139 -403.5t-374 -147.5zM571 176q120 0 190 93t70 261q0 167 -70 260.5t-190 93.5q-119 0 -189.5 -93.5t-70.5 -260.5q0 -168 70 -261t190 -93zM670 1211
h-204l-252 307h239z" />
    <glyph glyph-name="oacute" unicode="&#xf3;" horiz-adv-x="1142" 
d="M571 -21q-235 0 -374 147.5t-139 403.5q0 255 140 403.5t373 148.5q234 0 373.5 -148.5t139.5 -403.5q0 -256 -139 -403.5t-374 -147.5zM571 176q120 0 190 93t70 261q0 167 -70 260.5t-190 93.5q-119 0 -189.5 -93.5t-70.5 -260.5q0 -168 70 -261t190 -93zM672 1211
h-203l217 307h238z" />
    <glyph glyph-name="ocircumflex" unicode="&#xf4;" horiz-adv-x="1142" 
d="M571 -21q-235 0 -374 147.5t-139 403.5q0 255 140 403.5t373 148.5q234 0 373.5 -148.5t139.5 -403.5q0 -256 -139 -403.5t-374 -147.5zM571 176q120 0 190 93t70 261q0 167 -70 260.5t-190 93.5q-119 0 -189.5 -93.5t-70.5 -260.5q0 -168 70 -261t190 -93zM666 1516
l267 -311h-202l-157 188h-7l-157 -188h-202l267 311h191z" />
    <glyph glyph-name="otilde" unicode="&#xf5;" horiz-adv-x="1142" 
d="M571 -21q-235 0 -374 147.5t-139 403.5q0 255 140 403.5t373 148.5q234 0 373.5 -148.5t139.5 -403.5q0 -256 -139 -403.5t-374 -147.5zM571 176q120 0 190 93t70 261q0 167 -70 260.5t-190 93.5q-119 0 -189.5 -93.5t-70.5 -260.5q0 -168 70 -261t190 -93zM711 1211
q-46 0 -87.5 22t-66.5 48.5t-54.5 48.5t-54.5 22q-34 0 -53 -34t-17 -95h-145q0 126 58.5 197t151.5 71q39 0 74 -14.5t59.5 -35.5t45.5 -42t42.5 -35.5t41.5 -14.5q67 0 69 131h144q0 -123 -59 -196t-149 -73z" />
    <glyph glyph-name="odieresis" unicode="&#xf6;" horiz-adv-x="1142" 
d="M571 -21q-235 0 -374 147.5t-139 403.5q0 255 140 403.5t373 148.5q234 0 373.5 -148.5t139.5 -403.5q0 -256 -139 -403.5t-374 -147.5zM571 176q120 0 190 93t70 261q0 167 -70 260.5t-190 93.5q-119 0 -189.5 -93.5t-70.5 -260.5q0 -168 70 -261t190 -93zM373 1214
q-52 0 -88.5 36t-36.5 86q0 51 36.5 87t88.5 36q53 0 89.5 -36t36.5 -87t-36.5 -86.5t-89.5 -35.5zM768 1214q-52 0 -88.5 36t-36.5 86q0 51 36.5 87t88.5 36q53 0 89.5 -36t36.5 -87t-36.5 -86.5t-89.5 -35.5z" />
    <glyph glyph-name="divide" unicode="&#xf7;" horiz-adv-x="1294" 
d="M648 807q-67 0 -109.5 40.5t-42.5 105.5t42.5 105.5t109.5 40.5q66 0 108.5 -41t42.5 -105t-42.5 -105t-108.5 -41zM648 52q-67 0 -109.5 40.5t-42.5 105.5t42.5 106t109.5 41q66 0 108.5 -41.5t42.5 -105.5t-42.5 -105t-108.5 -41zM1175 479h-1056v193h1056v-193z" />
    <glyph glyph-name="oslash" unicode="&#xf8;" horiz-adv-x="1142" 
d="M787 748l-345 -536q56 -36 129 -36q120 0 190 93t70 261q0 130 -44 218zM360 302l348 540q-57 42 -137 42q-119 0 -189.5 -93.5t-70.5 -260.5q0 -139 49 -228zM986 1059l-65 -102q163 -150 163 -427q0 -256 -139 -403.5t-374 -147.5q-136 0 -245 52l-57 -89l-100 63
l59 92q-170 148 -170 433q0 255 140 403.5t373 148.5q143 0 254 -58l60 93z" />
    <glyph glyph-name="ugrave" unicode="&#xf9;" horiz-adv-x="1143" 
d="M1042 1060v-1060h-240v184h-5q-88 -203 -324 -203q-173 0 -274.5 105.5t-101.5 288.5v685h249v-635q0 -114 54.5 -174t159.5 -60q107 0 170 70t63 186v613h249zM669 1211h-204l-252 307h239z" />
    <glyph glyph-name="uacute" unicode="&#xfa;" horiz-adv-x="1143" 
d="M1042 1060v-1060h-240v184h-5q-88 -203 -324 -203q-173 0 -274.5 105.5t-101.5 288.5v685h249v-635q0 -114 54.5 -174t159.5 -60q107 0 170 70t63 186v613h249zM671 1211h-203l217 307h238z" />
    <glyph glyph-name="ucircumflex" unicode="&#xfb;" horiz-adv-x="1143" 
d="M1042 1060v-1060h-240v184h-5q-88 -203 -324 -203q-173 0 -274.5 105.5t-101.5 288.5v685h249v-635q0 -114 54.5 -174t159.5 -60q107 0 170 70t63 186v613h249zM665 1516l267 -311h-202l-157 188h-7l-157 -188h-202l267 311h191z" />
    <glyph glyph-name="udieresis" unicode="&#xfc;" horiz-adv-x="1143" 
d="M1042 1060v-1060h-240v184h-5q-88 -203 -324 -203q-173 0 -274.5 105.5t-101.5 288.5v685h249v-635q0 -114 54.5 -174t159.5 -60q107 0 170 70t63 186v613h249zM372 1214q-52 0 -88.5 36t-36.5 86q0 51 36.5 87t88.5 36q53 0 89.5 -36t36.5 -87t-36.5 -86.5t-89.5 -35.5z
M767 1214q-52 0 -88.5 36t-36.5 86q0 51 36.5 87t88.5 36q53 0 89.5 -36t36.5 -87t-36.5 -86.5t-89.5 -35.5z" />
    <glyph glyph-name="yacute" unicode="&#xfd;" horiz-adv-x="1069" 
d="M220 -394q-81 0 -98 4v197q17 -4 72 -4q77 0 120 32t64 105q0 1 7.5 29t6.5 30l-377 1061h272l250 -848h4l250 848h262l-383 -1102q-68 -197 -168 -274.5t-282 -77.5zM636 1211h-203l217 307h238z" />
    <glyph glyph-name="thorn" unicode="&#xfe;" horiz-adv-x="1191" 
d="M696 1078q202 0 318.5 -146.5t116.5 -401.5q0 -253 -117 -400t-317 -147q-113 0 -198 47t-125 131h-17v-500h-248v1782h243v-558h17q45 90 131.5 141.5t195.5 51.5zM615 187q123 0 192 91t69 252q0 160 -69.5 251.5t-190.5 91.5t-191.5 -92t-70.5 -251t70 -251t191 -92z
" />
    <glyph glyph-name="ydieresis" unicode="&#xff;" horiz-adv-x="1069" 
d="M220 -394q-81 0 -98 4v197q17 -4 72 -4q77 0 120 32t64 105q0 1 7.5 29t6.5 30l-377 1061h272l250 -848h4l250 848h262l-383 -1102q-68 -197 -168 -274.5t-282 -77.5zM337 1214q-52 0 -88.5 36t-36.5 86q0 51 36.5 87t88.5 36q53 0 89.5 -36t36.5 -87t-36.5 -86.5
t-89.5 -35.5zM732 1214q-52 0 -88.5 36t-36.5 86q0 51 36.5 87t88.5 36q53 0 89.5 -36t36.5 -87t-36.5 -86.5t-89.5 -35.5z" />
    <glyph glyph-name="Amacron" unicode="&#x100;" horiz-adv-x="1369" 
d="M1070 0l-123 373h-531l-123 -373h-266l512 1443h291l512 -1443h-272zM678 1188l-202 -616h410l-201 616h-7zM1019 1761v-136h-670v136h670z" />
    <glyph glyph-name="amacron" unicode="&#x101;" horiz-adv-x="1087" 
d="M489 171q107 0 180.5 63.5t73.5 158.5v81l-245 -15q-90 -6 -139.5 -44.5t-49.5 -101.5q0 -65 49.5 -103.5t130.5 -38.5zM414 -17q-155 0 -254.5 89t-99.5 231q0 141 104.5 223t298.5 94l280 16v76q0 83 -52.5 129t-145.5 46q-87 0 -142 -39t-67 -106h-231
q8 151 129.5 245.5t320.5 94.5q197 0 315.5 -96t118.5 -256v-730h-240v169h-5q-45 -85 -136 -135.5t-194 -50.5zM853 1391v-136h-616v136h616z" />
    <glyph glyph-name="Abreve" unicode="&#x102;" horiz-adv-x="1369" 
d="M1070 0l-123 373h-531l-123 -373h-266l512 1443h291l512 -1443h-272zM678 1188l-202 -616h410l-201 616h-7zM339 1855h162q8 -83 57 -131t126 -48t126 48t57 131h162q-9 -133 -101 -224t-244 -91t-244 91t-101 224z" />
    <glyph glyph-name="abreve" unicode="&#x103;" horiz-adv-x="1087" 
d="M489 171q107 0 180.5 63.5t73.5 158.5v81l-245 -15q-90 -6 -139.5 -44.5t-49.5 -101.5q0 -65 49.5 -103.5t130.5 -38.5zM414 -17q-155 0 -254.5 89t-99.5 231q0 141 104.5 223t298.5 94l280 16v76q0 83 -52.5 129t-145.5 46q-87 0 -142 -39t-67 -106h-231
q8 151 129.5 245.5t320.5 94.5q197 0 315.5 -96t118.5 -256v-730h-240v169h-5q-45 -85 -136 -135.5t-194 -50.5zM199 1516h161q1 -83 51.5 -134t132.5 -51t132.5 51t51.5 134h161q-2 -140 -94.5 -229t-250.5 -89t-250.5 89t-94.5 229z" />
    <glyph glyph-name="Aogonek" unicode="&#x104;" horiz-adv-x="1369" 
d="M678 1188l-202 -616h410l-201 616h-7zM1293 -430q-42 -20 -135 -20q-110 0 -181.5 56.5t-71.5 147.5q0 146 163 250l-121 369h-531l-123 -373h-266l512 1443h291l512 -1441l-35 -5q-97 -32 -155 -86t-58 -111q0 -46 33.5 -71t87.5 -25q44 0 78 9v-143z" />
    <glyph glyph-name="aogonek" unicode="&#x105;" horiz-adv-x="1087" 
d="M489 171q107 0 180.5 63.5t73.5 158.5v80l-245 -15q-90 -7 -139.5 -44.5t-49.5 -100.5q0 -65 49.5 -103.5t130.5 -38.5zM965 -416q-44 -20 -134 -20q-109 0 -178.5 55.5t-69.5 144.5q0 77 48.5 141t117.5 103v161h-5q-45 -85 -136 -136t-194 -51q-155 0 -254.5 89.5
t-99.5 231.5q0 141 104.5 222.5t298.5 92.5l280 17v75q0 82 -52 127t-144 45q-85 0 -140.5 -38t-67.5 -102h-230q5 148 129.5 241t317.5 93q195 0 314 -96t119 -253v-728l-25 -5q-78 -23 -135 -72.5t-57 -110.5q0 -45 31 -69.5t84 -24.5q42 0 78 9v-142z" />
    <glyph glyph-name="Cacute" unicode="&#x106;" horiz-adv-x="1439" 
d="M749 -24q-310 0 -490.5 200t-180.5 546q0 344 181.5 544.5t489.5 200.5q252 0 425 -143.5t197 -375.5h-254q-25 136 -126.5 218t-241.5 82q-186 0 -296.5 -142.5t-110.5 -383.5q0 -243 110 -385t298 -142q143 0 240.5 73.5t127.5 203.5h253q-34 -232 -200 -364t-422 -132
zM847 1559h-202l223 300h243z" />
    <glyph glyph-name="cacute" unicode="&#x107;" horiz-adv-x="1083" 
d="M1036 682h-235q-16 89 -76 143.5t-156 54.5q-118 0 -188 -93.5t-70 -256.5q0 -165 70 -257.5t190 -92.5q94 0 154 50.5t77 141.5h235q-15 -178 -142.5 -285.5t-326.5 -107.5q-234 0 -372 147.5t-138 403.5q0 253 138 402.5t370 149.5q204 0 330.5 -113.5t139.5 -286.5z
M658 1211h-203l217 307h238z" />
    <glyph glyph-name="Ccircumflex" unicode="&#x108;" horiz-adv-x="1439" 
d="M749 -24q-310 0 -490.5 200t-180.5 546q0 344 181.5 544.5t489.5 200.5q252 0 425 -143.5t197 -375.5h-254q-25 136 -126.5 218t-241.5 82q-186 0 -296.5 -142.5t-110.5 -383.5q0 -243 110 -385t298 -142q143 0 240.5 73.5t127.5 203.5h253q-34 -232 -200 -364t-422 -132
zM645 1850h192l274 -310h-201l-166 192h-6l-166 -192h-201z" />
    <glyph glyph-name="ccircumflex" unicode="&#x109;" horiz-adv-x="1083" 
d="M1036 682h-235q-16 89 -76 143.5t-156 54.5q-118 0 -188 -93.5t-70 -256.5q0 -165 70 -257.5t190 -92.5q94 0 154 50.5t77 141.5h235q-15 -178 -142.5 -285.5t-326.5 -107.5q-234 0 -372 147.5t-138 403.5q0 253 138 402.5t370 149.5q204 0 330.5 -113.5t139.5 -286.5z
M652 1516l267 -311h-202l-157 188h-7l-157 -188h-202l267 311h191z" />
    <glyph glyph-name="Cdotaccent" unicode="&#x10a;" horiz-adv-x="1439" 
d="M749 -24q-310 0 -490.5 200t-180.5 546q0 344 181.5 544.5t489.5 200.5q252 0 425 -143.5t197 -375.5h-254q-25 136 -126.5 218t-241.5 82q-186 0 -296.5 -142.5t-110.5 -383.5q0 -243 110 -385t298 -142q143 0 240.5 73.5t127.5 203.5h253q-34 -232 -200 -364t-422 -132
zM741 1570q-58 0 -98.5 41t-40.5 98q0 58 40.5 98.5t98.5 40.5t98.5 -40.5t40.5 -98.5q0 -57 -40.5 -98t-98.5 -41z" />
    <glyph glyph-name="cdotaccent" unicode="&#x10b;" horiz-adv-x="1083" 
d="M1036 682h-235q-16 89 -76 143.5t-156 54.5q-118 0 -188 -93.5t-70 -256.5q0 -165 70 -257.5t190 -92.5q94 0 154 50.5t77 141.5h235q-15 -178 -142.5 -285.5t-326.5 -107.5q-234 0 -372 147.5t-138 403.5q0 253 138 402.5t370 149.5q204 0 330.5 -113.5t139.5 -286.5z
M557 1215q-59 0 -100 41t-41 98q0 58 41 99t100 41q58 0 99 -41t41 -99q0 -57 -41 -98t-99 -41z" />
    <glyph glyph-name="Ccaron" unicode="&#x10c;" horiz-adv-x="1439" 
d="M749 -24q-310 0 -490.5 200t-180.5 546q0 344 181.5 544.5t489.5 200.5q252 0 425 -143.5t197 -375.5h-254q-25 136 -126.5 218t-241.5 82q-186 0 -296.5 -142.5t-110.5 -383.5q0 -243 110 -385t298 -142q143 0 240.5 73.5t127.5 203.5h253q-34 -232 -200 -364t-422 -132
zM645 1547l-274 310h201l166 -192h6l166 192h201l-274 -310h-192z" />
    <glyph glyph-name="ccaron" unicode="&#x10d;" horiz-adv-x="1083" 
d="M1036 682h-235q-16 89 -76 143.5t-156 54.5q-118 0 -188 -93.5t-70 -256.5q0 -165 70 -257.5t190 -92.5q94 0 154 50.5t77 141.5h235q-15 -178 -142.5 -285.5t-326.5 -107.5q-234 0 -372 147.5t-138 403.5q0 253 138 402.5t370 149.5q204 0 330.5 -113.5t139.5 -286.5z
M652 1205h-191l-267 311h202l157 -191h7l157 191h202z" />
    <glyph glyph-name="Dcaron" unicode="&#x10e;" horiz-adv-x="1417" 
d="M127 1443h527q324 0 505 -188t181 -530q0 -343 -181 -534t-505 -191h-527v1443zM385 1225v-1007h242q218 0 334 130t116 376q0 242 -117 371.5t-333 129.5h-242zM514 1546l-274 310h201l166 -192h6l166 192h201l-274 -310h-192z" />
    <glyph glyph-name="dcaron" unicode="&#x10f;" horiz-adv-x="1377" 
d="M1228 1443h188l-36 -483h-152v483zM498 -17q-201 0 -320.5 148t-119.5 400q0 251 119.5 399t320.5 148q112 0 198.5 -53t129.5 -143h6v561h249v-1443h-244v181h-4q-44 -91 -132.5 -144.5t-202.5 -53.5zM573 873q-120 0 -190 -92.5t-70 -250.5q0 -159 69.5 -251t190.5 -92
q118 0 189 93t71 250q0 156 -71 249.5t-189 93.5z" />
    <glyph glyph-name="Dcroat" unicode="&#x110;" horiz-adv-x="1434" 
d="M402 218h242q218 0 334 130t116 376q0 242 -117 371.5t-333 129.5h-242v-388h263v-200h-263v-419zM144 1443h527q324 0 505 -188t181 -530q0 -343 -181 -534t-505 -191h-527v637h-109v200h109v606z" />
    <glyph glyph-name="dcroat" unicode="&#x111;" horiz-adv-x="1210" 
d="M573 194q118 0 189 91.5t71 244.5q0 152 -71 244.5t-189 92.5q-119 0 -189.5 -91.5t-70.5 -245.5t70.5 -245t189.5 -91zM1189 1341v-138h-108v-1203h-244v181h-4q-44 -90 -132 -141.5t-203 -51.5q-199 0 -319.5 148t-120.5 395t120.5 394t319.5 147q113 0 199.5 -50.5
t128.5 -139.5h6v321h-217v138h217v102h249v-102h108z" />
    <glyph glyph-name="Emacron" unicode="&#x112;" horiz-adv-x="1158" 
d="M1061 218v-218h-934v1443h934v-218h-676v-390h639v-205h-639v-412h676zM929 1761v-136h-670v136h670z" />
    <glyph glyph-name="emacron" unicode="&#x113;" horiz-adv-x="1105" 
d="M559 889q-104 0 -173.5 -71.5t-77.5 -183.5h495q-4 113 -71 184t-173 71zM804 317h233q-24 -151 -153 -244.5t-316 -93.5q-238 0 -374 146.5t-136 400.5q0 252 135.5 404t364.5 152q225 0 357 -144.5t132 -386.5v-81h-741v-15q0 -128 72.5 -206t194.5 -78
q86 0 148.5 39.5t82.5 106.5zM866 1391v-136h-616v136h616z" />
    <glyph glyph-name="Ebreve" unicode="&#x114;" horiz-adv-x="1158" 
d="M1061 218v-218h-934v1443h934v-218h-676v-390h639v-205h-639v-412h676zM249 1855h162q8 -83 57 -131t126 -48t126 48t57 131h162q-9 -133 -101 -224t-244 -91t-244 91t-101 224z" />
    <glyph glyph-name="ebreve" unicode="&#x115;" horiz-adv-x="1105" 
d="M559 889q-104 0 -173.5 -71.5t-77.5 -183.5h495q-4 113 -71 184t-173 71zM804 317h233q-24 -151 -153 -244.5t-316 -93.5q-238 0 -374 146.5t-136 400.5q0 252 135.5 404t364.5 152q225 0 357 -144.5t132 -386.5v-81h-741v-15q0 -128 72.5 -206t194.5 -78
q86 0 148.5 39.5t82.5 106.5zM212 1516h161q1 -83 51.5 -134t132.5 -51t132.5 51t51.5 134h161q-2 -140 -94.5 -229t-250.5 -89t-250.5 89t-94.5 229z" />
    <glyph glyph-name="Edotaccent" unicode="&#x116;" horiz-adv-x="1158" 
d="M1061 218v-218h-934v1443h934v-218h-676v-390h639v-205h-639v-412h676zM594 1569q-58 0 -98.5 41t-40.5 98q0 58 40.5 98.5t98.5 40.5t98.5 -40.5t40.5 -98.5q0 -57 -40.5 -98t-98.5 -41z" />
    <glyph glyph-name="edotaccent" unicode="&#x117;" horiz-adv-x="1105" 
d="M559 889q-104 0 -173.5 -71.5t-77.5 -183.5h495q-4 113 -71 184t-173 71zM804 317h233q-24 -151 -153 -244.5t-316 -93.5q-238 0 -374 146.5t-136 400.5q0 252 135.5 404t364.5 152q225 0 357 -144.5t132 -386.5v-81h-741v-15q0 -128 72.5 -206t194.5 -78
q86 0 148.5 39.5t82.5 106.5zM558 1215q-59 0 -100 41t-41 98q0 58 41 99t100 41q58 0 99 -41t41 -99q0 -57 -41 -98t-99 -41z" />
    <glyph glyph-name="Eogonek" unicode="&#x118;" horiz-adv-x="1158" 
d="M127 0v1443h934v-218h-676v-390h639v-205h-639v-412h676v-208l-30 -8q-97 -33 -156 -89.5t-59 -112.5q0 -46 33.5 -71t87.5 -25q44 0 78 9v-143q-42 -20 -135 -20q-110 0 -181.5 56.5t-71.5 147.5q0 68 40 131t112 111v4h-652z" />
    <glyph glyph-name="eogonek" unicode="&#x119;" horiz-adv-x="1105" 
d="M751 -436q-109 0 -179 55t-70 144q0 126 135 216v6q-25 -6 -69 -6q-238 0 -374 146.5t-136 400.5q0 252 135.5 404t364.5 152q225 0 357 -144.5t132 -386.5v-81h-741v-15q0 -128 72.5 -206t194.5 -78q86 0 148.5 40t82.5 106h233q-24 -143 -175 -264q-172 -140 -172 -239
q0 -47 32 -72t86 -25q42 0 76 9v-142q-40 -20 -133 -20zM559 889q-104 0 -173.5 -71.5t-77.5 -183.5h495q-4 113 -71 184t-173 71z" />
    <glyph glyph-name="Ecaron" unicode="&#x11a;" horiz-adv-x="1158" 
d="M1061 218v-218h-934v1443h934v-218h-676v-390h639v-205h-639v-412h676zM498 1546l-274 310h201l166 -192h6l166 192h201l-274 -310h-192z" />
    <glyph glyph-name="ecaron" unicode="&#x11b;" horiz-adv-x="1105" 
d="M559 889q-104 0 -173.5 -71.5t-77.5 -183.5h495q-4 113 -71 184t-173 71zM804 317h233q-24 -151 -153 -244.5t-316 -93.5q-238 0 -374 146.5t-136 400.5q0 252 135.5 404t364.5 152q225 0 357 -144.5t132 -386.5v-81h-741v-15q0 -128 72.5 -206t194.5 -78
q86 0 148.5 39.5t82.5 106.5zM653 1205h-191l-267 311h202l157 -191h7l157 191h202z" />
    <glyph glyph-name="Gcircumflex" unicode="&#x11c;" horiz-adv-x="1473" 
d="M1390 602q0 -294 -166.5 -460t-462.5 -166q-316 0 -499.5 201.5t-183.5 549.5q0 343 182.5 541.5t495.5 198.5q246 0 417 -133t206 -350h-262q-37 124 -132 194t-228 70q-195 0 -305 -137t-110 -381q0 -249 113.5 -392t308.5 -143q163 0 266.5 94t106.5 246l1 24h-348
v197h600v-154zM652 1849h192l274 -310h-201l-166 192h-6l-166 -192h-201z" />
    <glyph glyph-name="gcircumflex" unicode="&#x11d;" horiz-adv-x="1182" 
d="M570 197q120 0 191 90.5t71 245.5t-71.5 247.5t-190.5 92.5q-118 0 -187.5 -92t-69.5 -248q0 -157 69.5 -246.5t187.5 -89.5zM569 -400q-195 0 -325.5 89.5t-149.5 230.5h247q20 -61 84 -98.5t152 -37.5q120 0 187.5 61.5t67.5 164.5v179h-6q-42 -87 -130.5 -138.5
t-201.5 -51.5q-198 0 -317 144.5t-119 390.5q0 251 119 397.5t322 146.5q112 0 200 -53.5t134 -146.5h4v182h244v-1043q0 -190 -140 -303.5t-372 -113.5zM670 1516l267 -311h-202l-157 188h-7l-157 -188h-202l267 311h191z" />
    <glyph glyph-name="Gbreve" unicode="&#x11e;" horiz-adv-x="1473" 
d="M1390 602q0 -294 -166.5 -460t-462.5 -166q-316 0 -499.5 201.5t-183.5 549.5q0 343 182.5 541.5t495.5 198.5q246 0 417 -133t206 -350h-262q-37 124 -132 194t-228 70q-195 0 -305 -137t-110 -381q0 -249 113.5 -392t308.5 -143q163 0 266.5 94t106.5 246l1 24h-348
v197h600v-154zM403 1855h162q8 -83 57 -131t126 -48t126 48t57 131h162q-9 -133 -101 -224t-244 -91t-244 91t-101 224z" />
    <glyph glyph-name="gbreve" unicode="&#x11f;" horiz-adv-x="1182" 
d="M570 197q120 0 191 90.5t71 245.5t-71.5 247.5t-190.5 92.5q-118 0 -187.5 -92t-69.5 -248q0 -157 69.5 -246.5t187.5 -89.5zM569 -400q-195 0 -325.5 89.5t-149.5 230.5h247q20 -61 84 -98.5t152 -37.5q120 0 187.5 61.5t67.5 164.5v179h-6q-42 -87 -130.5 -138.5
t-201.5 -51.5q-198 0 -317 144.5t-119 390.5q0 251 119 397.5t322 146.5q112 0 200 -53.5t134 -146.5h4v182h244v-1043q0 -190 -140 -303.5t-372 -113.5zM229 1516h161q1 -83 51.5 -134t132.5 -51t132.5 51t51.5 134h161q-2 -140 -94.5 -229t-250.5 -89t-250.5 89t-94.5 229
z" />
    <glyph glyph-name="Gdotaccent" unicode="&#x120;" horiz-adv-x="1473" 
d="M1390 602q0 -294 -166.5 -460t-462.5 -166q-316 0 -499.5 201.5t-183.5 549.5q0 343 182.5 541.5t495.5 198.5q246 0 417 -133t206 -350h-262q-37 124 -132 194t-228 70q-195 0 -305 -137t-110 -381q0 -249 113.5 -392t308.5 -143q163 0 266.5 94t106.5 246l1 24h-348
v197h600v-154zM748 1569q-58 0 -98.5 41t-40.5 98q0 58 40.5 98.5t98.5 40.5t98.5 -40.5t40.5 -98.5q0 -57 -40.5 -98t-98.5 -41z" />
    <glyph glyph-name="gdotaccent" unicode="&#x121;" horiz-adv-x="1182" 
d="M570 197q120 0 191 90.5t71 245.5t-71.5 247.5t-190.5 92.5q-118 0 -187.5 -92t-69.5 -248q0 -157 69.5 -246.5t187.5 -89.5zM569 -400q-195 0 -325.5 89.5t-149.5 230.5h247q20 -61 84 -98.5t152 -37.5q120 0 187.5 61.5t67.5 164.5v179h-6q-42 -87 -130.5 -138.5
t-201.5 -51.5q-198 0 -317 144.5t-119 390.5q0 251 119 397.5t322 146.5q112 0 200 -53.5t134 -146.5h4v182h244v-1043q0 -190 -140 -303.5t-372 -113.5zM575 1215q-59 0 -100 41t-41 98q0 58 41 99t100 41q58 0 99 -41t41 -99q0 -57 -41 -98t-99 -41z" />
    <glyph glyph-name="Gcommaaccent" unicode="&#x122;" horiz-adv-x="1473" 
d="M1390 602q0 -294 -166.5 -460t-462.5 -166q-316 0 -499.5 201.5t-183.5 549.5q0 343 182.5 541.5t495.5 198.5q246 0 417 -133t206 -350h-262q-37 124 -132 194t-228 70q-195 0 -305 -137t-110 -381q0 -249 113.5 -392t308.5 -143q163 0 266.5 94t106.5 246l1 24h-348
v197h600v-154zM720 -477h-184l122 347h218z" />
    <glyph glyph-name="gcommaaccent" unicode="&#x123;" horiz-adv-x="1182" 
d="M570 197q120 0 191 90.5t71 245.5t-71.5 247.5t-190.5 92.5q-118 0 -187.5 -92t-69.5 -248q0 -157 69.5 -246.5t187.5 -89.5zM569 -400q-195 0 -325.5 89.5t-149.5 230.5h247q20 -61 84 -98.5t152 -37.5q120 0 187.5 61.5t67.5 164.5v179h-6q-42 -87 -130.5 -138.5
t-201.5 -51.5q-198 0 -317 144.5t-119 390.5q0 251 119 397.5t322 146.5q112 0 200 -53.5t134 -146.5h4v182h244v-1043q0 -190 -140 -303.5t-372 -113.5zM603 1537h184l-122 -347h-218z" />
    <glyph glyph-name="Hcircumflex" unicode="&#x124;" horiz-adv-x="1471" 
d="M1344 0h-257v626h-702v-626h-258v1443h258v-600h702v600h257v-1443zM640 1849h192l274 -310h-201l-166 192h-6l-166 -192h-201z" />
    <glyph glyph-name="hcircumflex" unicode="&#x125;" horiz-adv-x="1163" 
d="M109 0v1443h246v-565h5q43 97 129 149.5t206 52.5q174 0 272.5 -106.5t98.5 -290.5v-683h-249v632q0 113 -55.5 175t-162.5 62q-112 0 -176.5 -71t-64.5 -189v-609h-249zM138 1849h192l274 -310h-201l-166 192h-6l-166 -192h-201z" />
    <glyph glyph-name="Hbar" unicode="&#x126;" horiz-adv-x="1488" 
d="M1095 843v217h-702v-217h702zM1469 1246v-186h-117v-1060h-257v626h-702v-626h-258v1060h-115v186h115v197h258v-197h702v197h257v-197h117z" />
    <glyph glyph-name="hbar" unicode="&#x127;" horiz-adv-x="1171" 
d="M363 878h5q43 97 129 149.5t206 52.5q174 0 272.5 -106.5t98.5 -290.5v-683h-249v632q0 113 -55.5 175t-162.5 62q-112 0 -176.5 -71t-64.5 -189v-609h-249v1203h-96v138h96v102h246v-102h229v-138h-229v-325z" />
    <glyph glyph-name="Itilde" unicode="&#x128;" horiz-adv-x="512" 
d="M385 0h-258v1443h258v-1443zM393 1569q-46 0 -87.5 22t-66.5 48.5t-54.5 48.5t-54.5 22q-34 0 -53 -34t-17 -95h-145q0 126 58.5 197t151.5 71q39 0 74 -14.5t59.5 -35.5t45.5 -42t42.5 -35.5t41.5 -14.5q67 0 69 131h144q0 -123 -59 -196t-149 -73z" />
    <glyph glyph-name="itilde" unicode="&#x129;" horiz-adv-x="464" 
d="M108 0v1060h249v-1060h-249zM372 1211q-46 0 -87.5 22t-66.5 48.5t-54.5 48.5t-54.5 22q-34 0 -53 -34t-17 -95h-145q0 126 58.5 197t151.5 71q39 0 74 -14.5t59.5 -35.5t45.5 -42t42.5 -35.5t41.5 -14.5q67 0 69 131h144q0 -123 -59 -196t-149 -73z" />
    <glyph glyph-name="Imacron" unicode="&#x12a;" horiz-adv-x="512" 
d="M385 0h-258v1443h258v-1443zM591 1761v-136h-670v136h670z" />
    <glyph glyph-name="imacron" unicode="&#x12b;" horiz-adv-x="464" 
d="M108 0v1060h249v-1060h-249zM494 1391v-136h-524v136h524z" />
    <glyph glyph-name="Ibreve" unicode="&#x12c;" horiz-adv-x="512" 
d="M385 0h-258v1443h258v-1443zM-89 1855h162q8 -83 57 -131t126 -48t126 48t57 131h162q-9 -133 -101 -224t-244 -91t-244 91t-101 224z" />
    <glyph glyph-name="ibreve" unicode="&#x12d;" horiz-adv-x="464" 
d="M108 0v1060h249v-1060h-249zM-114 1516h161q1 -83 51.5 -134t132.5 -51t132.5 51t51.5 134h161q-2 -140 -94.5 -229t-250.5 -89t-250.5 89t-94.5 229z" />
    <glyph glyph-name="Iogonek" unicode="&#x12e;" horiz-adv-x="512" 
d="M127 -21v1464h258v-1440l-17 -6q-76 -39 -126 -90t-50 -104q0 -47 34.5 -73t90.5 -26q38 0 78 9v-143q-42 -20 -138 -20q-110 0 -180.5 56.5t-70.5 147.5q0 123 121 225z" />
    <glyph glyph-name="iogonek" unicode="&#x12f;" horiz-adv-x="464" 
d="M232 1192q-57 0 -97.5 39.5t-40.5 96.5t40.5 96t97.5 39q58 0 98.5 -39t40.5 -96t-40.5 -96.5t-98.5 -39.5zM108 -16v1076h249v-1055l-28 -8q-158 -80 -158 -184q0 -47 32.5 -71.5t88.5 -24.5q37 0 77 8v-141q-44 -20 -131 -20q-112 0 -182.5 56t-70.5 147q0 58 31.5 115
t91.5 102z" />
    <glyph glyph-name="Idotaccent" unicode="&#x130;" horiz-adv-x="512" 
d="M385 0h-258v1443h258v-1443zM256 1569q-58 0 -98.5 41t-40.5 98q0 58 40.5 98.5t98.5 40.5t98.5 -40.5t40.5 -98.5q0 -57 -40.5 -98t-98.5 -41z" />
    <glyph glyph-name="dotlessi" unicode="&#x131;" horiz-adv-x="464" 
d="M108 0v1060h249v-1060h-249z" />
    <glyph glyph-name="IJ" unicode="&#x132;" horiz-adv-x="1608" 
d="M385 0h-258v1443h258v-1443zM547 394h251q2 -89 58.5 -144t146.5 -55q104 0 158.5 61.5t54.5 178.5v1008h257v-1010q0 -220 -123.5 -342t-343.5 -122q-207 0 -333 116.5t-126 308.5z" />
    <glyph glyph-name="ij" unicode="&#x133;" horiz-adv-x="945" 
d="M108 0v1060h249v-1060h-249zM232 1199q-58 0 -98 39.5t-40 95.5q0 57 40 96.5t98 39.5t98.5 -39.5t40.5 -96.5q0 -56 -40.5 -95.5t-98.5 -39.5zM830 1060v-1110q0 -322 -362 -322q-44 0 -62 2v190q5 -1 33 -1q77 0 109.5 31t32.5 104v1106h249zM705 1199q-58 0 -98 39.5
t-40 95.5q0 57 40 96.5t98 39.5t98.5 -39.5t40.5 -96.5q0 -56 -40.5 -95.5t-98.5 -39.5z" />
    <glyph glyph-name="Jcircumflex" unicode="&#x134;" horiz-adv-x="1096" 
d="M35 394h251q2 -89 58.5 -144t146.5 -55q104 0 158.5 61.5t54.5 178.5v1008h257v-1010q0 -220 -123.5 -342t-343.5 -122q-207 0 -333 116.5t-126 308.5zM740 1849h192l274 -310h-201l-166 192h-6l-166 -192h-201z" />
    <glyph glyph-name="jcircumflex" unicode="&#x135;" horiz-adv-x="464" 
d="M357 1060v-1110q0 -322 -362 -322q-44 0 -62 2v190q5 -1 33 -1q77 0 109.5 31t32.5 104v1106h249zM327 1516l267 -311h-202l-157 188h-7l-157 -188h-202l267 311h191z" />
    <glyph glyph-name="Kcommaaccent" unicode="&#x136;" horiz-adv-x="1319" 
d="M385 0h-258v1443h258v-675h9l576 675h297l-556 -640l599 -803h-314l-469 630l-142 -166v-464zM617 -477h-184l122 347h218z" />
    <glyph glyph-name="kcommaaccent" unicode="&#x137;" horiz-adv-x="1062" 
d="M361 618l399 442h287l-424 -456l442 -604h-288l-335 453l-84 -85v-368h-249v1443h249v-825h3zM530 -477h-184l122 347h218z" />
    <glyph glyph-name="Lacute" unicode="&#x139;" horiz-adv-x="1098" 
d="M1040 218v-218h-913v1443h258v-1225h655zM362 1558h-202l223 300h243z" />
    <glyph glyph-name="lacute" unicode="&#x13a;" horiz-adv-x="468" 
d="M109 0v1443h249v-1443h-249zM340 1558h-202l223 300h243z" />
    <glyph glyph-name="Lcommaaccent" unicode="&#x13b;" horiz-adv-x="1098" 
d="M1040 218v-218h-913v1443h258v-1225h655zM549 -477h-184l122 347h218z" />
    <glyph glyph-name="lcommaaccent" unicode="&#x13c;" horiz-adv-x="468" 
d="M109 0v1443h249v-1443h-249zM206 -477h-184l122 347h218z" />
    <glyph glyph-name="Lcaron" unicode="&#x13d;" horiz-adv-x="1098" 
d="M643 1443h219l-50 -498h-169v498zM1040 218v-218h-913v1443h258v-1225h655z" />
    <glyph glyph-name="lcaron" unicode="&#x13e;" horiz-adv-x="662" 
d="M506 1448h188l-36 -483h-152v483zM109 0v1443h249v-1443h-249z" />
    <glyph glyph-name="Lslash" unicode="&#x141;" horiz-adv-x="1106" 
d="M393 218h655v-218h-913v660l-106 -52v179l106 52v604h258v-479l309 151v-179l-309 -151v-567z" />
    <glyph glyph-name="lslash" unicode="&#x142;" horiz-adv-x="501" 
d="M485 1009v-176l-110 -58v-775h-249v644l-110 -58v177l110 58v622h249v-492z" />
    <glyph glyph-name="Nacute" unicode="&#x143;" horiz-adv-x="1452" 
d="M376 0h-249v1443h224l716 -1011h9v1011h248v-1443h-222l-717 1012h-9v-1012zM832 1558h-202l223 300h243z" />
    <glyph glyph-name="nacute" unicode="&#x144;" horiz-adv-x="1143" 
d="M102 0v1060h239v-182h5q44 96 128.5 149t204.5 53q174 0 270.5 -105t96.5 -290v-685h-249v635q0 114 -53.5 174t-158.5 60q-107 0 -170.5 -70t-63.5 -185v-614h-249zM674 1211h-203l217 307h238z" />
    <glyph glyph-name="Ncommaaccent" unicode="&#x145;" horiz-adv-x="1452" 
d="M376 0h-249v1443h224l716 -1011h9v1011h248v-1443h-222l-717 1012h-9v-1012zM698 -477h-184l122 347h218z" />
    <glyph glyph-name="ncommaaccent" unicode="&#x146;" horiz-adv-x="1143" 
d="M102 0v1060h239v-182h5q44 96 128.5 149t204.5 53q174 0 270.5 -105t96.5 -290v-685h-249v635q0 114 -53.5 174t-158.5 60q-107 0 -170.5 -70t-63.5 -185v-614h-249zM552 -477h-184l122 347h218z" />
    <glyph glyph-name="Ncaron" unicode="&#x147;" horiz-adv-x="1452" 
d="M376 0h-249v1443h224l716 -1011h9v1011h248v-1443h-222l-717 1012h-9v-1012zM630 1546l-274 310h201l166 -192h6l166 192h201l-274 -310h-192z" />
    <glyph glyph-name="ncaron" unicode="&#x148;" horiz-adv-x="1143" 
d="M102 0v1060h239v-182h5q44 96 128.5 149t204.5 53q174 0 270.5 -105t96.5 -290v-685h-249v635q0 114 -53.5 174t-158.5 60q-107 0 -170.5 -70t-63.5 -185v-614h-249zM668 1205h-191l-267 311h202l157 -191h7l157 191h202z" />
    <glyph glyph-name="Omacron" unicode="&#x14c;" horiz-adv-x="1525" 
d="M763 1467q315 0 499.5 -201t184.5 -545t-184.5 -544.5t-499.5 -200.5q-316 0 -500.5 200.5t-184.5 544.5t184.5 545t500.5 201zM763 1247q-193 0 -307 -142t-114 -384q0 -241 114 -383t307 -142t307 142t114 383t-114 383.5t-307 142.5zM1098 1761v-136h-670v136h670z
" />
    <glyph glyph-name="omacron" unicode="&#x14d;" horiz-adv-x="1142" 
d="M571 -21q-235 0 -374 147.5t-139 403.5q0 255 140 403.5t373 148.5q234 0 373.5 -148.5t139.5 -403.5q0 -256 -139 -403.5t-374 -147.5zM571 176q120 0 190 93t70 261q0 167 -70 260.5t-190 93.5q-119 0 -189.5 -93.5t-70.5 -260.5q0 -168 70 -261t190 -93zM879 1391
v-136h-616v136h616z" />
    <glyph glyph-name="Obreve" unicode="&#x14e;" horiz-adv-x="1525" 
d="M763 1467q315 0 499.5 -201t184.5 -545t-184.5 -544.5t-499.5 -200.5q-316 0 -500.5 200.5t-184.5 544.5t184.5 545t500.5 201zM763 1247q-193 0 -307 -142t-114 -384q0 -241 114 -383t307 -142t307 142t114 383t-114 383.5t-307 142.5zM418 1855h162q8 -83 57 -131
t126 -48t126 48t57 131h162q-9 -133 -101 -224t-244 -91t-244 91t-101 224z" />
    <glyph glyph-name="obreve" unicode="&#x14f;" horiz-adv-x="1142" 
d="M571 -21q-235 0 -374 147.5t-139 403.5q0 255 140 403.5t373 148.5q234 0 373.5 -148.5t139.5 -403.5q0 -256 -139 -403.5t-374 -147.5zM571 176q120 0 190 93t70 261q0 167 -70 260.5t-190 93.5q-119 0 -189.5 -93.5t-70.5 -260.5q0 -168 70 -261t190 -93zM225 1516h161
q1 -83 51.5 -134t132.5 -51t132.5 51t51.5 134h161q-2 -140 -94.5 -229t-250.5 -89t-250.5 89t-94.5 229z" />
    <glyph glyph-name="Ohungarumlaut" unicode="&#x150;" horiz-adv-x="1525" 
d="M763 1467q315 0 499.5 -201t184.5 -545t-184.5 -544.5t-499.5 -200.5q-316 0 -500.5 200.5t-184.5 544.5t184.5 545t500.5 201zM763 1247q-193 0 -307 -142t-114 -384q0 -241 114 -383t307 -142t307 142t114 383t-114 383.5t-307 142.5zM1056 1558h-202l224 300h243z
M685 1558h-202l224 300h243z" />
    <glyph glyph-name="ohungarumlaut" unicode="&#x151;" horiz-adv-x="1142" 
d="M571 -21q-235 0 -374 147.5t-139 403.5q0 255 140 403.5t373 148.5q234 0 373.5 -148.5t139.5 -403.5q0 -256 -139 -403.5t-374 -147.5zM571 176q120 0 190 93t70 261q0 167 -70 260.5t-190 93.5q-119 0 -189.5 -93.5t-70.5 -260.5q0 -168 70 -261t190 -93zM651 1211
l192 307h223l-232 -307h-183zM300 1211l192 307h224l-232 -307h-184z" />
    <glyph glyph-name="OE" unicode="&#x152;" horiz-adv-x="2216" 
d="M771 1249q-196 0 -311 -143t-115 -385t115 -384.5t311 -142.5q194 0 309.5 143t115.5 384t-115.5 384.5t-309.5 143.5zM1218 0v233q-61 -121 -190.5 -191.5t-287.5 -70.5q-297 0 -478 205t-181 545q0 341 181.5 546t479.5 205q160 0 284.5 -68.5t191.5 -194.5v234h901
v-218h-663v-390h625v-205h-625v-412h663v-218h-901z" />
    <glyph glyph-name="oe" unicode="&#x153;" horiz-adv-x="1872" 
d="M1351 -21q-127 0 -231.5 53t-158.5 142h-12q-131 -195 -385 -195q-232 0 -369 149.5t-137 400.5t137.5 402t366.5 151q256 0 387 -203h12q53 93 153 148t225 55q216 0 345.5 -145.5t129.5 -385.5v-81h-734v-21q0 -124 73.5 -201t192.5 -77q84 0 145 39t80 101h233
q-22 -144 -149.5 -238t-303.5 -94zM1568 634q-4 114 -69.5 184.5t-169.5 70.5t-173 -71.5t-76 -183.5h488zM306 529q0 -164 68.5 -256.5t189.5 -92.5q122 0 190.5 93t68.5 257t-68.5 257t-190.5 93q-121 0 -189.5 -93t-68.5 -258z" />
    <glyph glyph-name="Racute" unicode="&#x154;" horiz-adv-x="1280" 
d="M385 1234v-493h291q123 0 191 65t68 182q0 114 -71 180t-193 66h-286zM385 543v-543h-258v1443h573q233 0 366 -120.5t133 -328.5q0 -145 -72 -255.5t-200 -156.5l315 -582h-294l-284 543h-279zM693 1558h-202l223 300h243z" />
    <glyph glyph-name="racute" unicode="&#x155;" horiz-adv-x="704" 
d="M102 0v1060h239v-185h5q27 97 93.5 150t160.5 53q33 0 78 -10v-225q-37 14 -101 14q-106 0 -166 -64t-60 -176v-617h-249zM481 1211h-203l217 307h238z" />
    <glyph glyph-name="Rcommaaccent" unicode="&#x156;" horiz-adv-x="1280" 
d="M385 1234v-493h291q123 0 191 65t68 182q0 114 -71 180t-193 66h-286zM385 543v-543h-258v1443h573q233 0 366 -120.5t133 -328.5q0 -145 -72 -255.5t-200 -156.5l315 -582h-294l-284 543h-279zM559 -477h-184l122 347h218z" />
    <glyph glyph-name="rcommaaccent" unicode="&#x157;" horiz-adv-x="704" 
d="M102 0v1060h239v-185h5q27 97 93.5 150t160.5 53q33 0 78 -10v-225q-37 14 -101 14q-106 0 -166 -64t-60 -176v-617h-249zM199 -477h-184l122 347h218z" />
    <glyph glyph-name="Rcaron" unicode="&#x158;" horiz-adv-x="1280" 
d="M385 1234v-493h291q123 0 191 65t68 182q0 114 -71 180t-193 66h-286zM385 543v-543h-258v1443h573q233 0 366 -120.5t133 -328.5q0 -145 -72 -255.5t-200 -156.5l315 -582h-294l-284 543h-279zM491 1546l-274 310h201l166 -192h6l166 192h201l-274 -310h-192z" />
    <glyph glyph-name="rcaron" unicode="&#x159;" horiz-adv-x="704" 
d="M102 0v1060h239v-185h5q27 97 93.5 150t160.5 53q33 0 78 -10v-225q-37 14 -101 14q-106 0 -166 -64t-60 -176v-617h-249zM475 1205h-191l-267 311h202l157 -191h7l157 191h202z" />
    <glyph glyph-name="Sacute" unicode="&#x15a;" horiz-adv-x="1265" 
d="M68 406h250q12 -99 102 -159.5t223 -60.5q130 0 212.5 58t82.5 148q0 78 -60 126.5t-196 80.5l-187 44q-199 46 -295.5 143t-96.5 252q0 191 150 310t387 119q238 0 383.5 -117.5t150.5 -308.5h-246q-9 101 -87 158.5t-203 57.5q-122 0 -197.5 -55t-75.5 -145
q0 -72 58.5 -117t191.5 -77l166 -38q219 -50 318 -146t99 -257q0 -205 -153.5 -325.5t-415.5 -120.5q-250 0 -401.5 115.5t-159.5 314.5zM748 1558h-202l223 300h243z" />
    <glyph glyph-name="sacute" unicode="&#x15b;" horiz-adv-x="1018" 
d="M83 756q0 146 118 236t311 90q186 0 302.5 -91.5t121.5 -238.5h-232q-6 69 -58 108t-139 39q-82 0 -132 -35.5t-50 -93.5q0 -88 152 -125l189 -42q159 -37 227 -104t68 -185q0 -150 -126 -242.5t-327 -92.5q-198 0 -318.5 90.5t-133.5 242.5h245q11 -73 66.5 -112
t149.5 -39q91 0 143.5 34.5t52.5 93.5q0 46 -32.5 73.5t-109.5 47.5l-193 45q-295 69 -295 301zM614 1211h-203l217 307h238z" />
    <glyph glyph-name="Scircumflex" unicode="&#x15c;" horiz-adv-x="1265" 
d="M68 406h250q12 -99 102 -159.5t223 -60.5q130 0 212.5 58t82.5 148q0 78 -60 126.5t-196 80.5l-187 44q-199 46 -295.5 143t-96.5 252q0 191 150 310t387 119q238 0 383.5 -117.5t150.5 -308.5h-246q-9 101 -87 158.5t-203 57.5q-122 0 -197.5 -55t-75.5 -145
q0 -72 58.5 -117t191.5 -77l166 -38q219 -50 318 -146t99 -257q0 -205 -153.5 -325.5t-415.5 -120.5q-250 0 -401.5 115.5t-159.5 314.5zM546 1849h192l274 -310h-201l-166 192h-6l-166 -192h-201z" />
    <glyph glyph-name="scircumflex" unicode="&#x15d;" horiz-adv-x="1018" 
d="M83 756q0 146 118 236t311 90q186 0 302.5 -91.5t121.5 -238.5h-232q-6 69 -58 108t-139 39q-82 0 -132 -35.5t-50 -93.5q0 -88 152 -125l189 -42q159 -37 227 -104t68 -185q0 -150 -126 -242.5t-327 -92.5q-198 0 -318.5 90.5t-133.5 242.5h245q11 -73 66.5 -112
t149.5 -39q91 0 143.5 34.5t52.5 93.5q0 46 -32.5 73.5t-109.5 47.5l-193 45q-295 69 -295 301zM608 1516l267 -311h-202l-157 188h-7l-157 -188h-202l267 311h191z" />
    <glyph glyph-name="Scedilla" unicode="&#x15e;" horiz-adv-x="1265" 
d="M615 863l166 -38q219 -50 318 -146t99 -257q0 -188 -129.5 -305.5t-354.5 -136.5l-44 -97q90 -1 143.5 -44t53.5 -119q0 -87 -66 -134.5t-177 -48.5q-94 -2 -145 14v115q46 -12 117 -12q117 0 117 61q0 31 -30.5 44.5t-101.5 13.5h-65v87l51 118q-224 14 -358 128
t-141 300h250q12 -99 102 -159.5t223 -60.5q130 0 212.5 58t82.5 148q0 78 -60 126.5t-196 80.5l-187 44q-199 46 -295.5 143t-96.5 252q0 191 150 310t387 119q238 0 383.5 -117.5t150.5 -308.5h-246q-9 101 -87 158.5t-203 57.5q-122 0 -197.5 -55t-75.5 -145
q0 -72 58.5 -117t191.5 -77z" />
    <glyph glyph-name="scedilla" unicode="&#x15f;" horiz-adv-x="1018" 
d="M477 645l189 -42q159 -37 227 -104t68 -185q0 -133 -101 -222.5t-269 -108.5l-46 -100q90 -1 143.5 -44t53.5 -119q0 -87 -66 -134.5t-177 -48.5q-94 -2 -145 14v115q46 -12 117 -12q117 0 117 61q0 31 -30.5 44.5t-101.5 13.5h-65v87l52 122q-170 15 -272.5 103
t-114.5 227h245q11 -73 66.5 -112t149.5 -39q91 0 143.5 34.5t52.5 93.5q0 46 -32.5 73.5t-109.5 47.5l-193 45q-295 69 -295 301q0 146 118 236t311 90q186 0 302.5 -91.5t121.5 -238.5h-232q-6 69 -58 108t-139 39q-82 0 -132 -35.5t-50 -93.5q0 -88 152 -125z" />
    <glyph glyph-name="Scaron" unicode="&#x160;" horiz-adv-x="1265" 
d="M68 406h250q12 -99 102 -159.5t223 -60.5q130 0 212.5 58t82.5 148q0 78 -60 126.5t-196 80.5l-187 44q-199 46 -295.5 143t-96.5 252q0 191 150 310t387 119q238 0 383.5 -117.5t150.5 -308.5h-246q-9 101 -87 158.5t-203 57.5q-122 0 -197.5 -55t-75.5 -145
q0 -72 58.5 -117t191.5 -77l166 -38q219 -50 318 -146t99 -257q0 -205 -153.5 -325.5t-415.5 -120.5q-250 0 -401.5 115.5t-159.5 314.5zM546 1546l-274 310h201l166 -192h6l166 192h201l-274 -310h-192z" />
    <glyph glyph-name="scaron" unicode="&#x161;" horiz-adv-x="1018" 
d="M83 756q0 146 118 236t311 90q186 0 302.5 -91.5t121.5 -238.5h-232q-6 69 -58 108t-139 39q-82 0 -132 -35.5t-50 -93.5q0 -88 152 -125l189 -42q159 -37 227 -104t68 -185q0 -150 -126 -242.5t-327 -92.5q-198 0 -318.5 90.5t-133.5 242.5h245q11 -73 66.5 -112
t149.5 -39q91 0 143.5 34.5t52.5 93.5q0 46 -32.5 73.5t-109.5 47.5l-193 45q-295 69 -295 301zM608 1205h-191l-267 311h202l157 -191h7l157 191h202z" />
    <glyph glyph-name="Tcedilla" unicode="&#x162;" horiz-adv-x="1217" 
d="M737 0h-30l-53 -117q90 -1 143.5 -44t53.5 -119q0 -87 -66 -134.5t-177 -48.5q-94 -2 -145 14v115q46 -12 117 -12q117 0 117 61q0 31 -30.5 44.5t-101.5 13.5h-65v87l60 140h-80v1225h-432v218h1120v-218h-431v-1225z" />
    <glyph glyph-name="tcedilla" unicode="&#x163;" horiz-adv-x="687" 
d="M485 -5l-51 -112q90 -1 143.5 -44t53.5 -119q0 -87 -66 -134.5t-177 -48.5q-94 -2 -145 14v115q46 -12 117 -12q117 0 117 61q0 31 -30.5 44.5t-101.5 13.5h-65v87l65 151q-92 24 -133 89t-41 182v586h-152v192h152v248h249v-248h200v-192h-200v-551q0 -65 31 -96t97 -31
q44 0 71 5v-190q-45 -10 -129 -10h-5z" />
    <glyph glyph-name="Tcaron" unicode="&#x164;" horiz-adv-x="1217" 
d="M737 0h-257v1225h-432v218h1120v-218h-431v-1225zM512 1546l-274 310h201l166 -192h6l166 192h201l-274 -310h-192z" />
    <glyph glyph-name="tcaron" unicode="&#x165;" horiz-adv-x="805" 
d="M565 1683h188l-36 -483h-152v483zM171 1308h249v-248h200v-192h-200v-551q0 -65 31 -96t97 -31q44 0 71 5v-190q-45 -10 -129 -10q-172 0 -245.5 66t-73.5 221v586h-152v192h152v248z" />
    <glyph glyph-name="Tbar" unicode="&#x166;" horiz-adv-x="1239" 
d="M1174 1225h-431v-428h297v-186h-297v-611h-257v611h-286v186h286v428h-432v218h1120v-218z" />
    <glyph glyph-name="tbar" unicode="&#x167;" horiz-adv-x="722" 
d="M637 478h-217v-161q0 -65 31 -96t97 -31q44 0 71 5v-190q-45 -10 -129 -10q-172 0 -245.5 66t-73.5 221v196h-145v150h145v240h-152v192h152v248h249v-248h200v-192h-200v-240h217v-150z" />
    <glyph glyph-name="Utilde" unicode="&#x168;" horiz-adv-x="1441" 
d="M385 1443v-911q0 -150 88.5 -240.5t246.5 -90.5t247 90.5t89 240.5v911h257v-934q0 -239 -160.5 -386t-432.5 -147q-271 0 -432 147t-161 386v934h258zM857 1569q-46 0 -87.5 22t-66.5 48.5t-54.5 48.5t-54.5 22q-34 0 -53 -34t-17 -95h-145q0 126 58.5 197t151.5 71
q39 0 74 -14.5t59.5 -35.5t45.5 -42t42.5 -35.5t41.5 -14.5q67 0 69 131h144q0 -123 -59 -196t-149 -73z" />
    <glyph glyph-name="utilde" unicode="&#x169;" horiz-adv-x="1143" 
d="M1042 1060v-1060h-240v184h-5q-88 -203 -324 -203q-173 0 -274.5 105.5t-101.5 288.5v685h249v-635q0 -114 54.5 -174t159.5 -60q107 0 170 70t63 186v613h249zM710 1211q-46 0 -87.5 22t-66.5 48.5t-54.5 48.5t-54.5 22q-34 0 -53 -34t-17 -95h-145q0 126 58.5 197
t151.5 71q39 0 74 -14.5t59.5 -35.5t45.5 -42t42.5 -35.5t41.5 -14.5q67 0 69 131h144q0 -123 -59 -196t-149 -73z" />
    <glyph glyph-name="Umacron" unicode="&#x16a;" horiz-adv-x="1441" 
d="M385 1443v-911q0 -150 88.5 -240.5t246.5 -90.5t247 90.5t89 240.5v911h257v-934q0 -239 -160.5 -386t-432.5 -147q-271 0 -432 147t-161 386v934h258zM1055 1761v-136h-670v136h670z" />
    <glyph glyph-name="umacron" unicode="&#x16b;" horiz-adv-x="1143" 
d="M1042 1060v-1060h-240v184h-5q-88 -203 -324 -203q-173 0 -274.5 105.5t-101.5 288.5v685h249v-635q0 -114 54.5 -174t159.5 -60q107 0 170 70t63 186v613h249zM878 1391v-136h-616v136h616z" />
    <glyph glyph-name="Ubreve" unicode="&#x16c;" horiz-adv-x="1441" 
d="M385 1443v-911q0 -150 88.5 -240.5t246.5 -90.5t247 90.5t89 240.5v911h257v-934q0 -239 -160.5 -386t-432.5 -147q-271 0 -432 147t-161 386v934h258zM375 1855h162q8 -83 57 -131t126 -48t126 48t57 131h162q-9 -133 -101 -224t-244 -91t-244 91t-101 224z" />
    <glyph glyph-name="ubreve" unicode="&#x16d;" horiz-adv-x="1143" 
d="M1042 1060v-1060h-240v184h-5q-88 -203 -324 -203q-173 0 -274.5 105.5t-101.5 288.5v685h249v-635q0 -114 54.5 -174t159.5 -60q107 0 170 70t63 186v613h249zM224 1516h161q1 -83 51.5 -134t132.5 -51t132.5 51t51.5 134h161q-2 -140 -94.5 -229t-250.5 -89t-250.5 89
t-94.5 229z" />
    <glyph glyph-name="Uring" unicode="&#x16e;" horiz-adv-x="1441" 
d="M385 1443v-911q0 -150 88.5 -240.5t246.5 -90.5t247 90.5t89 240.5v911h257v-934q0 -239 -160.5 -386t-432.5 -147q-271 0 -432 147t-161 386v934h258zM720 1517q-82 0 -141 58t-59 140t59 140t141 58t141 -58t59 -140t-59 -140t-141 -58zM720 1621q40 0 68 27.5t28 66.5
q0 40 -28 67.5t-68 27.5t-68 -27.5t-28 -67.5q0 -39 28 -66.5t68 -27.5z" />
    <glyph glyph-name="uring" unicode="&#x16f;" horiz-adv-x="1143" 
d="M1042 1060v-1060h-240v184h-5q-88 -203 -324 -203q-173 0 -274.5 105.5t-101.5 288.5v685h249v-635q0 -114 54.5 -174t159.5 -60q107 0 170 70t63 186v613h249zM570 1159q-86 0 -147 60t-61 145t61 145t147 60q85 0 146 -60t61 -145t-61 -145t-146 -60zM570 1267
q41 0 69.5 28.5t28.5 68.5t-29 69t-69 29t-69 -29t-29 -69t28.5 -68.5t69.5 -28.5z" />
    <glyph glyph-name="Uhungarumlaut" unicode="&#x170;" horiz-adv-x="1441" 
d="M385 1443v-911q0 -150 88.5 -240.5t246.5 -90.5t247 90.5t89 240.5v911h257v-934q0 -239 -160.5 -386t-432.5 -147q-271 0 -432 147t-161 386v934h258zM1013 1558h-202l224 300h243zM642 1558h-202l224 300h243z" />
    <glyph glyph-name="uhungarumlaut" unicode="&#x171;" horiz-adv-x="1143" 
d="M1042 1060v-1060h-240v184h-5q-88 -203 -324 -203q-173 0 -274.5 105.5t-101.5 288.5v685h249v-635q0 -114 54.5 -174t159.5 -60q107 0 170 70t63 186v613h249zM650 1211l192 307h223l-232 -307h-183zM299 1211l192 307h224l-232 -307h-184z" />
    <glyph glyph-name="Uogonek" unicode="&#x172;" horiz-adv-x="1441" 
d="M950 -450q-110 0 -181 56t-71 145q0 66 39 128t107 109v6q-62 -18 -124 -18q-268 0 -430.5 146t-162.5 387v934h258v-911q0 -153 90 -242t245 -89t245.5 88.5t90.5 242.5v911h257v-934q0 -138 -59 -249.5t-183 -213.5q-92 -73 -138 -131t-46 -111q0 -48 33 -74t87 -26
q43 0 79 9v-143q-42 -20 -136 -20z" />
    <glyph glyph-name="uogonek" unicode="&#x173;" horiz-adv-x="1143" 
d="M1018 -416q-42 -20 -134 -20q-109 0 -178.5 55.5t-69.5 144.5q0 77 48.5 141t117.5 103v176h-5q-88 -203 -324 -203q-173 0 -274.5 105.5t-101.5 288.5v685h249v-635q0 -114 54.5 -174t159.5 -60q107 0 170 70t63 186v613h249v-1061l-24 -5q-79 -23 -136 -72.5
t-57 -110.5q0 -45 31 -69.5t85 -24.5q43 0 77 9v-142z" />
    <glyph glyph-name="Wcircumflex" unicode="&#x174;" horiz-adv-x="1946" 
d="M968 1044l-295 -1044h-243l-387 1443h268l250 -1093h8l290 1093h228l290 -1093h8l250 1093h268l-387 -1443h-243l-295 1044h-10zM877 1849h192l274 -310h-201l-166 192h-6l-166 -192h-201z" />
    <glyph glyph-name="wcircumflex" unicode="&#x175;" horiz-adv-x="1562" 
d="M1540 1060l-287 -1060h-262l-209 775h-5l-208 -775h-260l-287 1060h250l179 -814h5l207 814h239l207 -814h6l179 814h246zM876 1516l267 -311h-202l-157 188h-7l-157 -188h-202l267 311h191z" />
    <glyph glyph-name="Ycircumflex" unicode="&#x176;" horiz-adv-x="1323" 
d="M790 0h-257v569l-506 874h283l350 -628h6l349 628h281l-506 -874v-569zM565 1849h192l274 -310h-201l-166 192h-6l-166 -192h-201z" />
    <glyph glyph-name="ycircumflex" unicode="&#x177;" horiz-adv-x="1069" 
d="M220 -394q-81 0 -98 4v197q17 -4 72 -4q77 0 120 32t64 105q0 1 7.5 29t6.5 30l-377 1061h272l250 -848h4l250 848h262l-383 -1102q-68 -197 -168 -274.5t-282 -77.5zM630 1516l267 -311h-202l-157 188h-7l-157 -188h-202l267 311h191z" />
    <glyph glyph-name="Ydieresis" unicode="&#x178;" horiz-adv-x="1323" 
d="M790 0h-257v569l-506 874h283l350 -628h6l349 628h281l-506 -874v-569zM463 1583q-52 0 -88.5 36t-36.5 86q0 51 36.5 87t88.5 36q53 0 89.5 -36t36.5 -87t-36.5 -86.5t-89.5 -35.5zM858 1583q-52 0 -88.5 36t-36.5 86q0 51 36.5 87t88.5 36q53 0 89.5 -36t36.5 -87
t-36.5 -86.5t-89.5 -35.5z" />
    <glyph glyph-name="Zacute" unicode="&#x179;" horiz-adv-x="1281" 
d="M92 0v172l766 1046v7h-745v218h1057v-172l-762 -1046v-7h781v-218h-1097zM747 1558h-202l223 300h243z" />
    <glyph glyph-name="zacute" unicode="&#x17a;" horiz-adv-x="1007" 
d="M81 0v151l549 711v4h-544v194h831v-164l-527 -697v-5h536v-194h-845zM604 1211h-203l217 307h238z" />
    <glyph glyph-name="Zdotaccent" unicode="&#x17b;" horiz-adv-x="1281" 
d="M92 0v172l766 1046v7h-745v218h1057v-172l-762 -1046v-7h781v-218h-1097zM641 1569q-58 0 -98.5 41t-40.5 98q0 58 40.5 98.5t98.5 40.5t98.5 -40.5t40.5 -98.5q0 -57 -40.5 -98t-98.5 -41z" />
    <glyph glyph-name="zdotaccent" unicode="&#x17c;" horiz-adv-x="1007" 
d="M81 0v151l549 711v4h-544v194h831v-164l-527 -697v-5h536v-194h-845zM503 1215q-59 0 -100 41t-41 98q0 58 41 99t100 41q58 0 99 -41t41 -99q0 -57 -41 -98t-99 -41z" />
    <glyph glyph-name="Zcaron" unicode="&#x17d;" horiz-adv-x="1281" 
d="M92 0v172l766 1046v7h-745v218h1057v-172l-762 -1046v-7h781v-218h-1097zM545 1546l-274 310h201l166 -192h6l166 192h201l-274 -310h-192z" />
    <glyph glyph-name="zcaron" unicode="&#x17e;" horiz-adv-x="1007" 
d="M81 0v151l549 711v4h-544v194h831v-164l-527 -697v-5h536v-194h-845zM598 1205h-191l-267 311h202l157 -191h7l157 191h202z" />
    <glyph glyph-name="uni04D8" unicode="&#x4d8;" horiz-adv-x="1469" 
d="M733 -36q-299 0 -471 195t-174 525l2 97h1020v20q1 201 -110.5 329t-287.5 128q-253 0 -344 -211h-262q59 202 221 317t387 115q305 0 486.5 -206t181.5 -553q0 -340 -179 -548t-470 -208zM735 185q149 0 251 108t121 289h-745q14 -185 113.5 -291t259.5 -106z" />
    <glyph glyph-name="uni04D8" unicode="&#x18f;" horiz-adv-x="1469" 
d="M733 -36q-299 0 -471 195t-174 525l2 97h1020v20q1 201 -110.5 329t-287.5 128q-253 0 -344 -211h-262q59 202 221 317t387 115q305 0 486.5 -206t181.5 -553q0 -340 -179 -548t-470 -208zM735 185q149 0 251 108t121 289h-745q14 -185 113.5 -291t259.5 -106z" />
    <glyph glyph-name="florin" unicode="&#x192;" horiz-adv-x="1294" 
d="M1239 1424v-205q-79 38 -177 38q-106 0 -164 -49.5t-74 -153.5l-27 -181h356v-186h-384l-48 -319q-30 -200 -141 -296t-307 -96q-131 0 -217 43v212q82 -47 187 -47q103 0 156.5 50t70.5 163l43 290h-324v186h352l31 205q30 194 144 289t317 95q125 0 206 -38z" />
    <glyph glyph-name="Ohorn" unicode="&#x1a0;" horiz-adv-x="1562" 
d="M763 -24q-317 0 -501 200.5t-184 544.5t184.5 545t500.5 201q83 0 215.5 -23t210.5 -23q58 0 83 21t25 70v154h205v-217q0 -89 -53 -141t-145 -52h-60v-6q87 -65 145 -216.5t58 -312.5q0 -344 -184 -544.5t-500 -200.5zM763 196q193 0 307 142t114 383q0 242 -114 384
t-307 142t-307 -142t-114 -384q0 -241 114 -383t307 -142z" />
    <glyph glyph-name="ohorn" unicode="&#x1a1;" horiz-adv-x="1211" 
d="M571 176q120 0 190 93.5t70 260.5q0 166 -70 260t-190 94t-190 -94t-70 -260q0 -167 70 -260.5t190 -93.5zM1084 518q0 -245 -140.5 -392t-369.5 -147q-237 0 -376.5 148t-139.5 403t139.5 403.5t373.5 148.5q75 0 157.5 -19t121.5 -19q58 0 82 19t24 66v138h203v-204
q0 -81 -44 -128t-121 -47h-33v-5q123 -137 123 -365z" />
    <glyph glyph-name="Uhorn" unicode="&#x1af;" horiz-adv-x="1637" 
d="M720 -25q-268 0 -430.5 146t-162.5 387v935h258v-912q0 -153 90 -241.5t245 -88.5t245.5 88.5t90.5 241.5v912h265q84 0 84 81v174h205v-221q0 -96 -58 -150t-160 -54h-79v-765q0 -241 -162 -387t-431 -146z" />
    <glyph glyph-name="uhorn" unicode="&#x1b0;" horiz-adv-x="1311" 
d="M797 184q-88 -203 -324 -203q-173 0 -274.5 105.5t-101.5 288.5v685h249v-635q0 -114 54.5 -174t159.5 -60q107 0 170 70t63 186v613h240q81 0 81 78v152h203v-199q0 -94 -56.5 -146.5t-156.5 -52.5h-62v-892h-240v184h-5z" />
    <glyph glyph-name="uni01C4" unicode="&#x1c4;" horiz-adv-x="2699" 
d="M127 1443h527q324 0 505 -188t181 -530q0 -343 -181 -534t-505 -191h-527v1443zM385 1225v-1007h242q218 0 334 130t116 376q0 242 -117 371.5t-333 129.5h-242zM1509 0v172l766 1046v7h-745v218h1057v-172l-762 -1046v-7h781v-218h-1097zM1962 1546l-274 310h201
l166 -192h6l166 192h201l-274 -310h-192z" />
    <glyph glyph-name="uni01C5" unicode="&#x1c5;" horiz-adv-x="2447" 
d="M127 1443h527q324 0 505 -188t181 -530q0 -343 -181 -534t-505 -191h-527v1443zM385 1225v-1007h242q218 0 334 130t116 376q0 242 -117 371.5t-333 129.5h-242zM1500 0v151l549 711v4h-544v194h831v-164l-527 -697v-5h536v-194h-845zM2017 1205h-191l-267 311h202
l157 -191h7l157 191h202z" />
    <glyph glyph-name="uni01C6" unicode="&#x1c6;" horiz-adv-x="2238" 
d="M498 -17q-201 0 -320.5 148t-119.5 400q0 251 119.5 399t320.5 148q112 0 198.5 -53t129.5 -143h6v561h249v-1443h-244v181h-4q-44 -91 -132.5 -144.5t-202.5 -53.5zM573 873q-120 0 -190 -92.5t-70 -250.5q0 -159 69.5 -251t190.5 -92q118 0 189 93t71 250
q0 156 -71 249.5t-189 93.5zM1291 0v151l549 711v4h-544v194h831v-164l-527 -697v-5h536v-194h-845zM1808 1205h-191l-267 311h202l157 -191h7l157 191h202z" />
    <glyph glyph-name="uni01C7" unicode="&#x1c7;" horiz-adv-x="2194" 
d="M1040 218v-218h-913v1443h258v-1225h655zM1133 394h251q2 -89 58.5 -144t146.5 -55q104 0 158.5 61.5t54.5 178.5v1008h257v-1010q0 -220 -123.5 -342t-343.5 -122q-207 0 -333 116.5t-126 308.5z" />
    <glyph glyph-name="uni01C8" unicode="&#x1c8;" horiz-adv-x="1571" 
d="M1040 218v-218h-913v1443h258v-1225h655zM1455 1060v-1110q0 -322 -362 -322q-44 0 -62 2v190q5 -1 33 -1q77 0 109.5 31t32.5 104v1106h249zM1330 1199q-58 0 -98 39.5t-40 95.5q0 57 40 96.5t98 39.5t98.5 -39.5t40.5 -96.5q0 -56 -40.5 -95.5t-98.5 -39.5z" />
    <glyph glyph-name="uni01C9" unicode="&#x1c9;" horiz-adv-x="948" 
d="M109 0v1443h249v-1443h-249zM833 1060v-1110q0 -322 -362 -322q-44 0 -62 2v190q5 -1 33 -1q77 0 109.5 31t32.5 104v1106h249zM708 1199q-58 0 -98 39.5t-40 95.5q0 57 40 96.5t98 39.5t98.5 -39.5t40.5 -96.5q0 -56 -40.5 -95.5t-98.5 -39.5z" />
    <glyph glyph-name="uni01CA" unicode="&#x1ca;" horiz-adv-x="2547" 
d="M376 0h-249v1443h224l716 -1011h9v1011h248v-1443h-222l-717 1012h-9v-1012zM1487 394h251q2 -89 58.5 -144t146.5 -55q104 0 158.5 61.5t54.5 178.5v1008h257v-1010q0 -220 -123.5 -342t-343.5 -122q-207 0 -333 116.5t-126 308.5z" />
    <glyph glyph-name="uni01CB" unicode="&#x1cb;" horiz-adv-x="1924" 
d="M376 0h-249v1443h224l716 -1011h9v1011h248v-1443h-222l-717 1012h-9v-1012zM1809 1060v-1110q0 -322 -362 -322q-44 0 -62 2v190q5 -1 33 -1q77 0 109.5 31t32.5 104v1106h249zM1684 1199q-58 0 -98 39.5t-40 95.5q0 57 40 96.5t98 39.5t98.5 -39.5t40.5 -96.5
q0 -56 -40.5 -95.5t-98.5 -39.5z" />
    <glyph glyph-name="uni01CC" unicode="&#x1cc;" horiz-adv-x="1640" 
d="M102 0v1060h239v-182h5q44 96 128.5 149t204.5 53q174 0 270.5 -105t96.5 -290v-685h-249v635q0 114 -53.5 174t-158.5 60q-107 0 -170.5 -70t-63.5 -185v-614h-249zM1524 1060v-1110q0 -322 -362 -322q-44 0 -62 2v190q5 -1 33 -1q77 0 109.5 31t32.5 104v1106h249z
M1399 1199q-58 0 -98 39.5t-40 95.5q0 57 40 96.5t98 39.5t98.5 -39.5t40.5 -96.5q0 -56 -40.5 -95.5t-98.5 -39.5z" />
    <glyph glyph-name="Acaron" unicode="&#x1cd;" horiz-adv-x="1369" 
d="M1070 0l-123 373h-531l-123 -373h-266l512 1443h291l512 -1443h-272zM678 1188l-202 -616h410l-201 616h-7zM588 1546l-274 310h201l166 -192h6l166 192h201l-274 -310h-192z" />
    <glyph glyph-name="acaron" unicode="&#x1ce;" horiz-adv-x="1087" 
d="M489 171q107 0 180.5 63.5t73.5 158.5v81l-245 -15q-90 -6 -139.5 -44.5t-49.5 -101.5q0 -65 49.5 -103.5t130.5 -38.5zM414 -17q-155 0 -254.5 89t-99.5 231q0 141 104.5 223t298.5 94l280 16v76q0 83 -52.5 129t-145.5 46q-87 0 -142 -39t-67 -106h-231
q8 151 129.5 245.5t320.5 94.5q197 0 315.5 -96t118.5 -256v-730h-240v169h-5q-45 -85 -136 -135.5t-194 -50.5zM640 1205h-191l-267 311h202l157 -191h7l157 191h202z" />
    <glyph glyph-name="Icaron" unicode="&#x1cf;" horiz-adv-x="512" 
d="M385 0h-258v1443h258v-1443zM160 1546l-274 310h201l166 -192h6l166 192h201l-274 -310h-192z" />
    <glyph glyph-name="icaron" unicode="&#x1d0;" horiz-adv-x="464" 
d="M108 0v1060h249v-1060h-249zM327 1205h-191l-267 311h202l157 -191h7l157 191h202z" />
    <glyph glyph-name="Ocaron" unicode="&#x1d1;" horiz-adv-x="1525" 
d="M763 1467q315 0 499.5 -201t184.5 -545t-184.5 -544.5t-499.5 -200.5q-316 0 -500.5 200.5t-184.5 544.5t184.5 545t500.5 201zM763 1247q-193 0 -307 -142t-114 -384q0 -241 114 -383t307 -142t307 142t114 383t-114 383.5t-307 142.5zM667 1546l-274 310h201l166 -192
h6l166 192h201l-274 -310h-192z" />
    <glyph glyph-name="ocaron" unicode="&#x1d2;" horiz-adv-x="1142" 
d="M571 -21q-235 0 -374 147.5t-139 403.5q0 255 140 403.5t373 148.5q234 0 373.5 -148.5t139.5 -403.5q0 -256 -139 -403.5t-374 -147.5zM571 176q120 0 190 93t70 261q0 167 -70 260.5t-190 93.5q-119 0 -189.5 -93.5t-70.5 -260.5q0 -168 70 -261t190 -93zM666 1205
h-191l-267 311h202l157 -191h7l157 191h202z" />
    <glyph glyph-name="Ucaron" unicode="&#x1d3;" horiz-adv-x="1441" 
d="M385 1443v-911q0 -150 88.5 -240.5t246.5 -90.5t247 90.5t89 240.5v911h257v-934q0 -239 -160.5 -386t-432.5 -147q-271 0 -432 147t-161 386v934h258zM624 1546l-274 310h201l166 -192h6l166 192h201l-274 -310h-192z" />
    <glyph glyph-name="ucaron" unicode="&#x1d4;" horiz-adv-x="1143" 
d="M1042 1060v-1060h-240v184h-5q-88 -203 -324 -203q-173 0 -274.5 105.5t-101.5 288.5v685h249v-635q0 -114 54.5 -174t159.5 -60q107 0 170 70t63 186v613h249zM665 1205h-191l-267 311h202l157 -191h7l157 191h202z" />
    <glyph glyph-name="Udieresismacron" unicode="&#x1d5;" horiz-adv-x="1441" 
d="M385 1443v-911q0 -150 88.5 -240.5t246.5 -90.5t247 90.5t89 240.5v911h257v-934q0 -239 -160.5 -386t-432.5 -147q-271 0 -432 147t-161 386v934h258zM529 1788q51 0 86 -35t35 -85t-35 -85t-86 -35t-86.5 35t-35.5 85t35 85t87 35zM385 2055h670v-136h-670v136z
M911 1788q52 0 87 -35t35 -85t-35.5 -85t-86.5 -35t-86 35t-35 85t35 85t86 35z" />
    <glyph glyph-name="udieresismacron" unicode="&#x1d6;" horiz-adv-x="1143" 
d="M1042 1060v-1060h-240v184h-5q-88 -203 -324 -203q-173 0 -274.5 105.5t-101.5 288.5v685h249v-635q0 -114 54.5 -174t159.5 -60q107 0 170 70t63 186v613h249zM374 1179q-52 0 -88 35.5t-36 85.5t36 85.5t88 35.5t88 -35.5t36 -85.5t-36 -85.5t-88 -35.5zM766 1179
q-52 0 -88 35.5t-36 85.5t36 85.5t88 35.5t88 -35.5t36 -85.5t-36 -85.5t-88 -35.5zM878 1696v-136h-616v136h616z" />
    <glyph glyph-name="Udieresisacute" unicode="&#x1d7;" horiz-adv-x="1441" 
d="M385 1443v-911q0 -150 88.5 -240.5t246.5 -90.5t247 90.5t89 240.5v911h257v-934q0 -239 -160.5 -386t-432.5 -147q-271 0 -432 147t-161 386v934h258zM614 1860l179 237h219l-207 -237h-191zM529 1548q-51 0 -86.5 35t-35.5 85t35 85t87 35q51 0 86 -35t35 -85t-35 -85
t-86 -35zM911 1548q-51 0 -86 35t-35 85t35 85t86 35q52 0 87 -35t35 -85t-35.5 -85t-86.5 -35z" />
    <glyph glyph-name="udieresisacute" unicode="&#x1d8;" horiz-adv-x="1143" 
d="M1042 1060v-1060h-240v184h-5q-88 -203 -324 -203q-173 0 -274.5 105.5t-101.5 288.5v685h249v-635q0 -114 54.5 -174t159.5 -60q107 0 170 70t63 186v613h249zM463 1536l207 292h214l-233 -292h-188zM372 1181q-52 0 -88.5 36t-36.5 86q0 51 36.5 87t88.5 36
q53 0 89.5 -36t36.5 -87t-36.5 -86.5t-89.5 -35.5zM767 1181q-52 0 -88.5 36t-36.5 86q0 51 36.5 87t88.5 36q53 0 89.5 -36t36.5 -87t-36.5 -86.5t-89.5 -35.5z" />
    <glyph glyph-name="Udieresiscaron" unicode="&#x1d9;" horiz-adv-x="1441" 
d="M385 1443v-911q0 -150 88.5 -240.5t246.5 -90.5t247 90.5t89 240.5v911h257v-934q0 -239 -160.5 -386t-432.5 -147q-271 0 -432 147t-161 386v934h258zM623 1851l-259 255h204l146 -147h12l146 147h204l-259 -255h-194zM529 1788q51 0 86 -35t35 -85t-35 -85t-86 -35
t-86.5 35t-35.5 85t35 85t87 35zM911 1788q52 0 87 -35t35 -85t-35.5 -85t-86.5 -35t-86 35t-35 85t35 85t86 35z" />
    <glyph glyph-name="udieresiscaron" unicode="&#x1da;" horiz-adv-x="1143" 
d="M1042 1060v-1060h-240v184h-5q-88 -203 -324 -203q-173 0 -274.5 105.5t-101.5 288.5v685h249v-635q0 -114 54.5 -174t159.5 -60q107 0 170 70t63 186v613h249zM374 1179q-52 0 -88 35.5t-36 85.5t36 85.5t88 35.5t88 -35.5t36 -85.5t-36 -85.5t-88 -35.5zM766 1179
q-52 0 -88 35.5t-36 85.5t36 85.5t88 35.5t88 -35.5t36 -85.5t-36 -85.5t-88 -35.5zM666 1508h-192l-267 298h202l158 -178h6l158 178h202z" />
    <glyph glyph-name="Udieresisgrave" unicode="&#x1db;" horiz-adv-x="1441" 
d="M385 1443v-911q0 -150 88.5 -240.5t246.5 -90.5t247 90.5t89 240.5v911h257v-934q0 -239 -160.5 -386t-432.5 -147q-271 0 -432 147t-161 386v934h258zM819 1860h-191l-206 237h218zM529 1548q-51 0 -86.5 35t-35.5 85t35 85t87 35q51 0 86 -35t35 -85t-35 -85t-86 -35z
M911 1548q-51 0 -86 35t-35 85t35 85t86 35q52 0 87 -35t35 -85t-35.5 -85t-86.5 -35z" />
    <glyph glyph-name="udieresisgrave" unicode="&#x1dc;" horiz-adv-x="1143" 
d="M1042 1060v-1060h-240v184h-5q-88 -203 -324 -203q-173 0 -274.5 105.5t-101.5 288.5v685h249v-635q0 -114 54.5 -174t159.5 -60q107 0 170 70t63 186v613h249zM675 1535h-180l-232 293h214zM372 1181q-52 0 -88.5 36t-36.5 86q0 51 36.5 87t88.5 36q53 0 89.5 -36
t36.5 -87t-36.5 -86.5t-89.5 -35.5zM767 1181q-52 0 -88.5 36t-36.5 86q0 51 36.5 87t88.5 36q53 0 89.5 -36t36.5 -87t-36.5 -86.5t-89.5 -35.5z" />
    <glyph glyph-name="uni04D9" unicode="&#x4d9;" horiz-adv-x="1124" 
d="M554 171q106 0 176 71t77 186h-495q2 -117 68.5 -187t173.5 -70zM311 761h-233q37 149 162 235t312 86q234 0 369 -147.5t135 -401.5t-136 -404t-367 -150q-224 0 -354.5 143.5t-130.5 389.5l2 79h739v14q0 128 -71 206.5t-188 78.5q-178 0 -239 -129z" />
    <glyph glyph-name="uni04D9" unicode="&#x259;" horiz-adv-x="1124" 
d="M554 171q106 0 176 71t77 186h-495q2 -117 68.5 -187t173.5 -70zM311 761h-233q37 149 162 235t312 86q234 0 369 -147.5t135 -401.5t-136 -404t-367 -150q-224 0 -354.5 143.5t-130.5 389.5l2 79h739v14q0 128 -71 206.5t-188 78.5q-178 0 -239 -129z" />
    <glyph glyph-name="uni04D9" unicode="&#x1dd;" horiz-adv-x="1124" 
d="M554 171q106 0 176 71t77 186h-495q2 -117 68.5 -187t173.5 -70zM311 761h-233q37 149 162 235t312 86q234 0 369 -147.5t135 -401.5t-136 -404t-367 -150q-224 0 -354.5 143.5t-130.5 389.5l2 79h739v14q0 128 -71 206.5t-188 78.5q-178 0 -239 -129z" />
    <glyph glyph-name="Adieresismacron" unicode="&#x1de;" horiz-adv-x="1369" 
d="M1070 0l-123 373h-531l-123 -373h-266l512 1443h291l512 -1443h-272zM678 1188l-202 -616h410l-201 616h-7zM493 1788q51 0 86 -35t35 -85t-35 -85t-86 -35t-86.5 35t-35.5 85t35 85t87 35zM349 2055h670v-136h-670v136zM875 1788q52 0 87 -35t35 -85t-35.5 -85
t-86.5 -35t-86 35t-35 85t35 85t86 35z" />
    <glyph glyph-name="adieresismacron" unicode="&#x1df;" horiz-adv-x="1087" 
d="M489 171q107 0 180.5 63.5t73.5 158.5v81l-245 -15q-90 -6 -139.5 -44.5t-49.5 -101.5q0 -65 49.5 -103.5t130.5 -38.5zM414 -17q-155 0 -254.5 89t-99.5 231q0 141 104.5 223t298.5 94l280 16v76q0 83 -52.5 129t-145.5 46q-87 0 -142 -39t-67 -106h-231
q8 151 129.5 245.5t320.5 94.5q197 0 315.5 -96t118.5 -256v-730h-240v169h-5q-45 -85 -136 -135.5t-194 -50.5zM349 1179q-52 0 -88 35.5t-36 85.5t36 85.5t88 35.5t88 -35.5t36 -85.5t-36 -85.5t-88 -35.5zM741 1179q-52 0 -88 35.5t-36 85.5t36 85.5t88 35.5t88 -35.5
t36 -85.5t-36 -85.5t-88 -35.5zM853 1696v-136h-616v136h616z" />
    <glyph glyph-name="Adotmacron" unicode="&#x1e0;" horiz-adv-x="1369" 
d="M1070 0l-123 373h-531l-123 -373h-266l512 1443h291l512 -1443h-272zM678 1188l-202 -616h410l-201 616h-7zM684 1562q-55 0 -92.5 37t-37.5 90q0 52 37.5 89.5t92.5 37.5t92.5 -37.5t37.5 -89.5q0 -53 -37.5 -90t-92.5 -37zM1019 2055v-136h-670v136h670z" />
    <glyph glyph-name="adotmacron" unicode="&#x1e1;" horiz-adv-x="1087" 
d="M489 171q107 0 180.5 63.5t73.5 158.5v81l-245 -15q-90 -6 -139.5 -44.5t-49.5 -101.5q0 -65 49.5 -103.5t130.5 -38.5zM414 -17q-155 0 -254.5 89t-99.5 231q0 141 104.5 223t298.5 94l280 16v76q0 83 -52.5 129t-145.5 46q-87 0 -142 -39t-67 -106h-231
q8 151 129.5 245.5t320.5 94.5q197 0 315.5 -96t118.5 -256v-730h-240v169h-5q-45 -85 -136 -135.5t-194 -50.5zM545 1187q-58 0 -98.5 40.5t-40.5 98.5q0 56 41 97t98 41t98 -41t41 -97q0 -58 -40.5 -98.5t-98.5 -40.5zM853 1699v-136h-616v136h616z" />
    <glyph glyph-name="AEmacron" unicode="&#x1e2;" horiz-adv-x="2015" 
d="M820 1240l-280 -636h425v636h-145zM965 0v404h-507l-180 -404h-259l641 1443h1223v-217h-677v-397h640v-206h-640v-406h677v-217h-918zM1689 1761v-136h-670v136h670z" />
    <glyph glyph-name="aemacron" unicode="&#x1e3;" horiz-adv-x="1765" 
d="M1239 -21q-131 0 -233 56t-154 154h-9q-60 -98 -159.5 -152t-230.5 -54q-182 0 -289.5 87.5t-107.5 231.5q0 142 106 222.5t305 91.5l275 15v65q0 82 -59 136.5t-151 54.5q-85 0 -140.5 -40.5t-63.5 -104.5h-229q8 150 124.5 245t302.5 95q127 0 221 -47.5t137 -130.5h8
q111 178 353 178q210 0 336 -144t126 -387v-80h-730v-16q0 -126 73 -205t192 -79q83 0 141.5 39.5t81.5 106.5h232q-23 -151 -149 -244.5t-309 -93.5zM1229 889q-104 0 -173 -71t-77 -184h484q-4 115 -67.5 185t-166.5 70zM481 169q109 0 185 66t76 158v77l-245 -15
q-95 -6 -147 -42.5t-52 -99.5t51 -103.5t132 -40.5zM1190 1391v-136h-616v136h616z" />
    <glyph glyph-name="Gcaron" unicode="&#x1e6;" horiz-adv-x="1473" 
d="M1390 602q0 -294 -166.5 -460t-462.5 -166q-316 0 -499.5 201.5t-183.5 549.5q0 343 182.5 541.5t495.5 198.5q246 0 417 -133t206 -350h-262q-37 124 -132 194t-228 70q-195 0 -305 -137t-110 -381q0 -249 113.5 -392t308.5 -143q163 0 266.5 94t106.5 246l1 24h-348
v197h600v-154zM652 1546l-274 310h201l166 -192h6l166 192h201l-274 -310h-192z" />
    <glyph glyph-name="gcaron" unicode="&#x1e7;" horiz-adv-x="1182" 
d="M570 197q120 0 191 90.5t71 245.5t-71.5 247.5t-190.5 92.5q-118 0 -187.5 -92t-69.5 -248q0 -157 69.5 -246.5t187.5 -89.5zM569 -400q-195 0 -325.5 89.5t-149.5 230.5h247q20 -61 84 -98.5t152 -37.5q120 0 187.5 61.5t67.5 164.5v179h-6q-42 -87 -130.5 -138.5
t-201.5 -51.5q-198 0 -317 144.5t-119 390.5q0 251 119 397.5t322 146.5q112 0 200 -53.5t134 -146.5h4v182h244v-1043q0 -190 -140 -303.5t-372 -113.5zM670 1205h-191l-267 311h202l157 -191h7l157 191h202z" />
    <glyph glyph-name="Kcaron" unicode="&#x1e8;" horiz-adv-x="1319" 
d="M385 0h-258v1443h258v-675h9l576 675h297l-556 -640l599 -803h-314l-469 630l-142 -166v-464zM549 1546l-274 310h201l166 -192h6l166 192h201l-274 -310h-192z" />
    <glyph glyph-name="kcaron" unicode="&#x1e9;" horiz-adv-x="1062" 
d="M361 618l399 442h287l-424 -456l442 -604h-288l-335 453l-84 -85v-368h-249v1443h249v-825h3zM137 1546l-274 310h201l166 -192h6l166 192h201l-274 -310h-192z" />
    <glyph glyph-name="Oogonek" unicode="&#x1ea;" horiz-adv-x="1525" 
d="M999 -450q-110 0 -181.5 56t-71.5 145q0 66 39.5 128t106.5 105v6q-64 -14 -129 -14q-317 0 -501 200.5t-184 544.5t184.5 545t500.5 201t500 -201t184 -545q0 -212 -77 -376t-236 -298q-104 -85 -151.5 -140t-47.5 -105q0 -47 33.5 -72.5t87.5 -25.5q44 0 78 9v-143
q-42 -20 -135 -20zM763 1247q-193 0 -307 -142t-114 -384q0 -241 114 -383t307 -142t307 142t114 383q0 242 -114 384t-307 142z" />
    <glyph glyph-name="oogonek" unicode="&#x1eb;" horiz-adv-x="1142" 
d="M756 -436q-109 0 -177 55t-68 145q0 62 33 118t97 96v5q-48 -4 -70 -4q-235 0 -374 147.5t-139 403.5q0 255 140 403.5t373 148.5q234 0 373.5 -148.5t139.5 -403.5q0 -301 -216 -476q-173 -139 -173 -240q0 -47 32 -72t86 -25q43 0 77 9v-142q-42 -20 -134 -20zM571 176
q120 0 190 93t70 261q0 167 -70 260.5t-190 93.5q-119 0 -189.5 -93.5t-70.5 -260.5q0 -168 70 -261t190 -93z" />
    <glyph glyph-name="Oogonekmacron" unicode="&#x1ec;" horiz-adv-x="1525" 
d="M999 -450q-110 0 -181.5 56t-71.5 145q0 66 39.5 128t106.5 105v6q-64 -14 -129 -14q-317 0 -501 200.5t-184 544.5t184.5 545t500.5 201t500 -201t184 -545q0 -212 -77 -376t-236 -298q-104 -85 -151.5 -140t-47.5 -105q0 -47 33.5 -72.5t87.5 -25.5q44 0 78 9v-143
q-42 -20 -135 -20zM763 1247q-193 0 -307 -142t-114 -384q0 -241 114 -383t307 -142t307 142t114 383q0 242 -114 384t-307 142zM1098 1761v-136h-670v136h670z" />
    <glyph glyph-name="oogonekmacron" unicode="&#x1ed;" horiz-adv-x="1142" 
d="M756 -436q-109 0 -177 55t-68 145q0 62 33 118t97 96v5q-48 -4 -70 -4q-235 0 -374 147.5t-139 403.5q0 255 140 403.5t373 148.5q234 0 373.5 -148.5t139.5 -403.5q0 -301 -216 -476q-173 -139 -173 -240q0 -47 32 -72t86 -25q43 0 77 9v-142q-42 -20 -134 -20zM571 176
q120 0 190 93t70 261q0 167 -70 260.5t-190 93.5q-119 0 -189.5 -93.5t-70.5 -260.5q0 -168 70 -261t190 -93zM879 1391v-136h-616v136h616z" />
    </font>
</defs>
</svg>
